#TITLE:Taking Back My Soul;
#SUBTITLE:Wages Of Sin (2001);
#ARTIST:Arch Enemy;
#TITLETRANSLIT:;
#SUBTITLETRANSLIT:;
#ARTISTTRANSLIT:;
#CREDIT:;
#BANNER:taking-bn.png;
#BACKGROUND:taking-bg.png;
#LYRICSPATH:;
#CDTITLE:!gloveTitle.png;
#MUSIC:02-arch_enemy-taking_back_my_soul-jrp.mp3;
#OFFSET:1.626;
#SAMPLESTART:187.160;
#SAMPLELENGTH:12.000;
#SELECTABLE:YES;
#BPMS:0.000=134.701,4.000=134.971,164.000=135.152,204.000=135.012,316.000=175.404,325.000=177.005,483.500=180.246,572.000=174.326,576.000=158.446,580.000=139.387,582.000=134.507;
#STOPS:;
#BGCHANGES:;
// cache tags:
#FIRSTBEAT:4.000;
#LASTBEAT:584.000;
#SONGFILENAME:Songs/toune 6/Taking Back My Soul/undergrounddarknesschainsaws.sm;
#HASMUSIC:1;
#HASBANNER:1;
#MUSICLENGTH:275.461;
// end cache tags

//---------------dance-single - undergroundd----------------
#NOTES:
     dance-single:
     undergroundd:
     Hard:
     7:
     1.000,1.000,1.000,0.309,1.000,1798.000,523.000,85.000,0.000,88.000:

0000
0000
0000
0000
,
1001
0010
0100
0010
0010
0010
1001
0100
1000
0010
0010
0010
0001
0100
1000
1000
,
0011
0000
0000
0000
,
0101
0010
1000
0010
0010
0010
0101
0010
1000
0010
0010
0010
0001
0100
1000
1000
,
0101
0010
0001
0010
0001
0010
0001
0010
0001
0010
0001
0010
0001
0010
0001
0010
,
1001
0100
1000
0010
0010
0010
1001
0100
1000
0010
0010
0010
0001
0010
1000
1000
,
0110
1000
0100
1000
0100
1000
0100
1000
0100
1000
0100
1000
0100
1000
0100
1000
,
0011
0100
1000
0011
0010
0010
1001
0100
1000
0110
0010
0010
0001
0100
1000
1000
,
0011
0100
1000
0110
0010
0010
0101
0010
0100
1010
0010
0010
0001
0100
1000
1000
,
0011
0100
1000
0110
0010
0010
1001
0100
1000
0110
0010
0010
0001
0100
1000
1000
,
0011
0100
1000
0011
0010
0010
0101
0010
0100
0011
0010
0010
0001
0100
1000
1000
,
0011
0110
1100
0110
0000
0000
0101
1010
1100
1010
0000
0000
0000
0000
0000
0000
,
0011
0000
0000
0000
0110
0000
0000
0000
1100
0000
0000
0000
0110
0000
0000
0000
0000
0000
0000
0000
0000
0000
0000
0000
0101
0000
0000
0000
1010
0000
0000
0000
1100
0000
0000
0000
1010
0000
0000
0000
0000
0000
0000
0000
0000
0000
0000
0000
0000
1001
0000
0000
0000
0000
0000
0000
0000
0000
0000
0000
0000
0000
0000
0000
,
0000
0000
0000
0000
,
0011
0100
1000
0110
0000
0000
0011
0100
1000
0110
0000
0000
1001
0010
0001
0010
,
1001
0100
1000
0101
0000
0000
1010
0100
1000
0101
0000
0000
0021
0000
0000
0030
,
1001
0010
0100
0011
0000
0000
1001
0010
0100
0011
0000
0000
1001
0010
0001
0010
,
1001
0100
1000
0101
0000
0000
0011
0100
1000
0101
0000
0000
0020
0000
0000
0030
,
0201
0000
0000
0010
0000
0300
2001
0000
0000
0010
0000
0000
0001
0000
0000
3000
,
1010
0000
0001
0000
0010
0000
0100
0000
0000
0011
0000
0000
0100
0000
0000
1000
0000
0000
0101
0000
0000
0010
0000
0000
0100
0000
0000
2001
0000
0000
0000
0000
0000
0000
0000
0000
0010
0000
0000
0000
0000
0000
0000
0000
0000
3000
0000
0000
,
1001
0000
0100
0000
0010
0000
1000
0000
0010
0100
0001
0000
1000
0000
0100
0000
0010
0000
1100
0000
0010
0000
0001
0000
1000
0000
0100
0010
0001
0000
1000
0000
0100
0000
0001
0000
1010
0000
0100
0000
0010
0000
1000
0000
0100
0000
0001
0000
,
1010
0000
0100
0000
0001
0000
0010
0000
1000
0100
0001
0000
0001
0000
0100
0000
1000
0000
0011
0000
0100
0000
1000
0000
0012
0000
0000
0100
0000
0000
1000
0000
0000
0010
0000
0000
1000
0000
0000
0000
0000
0000
0000
0000
0000
0003
0000
0000
,
1012
0100
1000
0100
0010
0000
0010
0100
1010
0100
0000
0000
0010
0000
0000
0003
,
0011
0100
1000
0100
0010
0000
0001
0100
1010
0100
0000
0000
0012
0000
0000
0003
,
0011
0100
1000
0100
0010
0000
0001
0100
1010
0100
0000
0000
0010
0000
0000
0000
,
0011
0100
1000
0100
0010
0000
0001
0100
1010
0100
0000
0000
0210
0300
0002
0003
,
1010
0100
1000
0100
0010
0000
0001
0100
1010
0100
0000
0000
0010
0000
0000
0000
,
0011
0000
0000
0100
0000
0000
1000
0000
0000
0100
0000
0000
0010
0000
0000
0000
0000
0000
0001
0000
0000
0100
0000
0000
1010
0000
0000
0100
0000
0000
0000
0000
0000
0000
0000
0000
1010
0000
0000
0100
0000
0000
0010
0000
0001
0000
0010
0000
,
1100
0001
1000
0001
0010
0000
0001
0100
1010
0100
0000
0000
0010
0000
0000
0000
,
0011
0100
1000
0100
0010
0000
0001
0100
1010
0100
0000
0000
0000
0000
0000
0000
,
1000
0000
0000
0000
0000
0000
0000
0000
0000
0000
0000
0000
1000
0000
0000
0000
0000
0000
0000
0000
0000
0000
0000
0000
1000
0000
0000
0000
0000
0000
0000
0000
0000
0000
0000
0000
1000
0000
0000
0000
0000
0000
0000
0000
0000
0000
0000
0000
0010
0000
0000
0000
0000
0000
0000
0000
0000
0000
0000
0000
0010
0000
0000
0000
0000
0000
0000
0000
0000
0000
0000
0000
0010
0000
0000
0000
0000
0000
0000
0000
0000
0000
0000
0000
0010
0000
0000
0000
0000
0000
0000
0000
0000
0000
0000
0000
0101
0000
0000
0000
0000
0000
0000
0000
0000
0000
0000
0000
0100
0000
0000
0000
0000
0000
0000
0000
0000
0000
0000
0000
0100
0000
0000
0000
0000
0000
0000
0000
0000
0000
0000
0100
0000
0000
0000
0000
0000
0000
0000
0000
0000
0000
0001
0000
0000
0000
0000
0000
0000
0000
0000
0000
0000
0001
0000
0000
0000
0000
0000
0000
0000
0000
0000
0000
0001
0000
0000
0000
0000
0000
0000
0000
0000
0000
0000
0001
0000
0000
0000
0000
0000
0000
0000
0000
0000
0000
0000
0000
0000
0000
0000
0000
,
1000
1000
1000
1000
0100
0100
0100
0100
0011
0010
0010
0010
0001
0001
0001
0001
,
1010
0000
1100
0000
,
0101
1000
0010
0100
1011
0100
1010
0001
0110
1000
0100
0001
1110
0001
1100
0010
,
0101
1000
0001
0100
1011
0100
1010
0001
0110
1000
0100
0010
1101
0010
1100
0001
,
0110
0001
0010
1000
0111
1000
0110
0001
1100
0010
0100
0001
1110
0001
1100
0010
,
0101
1000
0100
0010
1101
0010
0101
1000
0011
0100
1000
0001
1110
0001
0110
1000
,
0011
0100
0010
1000
0111
1000
0010
0100
1011
0100
0001
0010
1101
0010
0100
0001
,
1110
0001
1000
0100
0011
0100
0001
1000
0110
0001
0100
1000
0011
1000
0100
0001
,
1110
0001
1000
0010
1101
0010
0100
0001
1110
0001
1000
0100
1011
0100
0001
1000
,
0111
0000
1000
0000
0001
0000
0100
0000
1010
0000
0001
0000
0100
0000
0010
0000
1100
0000
0001
0000
0010
0000
0100
0000
0011
0000
1000
0000
0010
0000
0100
1000
,
0011
0000
0000
0000
0000
0000
0000
0000
0000
0000
0000
0000
0110
0000
0000
0000
0000
0000
0000
0000
0000
0000
0000
0000
1100
0000
0000
0000
0000
0000
0000
0000
0000
0000
0000
0000
0110
0000
0000
0000
0000
0000
0000
0000
0000
0000
0000
0000
0001
0000
0000
0000
0000
0000
0000
0000
0000
0000
0000
0000
0100
0000
0000
0000
0000
0000
0000
1000
0000
0000
0000
0000
0011
0000
0000
0000
0000
0000
0000
0000
0000
0000
0000
0000
0110
0000
0000
0000
0000
0000
0000
0000
0000
0000
0000
0000
1100
0000
0000
0000
0000
0000
0000
0000
0000
0000
0000
0000
0110
0000
0000
0000
0000
0000
0000
0000
0000
0000
0001
0000
0000
0000
0000
0000
0000
0010
0000
0000
0000
0000
0000
0000
0100
0000
0000
0000
0000
0000
0000
0000
0000
0000
1000
0000
0000
0000
0000
0000
0000
0000
0000
0000
0010
0000
0000
0000
0000
0000
0000
0100
0000
0000
0000
0000
0000
0000
1000
0000
0000
0000
0000
0000
0000
0000
0000
0000
0010
0000
0000
0000
0000
0000
0000
0100
0000
0000
0000
0000
0000
0000
0000
0000
,
0011
0000
0000
0000
0000
0000
0000
0000
0000
0000
0000
0000
0110
0000
0000
0000
0000
0000
0000
0000
0000
0000
0000
0000
1100
0000
0000
0000
0000
0000
0000
0000
0000
0000
0000
0000
0110
0000
0000
0000
0000
0000
0000
0000
0000
0000
0000
0000
0001
0000
0000
0000
0000
0000
0000
0000
0100
0000
0000
0000
0000
0000
0000
0000
1000
0000
0000
0000
0000
0000
0000
0000
0011
0000
0000
0000
0000
0000
0000
0000
0000
0000
0000
0000
0110
0000
0000
0000
0000
0000
0000
0000
0000
0000
0000
0000
1100
0000
0000
0000
0000
0000
0000
0000
0000
0000
0000
0000
0110
0000
0000
0000
0000
0000
0000
0000
0000
0000
0000
0000
0001
0000
0000
0000
0000
0000
0000
0000
0000
1000
0000
0000
0000
0000
0000
0000
0010
0000
0000
0000
0000
0000
0000
0000
0201
0000
0000
0000
0000
0000
0000
0000
0000
0000
0000
0000
0000
0000
0000
0000
0000
0000
0000
0000
0000
0000
0000
0000
0000
0000
0000
0000
0000
0000
0000
0000
0000
0000
0000
0000
0300
0000
0000
0000
0000
0000
0000
0000
0000
0000
0000
0000
,
0010
0000
0000
0000
0000
0000
0000
1000
0000
0000
0000
0000
0000
0000
0010
0000
0000
0000
0000
0000
0000
1000
0000
0000
0000
0000
0000
0000
0010
0000
0000
0000
0000
0000
0000
1000
0000
0000
0000
0000
0000
0000
0010
0000
0000
0000
0000
0000
0000
1000
0000
0000
0000
0000
0000
0000
0010
0000
0000
0000
0000
0000
0000
1000
0000
0000
0000
0000
0000
0000
0010
0000
0000
0000
0000
0000
0000
1000
0000
0000
0000
0000
0000
0000
0010
0000
0000
0000
0000
0000
0000
1000
0000
0000
0000
0000
0000
0000
0010
0000
0000
0000
0000
0000
0000
1000
0000
0000
0000
0000
0000
0000
0010
0000
0000
0000
0000
0000
0000
1000
0000
0000
0000
0000
0000
0000
0010
0000
0000
0000
0000
0000
0000
1000
0000
0000
0000
0000
0000
0000
0010
0000
0000
0000
0000
0000
0000
1000
0000
0000
0000
0000
0000
0000
0010
0000
0000
0000
0000
0000
0000
1000
0000
0000
0000
0000
0000
0000
0000
0000
0010
0000
0000
0000
0000
0000
0000
0000
0000
0000
1000
0000
0000
0000
0000
0000
0000
0000
0000
0000
0000
0010
,
0000
0000
0000
0000
0000
0000
0000
0001
0000
0000
0000
0000
0000
0000
0010
0000
0000
0000
0000
0000
0000
0100
0000
0000
0000
0000
0000
0000
1000
0000
0000
0000
0000
0000
0000
0100
0000
0000
0000
0000
0000
0000
0010
0000
0000
0000
0000
0000
0000
0000
0001
0000
0000
0000
0000
0000
0000
0000
0010
0000
0000
0000
0000
0000
0000
0100
0000
0000
0000
0000
0000
0000
0000
1000
0000
0000
0000
0000
0000
0000
0000
0100
0000
0000
0000
0000
0000
0000
0010
0000
0000
0000
0000
0000
0000
0000
0001
0000
0000
0000
0000
0000
0000
0000
0000
0000
0100
0000
0000
0000
0000
0000
0000
0000
0000
1000
0000
0000
0000
0000
0000
0000
0000
0000
0000
0100
0000
0000
0000
0000
0000
0000
0000
0000
0010
0000
0000
0000
0000
0000
0000
1000
0000
0000
0001
0000
0000
0000
0000
0000
0000
0010
0000
0000
0000
0000
0000
0000
0100
0000
0000
0000
0000
0000
0000
0000
1000
0000
0000
0000
0000
0000
0000
0000
0100
0000
0000
0000
0000
0000
0000
0000
0000
0010
0000
0000
0000
0000
0000
0000
0000
0000
,
0001
0000
0000
0000
0000
0000
0000
0000
0100
0000
0000
0000
0000
0000
0000
0000
0010
0000
0000
0000
0000
0000
0000
0000
1000
0000
0000
0000
0000
0000
0000
0000
0010
0000
0000
0000
0000
0000
0000
0000
0100
0000
0000
0000
0000
0000
0000
0000
0001
0000
0000
0000
0000
0000
0000
0100
0000
0000
0000
0000
0000
0000
0010
0000
0000
0000
0000
0000
0000
1000
0000
0000
0000
0000
0000
0000
0000
0000
0010
0000
0000
0000
0000
0000
0000
0000
0100
0000
0000
0000
0000
0000
0000
0000
0000
0000
0001
0000
0000
0000
0000
0000
0000
0000
0010
0000
0000
0000
0000
0000
0000
0000
0000
0100
0000
0000
0000
0000
0000
0000
0000
0000
1000
0000
0000
0000
0000
0000
0000
0000
0000
0100
0000
0000
0000
0000
0000
0000
0000
0010
0000
0000
0000
0000
0001
0000
0000
0000
0000
0000
0000
0000
0100
0000
0000
0000
0000
0000
0000
0000
0010
0000
0000
0000
0000
0000
0000
0000
1000
0000
0000
0000
0000
0000
0000
0000
0010
0000
0000
0000
0000
0000
0000
0000
0100
0000
0000
0000
0000
0000
0000
0000
,
0001
0010
0100
1000
0100
0010
0001
0010
0100
1000
0100
0010
0001
0100
0010
1000
0010
0100
0001
0010
0100
1000
0100
0010
,
1002
0000
0000
0000
0000
0000
0000
0000
0000
0000
0000
0000
0000
0000
0000
0000
0000
0000
0000
0000
0000
0000
0000
0000
0000
0000
0000
0000
0000
0000
0000
0000
0000
0000
0000
0000
0010
0000
0000
0000
0000
0000
0000
0000
0000
0000
0000
0000
0000
0000
0000
0000
0000
0000
0000
0000
0000
0000
0000
0000
0000
0000
0000
0000
0000
0000
0000
0000
0000
0000
0000
0000
1000
0000
0000
0000
0000
0000
0000
0000
0000
0000
0000
0000
0000
0000
0000
0000
0000
0000
0000
0000
0000
0000
0000
0000
0003
0000
0000
0000
0000
0000
0000
0000
0000
0000
0000
0000
0010
0000
0000
0000
0000
0000
0000
0000
0000
0000
0000
0000
0000
0000
0000
0000
0000
0000
0000
0000
0000
0000
0000
0000
1000
0000
0000
0000
0000
0000
0000
0000
0000
0000
0000
0000
0110
0000
0000
0000
0000
0000
0000
0000
0000
0001
0000
0000
0000
0000
0000
0000
0000
0000
0100
0000
0000
0000
0000
0000
0000
0000
0000
0000
1000
0000
0000
0000
0000
0000
0000
0000
0000
0000
0100
0000
0000
0000
0000
0000
0000
0000
0000
0000
,
0011
0000
0000
0000
0000
0000
0000
0000
0000
0000
0000
0000
0100
0000
0000
0000
0000
0000
0000
0000
0000
0000
0000
0000
1000
0000
0000
0000
0000
0000
0000
0000
0000
0000
0000
0000
0101
0000
0000
0000
0000
0000
0000
0010
0000
0000
0000
0000
0000
0000
1000
0000
0000
0000
0000
0000
0000
0000
0000
0000
0010
0000
0000
0000
0000
0000
0000
0000
0000
0000
0000
0000
0101
0000
0000
0000
0000
0000
0000
0000
0000
0000
0000
0000
1000
0000
0000
0000
0000
0000
0000
0000
0000
0000
0000
0000
0020
0000
0000
0000
0000
0000
0000
0000
0000
0000
0000
0000
0100
0000
0000
0000
0000
0000
0000
0000
0000
0000
0000
0000
0000
0000
0000
0000
0000
0000
0000
0000
0000
0000
0000
0000
0030
0000
0000
0000
0000
0000
0000
0000
0000
0000
0000
0000
0201
0000
0000
0000
0000
0000
0000
0000
0000
0000
0000
0000
0300
0000
0000
0000
0000
0000
0000
0000
0000
0000
0000
0000
2000
0000
0000
0000
0000
0000
0000
0000
0000
0000
0000
0000
3000
0000
0000
0000
0000
0000
0000
0000
0000
0000
0000
0000
,
0101
0010
0001
1010
0100
0001
1100
0010
1000
0101
0010
0100
1010
0001
0010
0100
,
1001
0000
0000
0010
0000
0000
1000
0000
0000
0110
0000
0000
1000
0000
0000
1000
0000
0000
0011
0000
0100
1000
0001
0000
0110
0000
1000
0001
0100
0000
1010
0000
0001
0000
1100
0000
0012
0000
0000
0000
0000
0000
0000
0000
0000
0003
0000
0000
,
0011
0100
1000
0100
0010
0000
0001
0100
1010
0100
0000
0000
0010
0000
0000
0000
,
0011
0100
1000
0100
0010
0000
0001
0100
1010
0100
0000
0000
0021
0000
0000
0030
,
0011
0100
1000
0100
0010
0000
0001
0100
1010
0100
0000
0000
0010
0000
0000
0000
,
0011
0100
1000
0100
0010
0000
0001
0100
1010
0100
0000
0000
0210
0300
0002
0003
,
1010
0100
1000
0100
0010
0000
0001
0100
1010
0100
0000
0000
0010
0000
0000
0000
,
0011
0000
0000
0100
0000
0000
1000
0000
0000
0100
0000
0000
0010
0000
0000
0000
0000
0000
0001
0000
0000
0100
0000
0000
1010
0000
0000
0100
0000
0000
0000
0000
0000
0000
0000
0000
1010
0000
0000
0100
0000
0000
0010
0000
0001
0000
0010
0000
,
1100
0001
1000
0001
0010
0000
0001
0100
1010
0100
0000
0000
0010
0000
0000
0000
,
0011
0100
1000
0100
0010
0000
0001
0100
1010
0100
0000
0000
0010
0000
0000
0000
,
1000
1000
1000
1000
0100
0100
0100
0100
0011
0010
0010
0010
0001
0001
0001
0001
,
1000
1000
1000
1000
0010
0010
0010
0010
0101
0100
0100
0100
0001
0001
0001
0001
,
1010
0000
1100
0000
,
0101
1000
0010
0100
1011
0100
1010
0001
0110
1000
0100
0001
1110
0001
1100
0010
,
0101
1000
0001
0100
1011
0100
1010
0001
0110
1000
0100
0010
1101
0010
1100
0001
,
0110
0001
0010
1000
0111
1000
0110
0001
1100
0010
0100
0001
1110
0001
1100
0010
,
0101
1000
0100
0010
1101
0010
0101
1000
0011
0100
1000
0001
1110
0001
0110
1000
,
0011
0100
0010
1000
0111
1000
0010
0100
1011
0100
0001
0010
1101
0010
0100
0001
,
1110
0001
1000
0100
0011
0100
0001
1000
0110
0001
0100
1000
0011
1000
0100
0001
,
1110
0001
0100
0010
1101
0010
1000
0001
1110
0001
1000
0100
1011
0100
0001
1000
,
0011
0100
0010
0100
0010
0100
0001
0100
1000
0010
0100
1000
0001
1000
0001
1000
0001
1000
0001
0010
1000
0010
0100
1000
,
0011
1000
0001
1000
0001
1000
0111
0000
0000
1010
0100
0010
0100
0010
0100
0010
0000
0000
0111
1000
0100
1010
0000
0000
,
0001
0100
0001
0100
0001
0100
1011
0000
0000
0110
1000
0010
1000
0010
1000
0010
0000
0000
1101
0010
0001
1010
0000
0000
,
0001
1000
0001
1000
0001
1000
0111
0000
0000
0011
1000
0010
1000
0010
1000
0010
0000
0000
1101
0010
0001
1100
0000
0000
,
0010
1000
0010
1000
0010
1000
0111
0000
0000
0011
0100
0001
0100
0001
0100
0001
0000
0000
0111
1000
0100
1001
0000
0000
,
0010
0100
0010
0100
0010
0100
1011
0000
0000
0001
0100
0001
1100
0001
0100
0001
0000
0000
0111
1000
0100
1000
0000
0000
,
0101
1000
0001
1000
0001
1000
0101
0000
0000
0010
1000
0010
1000
0010
1000
0010
0000
0000
0101
0010
0001
0010
0000
0000
,
2001
0000
0000
3000
0000
0000
0210
0000
0000
0300
0000
0000
0021
0000
0000
0030
0000
0000
0210
0000
0000
0300
0000
0000
2001
0000
0000
0000
0000
0000
3000
0000
0000
0210
0000
0000
0000
0000
0300
0000
0000
1020
0000
0000
0000
0000
0030
0000
,
0000
1002
0000
0000
0000
0000
0000
0000
0000
0000
0000
0000
0000
0000
0000
0000
0000
0000
0000
0000
0000
0000
0000
0000
0000
0000
0000
0000
0000
0000
0000
0000
0000
0000
0000
0000
0000
0000
0000
0000
0000
0000
0000
0000
0000
0000
0000
0000
,
0000
0000
0000
0000
0000
0000
0000
0000
0000
0000
0000
0000
0000
0000
0000
0003
,
1001
0010
0100
0010
0100
1000
0010
0100
1001
0010
1000
0001
0100
1000
0010
0100
,
1001
0010
0100
1000
0001
0010
0100
1000
0001
0010
0100
1000
0001
0000
1010
0000
,
0000
0000
0100
0000
0011
1000
0100
0010
1101
0010
1100
0001
1110
0001
0110
1000
,
0011
0100
0001
1000
0110
1000
0001
0100
1011
0100
1010
0001
1110
0001
1100
0010
,
0101
1000
0010
0001
1100
0010
0001
0100
1011
0100
1001
0010
1101
0010
1100
0010
,
0101
1000
0011
0100
1011
0100
1010
0001
0110
1000
0011
0100
1011
0100
1010
0001
,
1100
0010
0001
0010
1100
0001
0010
0100
1011
0100
1010
0001
1110
0001
0110
1000
,
0011
0100
1000
0001
1100
0010
0100
0010
1101
0010
1001
0100
1011
0100
0011
1000
,
0110
0001
1000
0100
1010
0001
0100
0010
1101
0010
1001
0100
0011
1000
0111
0000
,
0000
0111
1110
1011
0000
0111
1011
1110
,
0000
0000
0010
0000
1001
0110
1001
0110
1001
0100
0011
1000
0101
0010
1001
0100
,
0010
1000
0011
0100
1010
0101
1010
0101
1010
0100
0011
1000
0101
0010
1001
0100
,
0010
1000
0101
0010
1100
0011
1100
0011
1100
0010
0101
1000
0110
1000
0011
0100
,
1000
0010
0101
0010
1001
0100
1010
0100
0001
1000
0011
0100
1010
0001
1100
0001
,
0010
0100
0011
1000
0101
1010
0101
1010
0101
0010
1100
0001
0110
1000
0011
0100
,
0010
1000
0011
0100
1001
0110
1001
0110
1001
0010
1100
0001
0110
1000
0011
0100
,
1000
0001
0110
1000
0011
1100
0011
1100
0011
1000
0101
0010
1001
0100
1011
0000
,
0000
0011
1100
1011
0000
0101
0110
1101
,
0000
1000
0001
0000
1000
0110
0101
0011
,
0000
0100
0001
0000
1000
0110
0101
0011
,
0000
0100
0010
0000
0100
1001
0110
0011
,
0000
0101
1010
0001
0000
0101
0110
1100
,
0000
1000
0001
0000
1000
0110
0101
0011
,
0000
0100
0001
0000
1000
0110
0101
0011
,
0000
0000
0100
0000
0010
0000
0000
0000
0100
0000
1001
0100
1010
0100
1001
0000
,
0000
0000
0101
0000
1010
0000
0001
1000
0001
1000
0101
0010
1100
0001
1120
0000
,
0000
0000
0000
0030
0120
0030
0020
0030
0120
0030
0020
0030
0120
0030
0002
0000
,
0100
0000
0000
0000
0100
0003
2000
0000
0100
0000
0000
0000
0100
3000
0002
0000
,
0100
0000
0000
0000
0000
0000
0000
0000
0000
0000
0000
0000
0100
0000
0000
0000
0003
0000
0020
0000
0000
0000
0000
0000
0001
0000
0000
0000
0000
0000
0000
0000
0000
0030
0000
0000
0001
0000
0000
0000
0000
0000
0200
0000
0000
0000
0000
0000
,
0001
0000
0000
0300
0201
0300
0200
0300
0201
0300
0200
0300
2001
0000
0000
3000
,
1001
0000
0000
0000
0000
0000
0000
0000
0000
0000
0000
0000
0000
0000
0000
0000
0100
0000
0000
0000
0000
0000
0000
0000
0000
0000
0000
0000
0000
0000
0000
0000
0010
0000
0000
0000
0000
0000
0000
0000
0000
0000
0000
0000
0000
0000
0000
0000
1000
0000
0000
0000
0000
0000
0000
0000
0000
0000
0000
0000
0000
0000
0000
0000
0100
0000
0000
0000
0000
0000
0000
0000
0000
0000
0000
0000
0000
0000
0000
0000
0020
0000
0000
0000
0000
0000
0000
0000
0000
0000
0000
0000
0000
0000
0000
0000
0030
0000
0001
0000
0000
0000
0000
0000
0000
0000
0000
0000
0000
0000
0000
0000
1000
0000
0000
0000
0000
0000
0000
0000
0000
0000
0000
0000
0000
0000
0000
0000
0000
0100
0000
0000
0000
0000
0000
0000
0000
0000
0000
0000
0000
0000
0000
0000
0000
0010
0000
0000
0000
0000
0000
0000
0000
0000
0000
0000
0000
0000
0000
0000
1000
0000
0000
0000
0000
0000
0000
0000
0000
0000
0000
0000
0000
0000
0000
0000
0100
0000
0000
0000
0000
0000
0000
0000
0000
0000
0000
0000
0000
0010
0000
0000
,
0000
0000
0000
0000
0000
0000
0001
0000
0000
0000
0000
0000
0000
0000
0000
0000
0000
0000
0000
0000
1000
0000
0000
0000
0000
0000
0000
0000
0000
0000
0000
0000
0100
0000
0000
0000
0000
0000
0000
0000
0000
0000
0000
0000
0010
0000
0000
0000
0000
0000
0000
0000
0000
0001
0000
0000
0000
0000
0000
0000
0000
1000
0000
0000
0000
0000
0000
0000
0000
0100
0000
0000
0000
0000
0000
0000
0010
0000
0000
0000
0000
0000
0000
0001
0000
0000
0000
0000
0000
0000
0000
1000
0000
0000
0000
0000
0000
0000
0000
0000
0000
0100
0000
0000
0000
0000
0000
0000
0000
0000
0000
0010
0000
0000
0000
0000
0000
0000
0000
0000
0000
0000
0000
1000
0000
0000
0000
0000
0000
0000
0000
0100
0000
0000
0000
0000
0000
0000
0000
0010
0000
0000
0000
0000
0000
0000
0000
0001
0000
0000
0000
0000
0000
0000
0000
0000
0000
0000
0000
0000
0000
0000
1000
0000
0000
0000
0000
0000
0000
0000
0000
0100
0000
0000
0000
0000
0000
0000
0000
0000
0010
0000
0000
0000
0000
0000
0000
0000
0000
1000
0000
0000
,
0000
0000
0000
0000
0000
0000
0001
0000
0000
0000
0000
0000
0000
0000
0000
0100
0000
0000
0000
0000
0000
0000
0000
0000
0010
0000
0000
0001
0000
0000
0000
0000
0000
0000
1000
0000
0000
0000
0000
0000
0000
0000
0000
0000
0100
0000
0000
0000
0000
0000
0000
0000
0000
0000
0010
0000
0000
0000
0000
0000
0000
0000
0000
0000
0000
0000
1000
0000
0000
0000
0000
0000
0000
0010
0000
0000
0000
0000
0000
0000
0000
0000
0000
0000
0000
0100
0000
0000
0000
0000
0000
0000
0001
0000
0000
0000
0000
0000
0000
0000
0000
0000
0100
0000
0000
0000
0000
0000
0000
0000
0010
0000
0000
0000
0000
0000
0000
1000
0000
0000
0000
0000
0000
0000
0000
0000
0100
0000
0000
0000
0000
0000
0000
0000
0000
0010
0000
0000
0000
0000
0000
0000
0000
0000
1000
0000
0000
0000
0000
0000
0001
0000
0000
0000
0000
0000
0010
0000
0000
0000
0000
0000
0100
0000
0000
0000
0000
0000
0000
0000
1000
0000
0000
0000
0000
0000
0001
0000
0000
0000
0000
0000
0010
0000
0000
0000
0100
0000
0000
0000
1000
0000
,
0000
0000
0000
0000
0000
0000
0000
0000
0000
0000
0000
0100
0000
0000
0000
0000
0000
0000
0001
0000
0000
0000
0000
0000
0000
0000
0000
0000
0010
0000
0000
0000
0000
0000
0000
0000
0000
0000
0100
0000
0000
0000
0000
0000
0000
0000
0000
0000
2000
0000
0000
0000
0000
0000
0000
0000
0000
0000
0000
0000
0000
0000
0000
0000
0000
0000
0000
0000
0000
0000
0000
0000
0000
0000
0000
0000
0000
0000
0000
0000
0000
0000
0000
0000
0000
0000
0000
0000
0000
0000
0000
0000
0000
0000
0000
0000
0000
0000
0000
0000
0000
0000
0000
0000
0000
0000
0000
0000
0000
0000
0000
0000
0000
0000
0000
0000
0000
0000
0000
0000
0000
0000
0000
0000
0000
0000
0000
0000
0000
0000
0000
0000
0000
0000
0000
0000
0000
0000
0000
0000
0000
0000
0000
0000
0000
0000
0000
0000
0000
0000
0000
0000
0000
0000
0000
0000
0000
0000
0000
0000
0000
0000
0000
0000
0000
0000
0000
0000
0000
0000
0000
0000
0000
0000
0000
0000
0000
0000
0000
0000
3000
0000
0000
0000
0000
0000
0000
0000
0000
0000
0000
0000
,
0001
0100
0010
1000
0001
0100
0010
1000
0001
0100
0010
1000
0010
0100
0001
0100
,
0010
1000
0001
0100
0010
1000
0020
0000
0000
0000
0000
0030
0001
0010
0100
1000
,
0001
0010
0100
1000
0001
0010
0100
1000
0100
0010
0001
0010
0100
1000
0001
0100
,
0001
0010
0100
1000
0001
0100
0001
0010
0100
2000
0020
0000
0000
0000
0000
3030
,
0001
0000
0000
0000
0000
0000
0000
0000
0000
0000
1000
0000
0000
0000
0000
0000
0000
0000
0000
0001
0000
0000
0000
0000
0000
0000
0000
0000
0000
0000
1000
0000
0000
0000
0000
0000
0000
0000
0000
0001
0000
0000
0000
0000
0000
0000
0000
0000
0010
0000
0000
0000
0000
0000
0000
0000
0000
0100
0000
0000
0000
0000
0000
0000
0000
0000
0000
0010
0000
0000
0000
0000
0000
0000
0000
0000
0100
0000
0000
0000
0000
0000
0000
0000
0000
0000
0010
0000
0000
0000
0000
0000
0000
0000
0000
0000
0100
0000
0000
0000
0000
0000
0000
0000
0000
1000
0000
0000
0000
0000
0000
0000
0000
0000
0100
0000
0000
0000
0000
0000
0000
0000
0000
1000
0000
0000
0000
0000
0000
0000
0000
0000
0100
0000
0000
0000
0000
0000
0000
0000
0000
0001
0000
0000
0000
0000
0000
0000
0000
0000
1000
0000
0000
0000
0000
0000
0000
0000
0000
0000
0001
0000
0000
0000
0000
0000
0000
0000
0000
0000
1000
0000
0000
0000
0000
0000
0000
0000
0000
0000
0000
0000
0000
0000
0000
0000
0000
0000
0000
0000
0000
0000
,
0000
0000
0000
0000
0000
0000
0000
0000
0000
0000
0000
0000
0000
0000
0000
0000
0000
0000
0000
0000
0000
0000
0000
0000
1000
0000
0000
0000
0000
0000
0000
0000
0000
0100
0000
0000
0000
0000
0000
0000
0000
0000
1000
0000
0000
0000
0000
0000
0000
0000
0000
0100
0000
0000
0000
0000
0000
0000
0000
0000
1000
0000
0000
0000
0000
0000
0000
0000
0000
0000
0000
0000
0000
0000
0010
0000
0000
0000
0000
0000
0000
0000
0000
0000
0100
0000
0000
0000
0000
0000
0000
0000
0000
0010
0000
0000
0000
0000
0000
0000
0000
0000
0000
0100
0000
0000
0000
0000
0000
0000
0000
0000
0000
0001
0000
0000
0000
0000
0000
0000
0000
0000
0000
1000
0000
0000
0000
0000
0000
0000
0000
0000
0001
0000
0000
0000
0000
0000
0000
0000
0000
0000
1000
0000
0000
0000
0000
0000
0000
0000
0001
0000
0000
0000
0000
0000
0000
0000
0000
0000
0010
0000
0000
0000
0000
0000
0000
0000
0000
0000
0100
0000
0000
0000
0000
0000
0000
0000
0000
0000
0010
0000
0000
0000
0000
0000
0000
0000
0000
0001
0000
0000
,
0000
0000
0000
0000
0000
0000
0000
0000
0000
0100
0000
0000
0000
0000
0000
0000
0000
0000
0000
0000
0000
0001
0000
0000
0000
0000
0000
0000
0000
0000
0000
0000
0000
0100
0000
0000
0000
0000
0000
0000
0000
0000
0000
0000
0000
0010
0000
0000
0000
0000
0000
0000
0000
0000
0000
0000
1000
0000
0000
0000
0000
0000
0000
0000
0000
0000
0000
0010
0000
0000
0000
0000
0000
0000
0000
0000
0000
0000
1000
0000
0000
0000
0000
0000
0001
0000
0000
0000
0000
0000
0000
0000
0000
0000
0000
0000
0100
0000
0000
0000
0000
0000
0000
0000
0000
0000
0000
0000
0001
0000
0000
0000
0000
0000
0000
0000
0000
0000
0100
0000
0000
0000
0000
0000
0000
0000
0000
0000
0001
0000
0000
0000
0000
0000
0000
0000
0000
0000
0000
0100
0000
0000
0000
0000
0000
0000
0000
0000
0000
0000
0000
0000
0001
0000
0000
0000
0000
0000
0000
0000
0000
0000
0000
0000
0000
0000
0000
0010
0000
0000
0000
0000
0000
0000
0000
0000
1000
0000
0000
0000
0000
0000
0000
0000
0000
0000
0200
0000
0000
0000
0000
0000
,
0000
0000
0000
0000
0000
0300
2000
0000
0000
0000
0000
3000
0000
0000
1100
0000
,
0000
0001
0011
0001
0011
1101
0001
1110
,
0000
0000
0010
0010
0110
0000
0010
0000
0001
0000
0011
0000
0110
0000
1101
0000
,
0000
1100
0111
0100
0101
1110
0101
1000
,
1100
0000
0110
0000
0101
1000
0102
1000
0100
0003
0012
0003
0120
0030
2201
0000
,
3300
1001
0111
0001
0011
1101
0011
1110
,
0000
1010
0111
0010
1011
1110
0011
1110
,
0000
0000
1100
0000
0111
0000
0100
0000
1101
0000
1110
0000
0110
0000
1001
0010
,
1001
0000
0101
0000
1010
0100
1002
0100
1000
0003
0012
0003
2010
3000
2221
0000
,
0330
0000
0100
0000
0001
0000
0000
3000
0011
0000
1100
0000
1001
0000
0210
0000
,
0000
0000
1000
0000
0001
0000
0000
0300
0011
0000
1100
0000
0110
0000
0021
0000
,
0000
0000
1000
0000
0001
0000
0000
0030
0101
0000
1100
0000
1100
0000
0012
0000
,
0000
0000
0000
0003
0000
0000
0110
0000
0000
0000
0000
0000
1010
0000
0000
0000
0000
0000
1100
0000
0000
0010
0000
0000
0101
0000
0000
0000
0000
0000
0110
0000
1000
0000
0001
0000
0110
0000
0000
0000
0000
0000
2000
0000
0000
0000
0000
0000
,
0000
0000
0100
0000
0001
0000
0000
3000
0011
0000
1100
0000
1001
0000
0210
0000
,
0000
0000
1000
0000
0001
0000
1000
0300
0011
0000
1010
0000
1100
0000
0021
0000
,
0000
0000
1000
0000
0001
0000
0000
0030
0101
0000
1100
0000
1100
0000
0012
1000
,
0100
0000
0000
1003
0000
0000
0110
0000
0000
0001
0000
0000
1010
0000
0000
0001
0000
0000
1100
0000
0000
0010
0000
0000
0101
0000
0000
1000
0000
0000
0011
0000
0100
0000
0001
0000
1010
0000
0000
0000
0000
0000
1001
0000
0000
0000
0000
0000
,
0000
0000
1000
0000
0001
0000
0020
0000
1000
0030
0000
0000
0001
0000
1200
0000
,
0000
0000
1000
0300
0012
0000
0000
0000
1000
0000
0000
0003
0010
0000
1100
0001
,
0010
1000
0110
0001
1010
0100
0010
0001
1010
0100
1000
0010
2001
0000
0100
0000
,
0000
0000
0000
0000
0000
0000
0100
0000
0000
0000
0000
0000
3010
0000
0000
0002
0000
0000
1003
0000
0000
0120
0000
0000
1000
0000
0000
0000
0000
0000
1030
0000
0000
0100
0000
0000
0011
0000
1000
0000
0100
0000
0012
0000
0000
0000
0000
0000
,
0000
0000
0000
0000
0000
0000
0000
0000
0000
0000
0000
0000
0000
0000
0000
0000
0000
0000
0000
0000
0000
0000
0000
0000
1000
0000
0000
0000
0000
0000
0000
0000
0000
0000
0000
0000
0003
0000
0000
0000
0000
0000
0000
0000
0000
0000
0000
0000
0012
0000
0000
0000
0000
0000
0000
0000
0000
0000
0000
0000
0000
0000
0000
0000
0000
0000
0000
0000
0000
0000
0000
0000
0000
0000
0000
0000
0000
0000
0000
0000
0000
0000
0000
0000
0000
0000
0000
0000
0000
0000
0003
0000
0000
0000
0000
0000
1000
0000
0000
0000
0020
0000
0000
0000
0000
0000
0000
0000
0000
0000
0000
0000
0000
0000
0000
0000
0000
0000
0000
0000
0000
0000
0000
0000
0000
0000
0000
0000
0000
0000
0000
0000
0000
0000
0000
0000
0000
0000
0000
0000
0000
0000
0000
0000
0031
0000
0000
0000
0000
0000
0000
0000
0000
0000
0000
0000
0000
0000
0000
0100
0000
0000
0000
0000
0000
0000
0000
0000
0010
0000
0000
0000
0000
0000
0000
0000
0000
1000
0000
0000
0000
0000
0000
0000
0000
0000
0000
0000
0000
0000
0000
0000
,
0001
0000
0000
0000
0000
0000
0000
0000
0000
0000
0000
0000
0000
0000
0100
0000
0000
0000
0000
0000
0000
0000
0000
0000
0010
0000
0000
0000
2000
0000
0000
0000
0000
0000
0000
0000
0000
0000
0000
0000
0000
0000
0000
0000
0000
0000
0000
0000
0001
0000
0000
0000
0000
0000
0000
0000
0000
0000
0000
0000
0000
0000
0000
0000
0000
0000
0000
0000
0000
0000
0000
0000
0000
0000
0000
0000
0000
0000
0000
0000
0000
0000
0000
0000
0000
0000
0000
0000
0000
0000
0000
0000
0000
0000
0000
0000
0100
0000
0000
0000
0000
0000
0000
0000
0000
0000
0000
0000
0000
0000
0000
0000
0000
0000
0000
0000
0000
0000
0000
0000
0000
0000
0000
0000
0000
0000
0000
0000
0000
0000
0000
0000
0000
0000
0000
0000
0000
0000
0000
0000
0000
0000
0000
0000
0010
0000
0000
0000
0000
0000
0000
0000
0000
0000
0000
0000
3000
0000
0000
0000
0000
0000
0000
0000
0000
0000
0000
0000
1000
0000
0000
0000
0000
0000
0000
0000
0000
0000
0000
0000
0000
0000
0000
0000
0000
0000
0000
0000
0000
0000
0000
0000
,
0002
0000
0000
0000
0000
0003
1000
0020
0000
0000
0000
0000
0001
0000
0030
0000
0200
0000
0010
0000
0000
0000
0300
0000
2001
0000
0000
0010
0000
0000
3001
0000
0200
0000
0000
0000
0001
0000
0300
0010
2000
0000
0001
0000
0000
0000
3000
0000
,
0121
0000
1001
0030
1010
0000
1100
0000
0110
0000
1100
0000
,
1001
0010
0000
0000
0000
0000
0000
0000
1010
0100
0000
0000
0000
0000
0000
0000
1100
0001
0000
0000
0000
0000
0000
0000
1001
0010
0000
0000
0000
0000
0000
0000
0110
0001
0000
0000
0000
0000
0000
0000
1100
0010
0000
0000
0000
0000
0000
0000
,
1001
0000
0000
0000
;
