#TITLE:Go Beyond!! -jazzy mix-;
#SUBTITLE:Dear,Mr.Ryu* (2009);
#ARTIST:Xi;
#TITLETRANSLIT:;
#SUBTITLETRANSLIT:;
#ARTISTTRANSLIT:;
#CREDIT:;
#BANNER:gobeyondbanner.png;
#BACKGROUND:gobeyond.png;
#LYRICSPATH:;
#CDTITLE:cdtitle.png;
#MUSIC:06 - Go Beyond!! -Jazzy mix-.mp3;
#OFFSET:-1.000;
#SAMPLESTART:12.700;
#SAMPLELENGTH:12.000;
#SELECTABLE:YES;
#BPMS:0.000=164.000;
#STOPS:;
#BGCHANGES:;
// cache tags:
#FIRSTBEAT:0.000;
#LASTBEAT:621.000;
#SONGFILENAME:Songs/Hard Songs Megapack Volume 9/Go Beyond!! -Jazzy mix-/Go Beyond!! -Jazzy mix-.sm;
#HASMUSIC:1;
#HASBANNER:1;
#MUSICLENGTH:236.042;
// end cache tags

//---------------dance-single - Patashu 5/09/2009----------------
#NOTES:
     dance-single:
     Patashu 5/09/2009:
     Hard:
     7:
     1.000,1.000,1.000,1.000,1.000,2085.000,888.000,250.000,12.000,272.000:
0010
0100
1000
0001
0010
1000
0010
0100
1000
0001
0100
1000
0100
0010
1000
0001
,
0010
0100
1000
0001
0010
1000
0001
0100
1000
0010
0100
1000
0010
0100
0010
0001
,
0010
0100
1000
0001
0010
0100
0001
0100
1000
0001
0010
1000
0100
0010
1000
0001
,
0010
0100
1000
0001
0010
0100
0001
0010
1000
0001
0010
0100
0010
1000
0101
1001
,
1100
0010
1000
0001
0110
1000
0010
0101
1000
0011
0100
0001
1010
0100
0011
1001
,
1120
0001
0100
1000
0131
1000
0100
0011
1000
0101
1000
0100
1001
0010
0001
0010
,
1001
0010
0100
0001
0110
1000
0101
0110
1010
0001
0100
1010
0100
0010
1001
0010
,
1201
0310
1100
0001
0100
0010
0000
0101
1010
0001
0110
1000
0101
0010
1001
0110
,
1102
0010
1103
0010
1001
0000
0110
1001
1000
0000
0011
0100
1000
0100
0011
0000
,
1100
0000
0101
0000
0011
0000
1010
0101
0000
0011
1001
0000
0100
1000
0112
1003
,
0210
0301
1000
0001
0101
0000
0011
1010
0000
0110
1001
0010
0100
0001
0020
0100
,
1001
0000
1130
0000
0100
0000
0000
0101
0010
1001
0110
1000
0010
0110
0100
0000
,
1012
0100
1013
0001
0110
1000
0001
0110
1000
0101
0010
1001
0100
0010
1200
0310
,
1001
0000
0000
0100
0000
0000
1010
0000
0000
0001
0000
0000
0110
0000
0000
1000
0000
0000
0010
0000
0000
0101
0000
0000
1010
0000
0000
0001
0000
0000
1010
0000
0100
0000
0010
0000
1101
0000
0000
0010
0000
0000
1001
0000
0000
0110
0000
0000
,
1002
0010
0103
1000
0100
0001
0010
0100
1020
0001
1030
1000
0101
0010
0001
0001
,
1120
0001
1030
0100
2010
0001
3110
1000
0201
1010
0301
1000
0012
1100
0023
0100
,
2031
0000
3101
0010
1101
0000
0010
0101
1010
0000
0100
1010
0100
0000
1011
0100
,
1000
0000
0000
0000
0000
0000
0000
0000
0110
0000
0000
0000
1000
0000
0000
0000
0111
0000
0000
0000
0000
0000
0000
0000
0010
0000
0000
0000
0100
0000
0000
0000
0010
0001
1000
0000
0000
0000
0000
0000
0100
0000
0000
0000
1010
0000
0000
0000
0101
0000
0000
0000
0000
0000
0000
0000
1001
0000
0000
0000
0010
0000
0000
0000
,
0001
0000
1000
0100
0011
1000
0100
0011
1000
0101
0010
1001
0010
1100
0011
0100
,
0000
0000
1000
0000
0101
0000
0010
0000
1101
0000
0000
0000
0100
0000
1001
0000
0110
0000
0001
0000
0000
0000
1100
0000
0011
0000
0100
0010
1001
0000
0100
0000
,
1000
0000
0011
1000
0111
0000
0100
0011
1100
0010
0000
1010
0000
0010
1101
0010
,
1000
0100
1001
0010
1101
0000
0100
0010
1100
0001
0000
0011
1100
0010
0101
0010
,
1000
0000
0110
0001
1110
0000
0100
0101
0010
1001
0100
1001
0010
0101
1010
0100
,
0000
0000
0000
1010
0000
0000
0100
0000
0000
0010
0000
0000
1102
0000
0000
0003
0000
0000
0010
0000
0000
1202
0000
0000
0303
0000
0000
0100
0000
0000
0011
0000
0000
1000
0000
0000
0100
0000
0010
0000
0001
0000
1100
0000
0000
0010
0000
0000
,
2102
3003
0101
0010
1101
0000
0010
1001
0110
0000
1002
0113
1000
0000
0122
1033
,
0100
0000
0011
1000
0221
0330
0010
1001
0100
0011
0100
1000
0112
0000
2113
0000
,
3010
0000
0001
0010
0101
1000
0011
0100
1000
0100
0010
0001
0100
1000
0111
1000
,
0100
0000
0010
0000
0001
0000
1000
0000
0100
0000
0010
0000
1102
0000
0000
0000
0000
0000
1013
0000
0000
0100
0000
0000
0011
0000
0000
1000
0000
0000
0100
0000
0000
1001
0000
0000
0000
0000
0000
1011
0000
0000
0000
0000
0000
1100
0000
0000
,
0011
0000
0100
0010
1000
0101
0000
0001
1010
0001
0020
1100
0030
0000
0112
2103
,
3000
0000
0000
0100
0000
0000
0020
0000
0000
0000
0030
0000
1020
0000
0000
0132
0000
0000
0000
0000
0000
0103
0000
0000
0001
0000
0000
1010
0000
0000
0100
0000
0000
1000
0000
0000
0110
0000
0000
1001
0000
0000
0010
0000
0000
1000
0000
0000
,
0110
0000
0110
1000
0111
1000
0100
0010
1100
0011
0000
0101
0010
1100
0011
0101
,
0000
0000
0000
1000
0000
0000
0100
0000
0000
0010
0000
0000
1001
0000
0000
1010
0000
0000
0100
0000
0000
1010
0000
0000
0001
0000
0000
0000
0000
0000
2012
0000
0000
3003
0000
0000
0101
0000
0010
0000
0001
0000
1100
0000
0000
0010
0000
0000
,
1102
0013
1000
0100
0011
1000
0100
0011
0000
1100
0010
1100
0011
1000
0120
1000
,
0030
1010
0000
0010
1101
0000
1100
0010
0101
0010
1000
0010
0101
1000
0001
1220
,
0000
0330
1010
0000
0022
1033
0100
1010
0001
1100
0010
1100
0011
1100
0010
1001
,
0000
0000
0000
0101
0000
0000
0000
0000
0000
0101
0000
0000
0110
0000
0000
0000
0000
0000
1010
0000
0000
0001
0000
0000
0110
0000
0000
0001
0000
0000
0010
0000
0000
0100
0000
0000
1001
0000
0100
0000
0010
0000
0001
0000
0010
0000
1000
0000
,
0221
1330
0001
1000
0110
1001
0100
1010
0000
0101
1000
0110
1001
0010
0102
1000
,
0003
1100
0000
0000
1110
0000
1010
0001
0110
0001
1000
0001
0110
1000
0100
2012
,
0000
3003
0100
0000
2012
3103
0010
0101
1010
0101
1000
0010
1000
0100
0010
1000
,
0100
0000
1012
0000
0003
0000
1000
0000
0121
0000
1030
0000
0101
0000
0010
0000
2101
0000
0000
0000
3001
0010
0100
1000
0010
0100
0001
0010
0100
1000
0010
0100
,
2001
0000
3101
0010
1101
0000
0010
0101
1010
0000
0100
1010
0100
0000
1011
0100
,
1000
0000
0000
0000
0000
0000
0000
0000
0110
0000
0000
0000
1000
0000
0000
0000
0111
0000
0000
0000
0000
0000
0000
0000
0010
0000
0000
0000
0100
0000
0000
0000
0010
0001
1000
0000
0000
0000
0000
0000
0100
0000
0000
0000
1010
0000
0000
0000
0101
0000
0000
0000
0000
0000
0000
0000
1001
0000
0000
0000
0010
0000
0000
0000
,
0001
0000
1000
0100
0011
1000
0100
0011
1000
0101
0010
1001
0010
1100
0011
0100
,
0000
0000
0000
1000
0000
0000
0101
0000
0000
0010
0000
0000
1101
0000
0000
0000
0000
0000
0100
0000
0000
1001
0000
0000
0110
0000
0000
0001
0000
0000
0000
0000
0000
1100
0000
0000
0011
0000
0100
0000
0010
0000
0001
0000
1000
0000
0010
0000
,
0200
0000
0311
1000
0111
0000
0100
0011
1100
0010
0000
1010
0000
0010
1101
0010
,
2001
3100
1001
0010
1101
0000
0100
0010
1102
0013
0000
0021
1130
0010
1201
0310
,
2100
0000
3110
0001
1110
0000
0010
0010
2100
0001
3100
0010
1002
0100
1013
0100
,
0000
0000
0000
1010
0000
0000
0100
0000
0000
0010
0000
0000
1102
0000
0000
0003
0000
0000
0010
0000
0000
1202
0000
0000
0303
0000
0000
0100
0000
0000
0011
0000
0000
1000
0000
0000
0100
0000
0010
0000
0001
0000
1100
0000
0000
0010
0000
0000
,
2102
3003
0101
0010
1101
0000
0010
1001
0110
0000
1002
0113
1000
0000
0122
1033
,
0100
0000
0011
1000
0221
0330
0010
1001
0100
0011
0100
1000
0121
0000
1132
0000
,
0003
0001
0010
0100
1001
0100
0011
0100
1000
0100
0010
0001
0100
1000
0111
1000
,
0100
0000
0010
0000
0001
0000
1000
0000
0100
0000
0010
0000
1102
0000
0000
0000
0000
0000
1013
0000
0000
0100
0000
0000
0011
0000
0000
1000
0000
0000
0100
0000
0000
1001
0000
0000
0000
0000
0000
1011
0000
0000
0000
0000
0000
1100
0000
0000
,
0011
0000
0100
0010
1000
0101
0000
0001
1010
0001
0020
1100
0030
0000
0112
2103
,
3000
0000
0000
0100
0000
0000
0020
0000
0000
0000
0030
0000
1020
0000
0000
0132
0000
0000
0000
0000
0000
0103
0000
0000
1001
0000
0000
0010
0000
0000
0101
0000
0000
1000
0000
0000
0110
0000
0000
1001
0000
0000
0110
0000
0000
0001
0000
0000
,
1110
0001
0010
0100
1000
0001
0010
0100
1000
0001
0010
0100
1000
0001
0010
0100
,
1000
0100
0010
0000
0001
0000
0000
0000
0010
0000
0000
0000
0100
0000
0000
0000
1000
0000
0000
0000
0001
0000
0000
0000
0010
0000
0000
0000
0100
0000
0000
0000
10M0
0000
0000
0000
0M01
0000
0000
0000
M010
0000
0000
0000
010M
0000
0000
0000
10M0
0000
0000
0000
0M01
0000
0000
0000
M010
0000
0000
0000
0100
0000
0000
0000
,
1111
0000
0000
0000
0000
0000
0000
0000
0000
0000
0000
0000
0000
0000
0000
0000
0000
0000
1000
0000
0000
0000
0000
0000
0100
0000
0000
0000
0000
0000
0001
0000
0000
0000
0000
0000
0100
0000
0000
0000
0010
0000
0001
0000
0100
0010
0000
0000
,
1001
0000
0000
0000
0000
0000
1100
0010
0100
0011
0100
0010
,
1001
0000
0000
0100
0000
0000
0010
0000
0000
1100
0000
0000
0011
0000
0000
0000
0010
0000
0100
0000
1000
0010
0000
0000
,
1100
0010
0001
0000
0000
0000
0000
0000
0000
0000
0000
0000
0000
0000
0000
0000
0110
0000
0000
0000
0000
0000
0000
0000
1000
0000
0000
0000
0010
0000
0000
0000
1100
0000
0000
0000
0000
0000
0000
0000
0000
0000
0000
0000
0000
0000
0000
0000
1000
0000
0000
0000
0000
0000
0000
0000
0000
0000
0000
0000
0000
0000
0000
0000
,
0111
0000
0000
0000
0000
0000
1000
0000
0000
0000
0000
0000
0010
0000
0000
0000
0000
0000
0110
0000
0000
1000
0000
0000
0101
0000
0000
0000
0000
0000
0000
0000
0020
0000
0000
0000
0030
0000
0000
0000
0001
0000
0000
0000
0000
0000
0000
0000
,
1001
0000
0000
0110
1000
0010
1102
0003
0000
0100
0000
0000
,
1110
0000
0001
0000
0120
0030
1000
0000
0021
0030
0100
0010
0001
0010
0100
1000
,
0101
0000
0000
0010
0000
0000
0001
0000
0000
0010
0000
0000
1100
0000
0000
0000
0010
0000
0000
0000
0100
0000
0000
0000
0021
0000
0000
0000
0000
0000
0000
0000
0000
0000
0000
0000
0131
0000
0000
0000
0000
0000
0000
0000
0000
0000
0000
0000
,
1111
0000
0000
0000
0000
0000
0000
0000
0000
0000
0000
0000
1000
0000
0000
0000
0000
0000
0101
0000
0000
0000
0000
0000
2010
0000
0000
3000
0000
0000
0100
0000
0000
0000
0000
0000
0010
0000
0000
0000
0001
0000
1000
0000
0010
0100
0000
0000
,
1001
0000
0000
0100
0000
0000
1001
0100
0010
0101
0010
0001
,
1110
0000
0000
0000
0000
0000
0100
0000
0000
0000
0000
0000
0010
0000
0000
0000
0000
0000
0001
0000
0000
0000
0000
0000
1100
0000
0000
0010
0000
0000
0100
0000
0000
1000
0000
0000
0101
0000
0000
0000
0010
0000
1000
0000
0001
0000
0000
0000
,
0110
1000
0001
0000
0000
0000
0000
0000
0000
0000
0000
0000
0000
0000
0000
0000
0100
0000
0000
0000
0000
0000
0000
0000
0001
0000
0000
0000
0010
0000
0000
0000
1101
0000
0000
0000
0010
0000
0000
0000
0001
0000
0000
0000
0010
0000
0000
0000
1001
0000
0000
0000
0010
0000
0000
0000
0001
0000
0000
0000
0010
0000
0000
0000
,
1101
0000
0000
0000
0000
0000
0100
0000
0000
0000
0000
0000
0010
0000
0000
0000
0000
0000
1001
0000
0000
0110
0000
0000
1001
0000
0000
0000
0000
0000
0000
0000
0020
0000
0000
0000
0030
0000
0000
0000
0001
0000
0000
0000
0000
0000
0000
0000
,
2001
0000
0000
3100
0000
0000
0010
0000
0000
0001
0000
0000
1010
0000
0000
0100
0000
0000
0010
0000
0000
0001
0000
0000
1110
0000
0000
0001
0000
0000
0100
0000
0000
0010
0000
0000
0001
0000
0000
0000
0100
0000
0000
0000
1000
0000
0000
0000
,
1111
0000
0010
1100
0011
0000
0010
1100
0010
0001
1010
0101
0010
1001
0010
0101
,
1020
0001
1030
0100
2010
0001
3010
1000
0210
0001
0310
1000
0102
1000
0123
1030
,
1111
0000
0000
0010
0101
0000
1100
0010
0001
0000
1000
0110
0100
0000
0011
0100
,
1001
0000
0000
0100
1010
0000
0001
0000
0000
0000
1100
0001
1000
0110
0000
1020
,
0030
0000
0100
0011
1100
0001
1010
0100
0001
0010
0100
0011
0100
1000
0011
0100
,
1010
0000
0001
0100
0000
0000
0001
0000
1011
0000
0000
1100
0010
0100
1001
0100
,
1010
0000
1000
0011
1100
0001
1010
0100
0011
0000
0000
1101
0000
0000
1011
0000
,
1001
0000
0000
0000
0000
0000
0000
0000
0000
0000
0000
0000
0000
0000
0000
0000
0000
0000
0000
0000
0000
0000
0000
0000
0100
0000
0000
0000
0000
0000
0000
0000
0000
0000
0000
0000
1010
0000
0000
0000
0000
0000
0000
0000
0000
0000
0000
0000
0101
0000
0000
0000
0000
0000
0000
0000
0000
0000
0000
0000
0010
0000
0000
0000
0000
0000
0000
0000
0000
0000
0000
0000
1001
0000
0000
0000
0000
0000
0000
0000
0100
0000
0000
0000
0000
0000
0000
0000
0010
0000
0000
0000
0000
0000
0000
0000
1001
0000
0000
0000
0000
0000
0000
0000
0000
0000
0000
0000
0000
0000
0000
0000
0000
0000
0000
0000
0000
0000
0000
0000
0000
0000
0000
0000
0000
0000
0000
0000
0000
0000
0000
0000
1100
0000
0000
0000
0000
0000
0000
0000
0000
0000
0000
0000
0001
0000
0000
0000
0000
0000
0010
0000
0000
0000
0000
0000
0100
0000
0000
0000
0000
0000
1000
0000
0000
0000
0000
0000
0011
0000
0000
0000
0000
0000
0000
0000
0000
0000
0000
0000
0100
0000
0000
0000
0000
0000
0000
0000
0000
0000
0000
0000
,
1000
0000
0010
0101
1010
0000
0011
0100
1001
0000
0100
0011
0100
0000
1100
0010
,
1101
0000
0110
1000
0200
0301
0000
0001
0011
0010
0100
1000
0100
0100
0010
0010
,
1101
0000
0000
0110
0000
0000
1101
0000
0100
1000
0101
0010
1100
0011
1000
0100
,
0011
0000
0011
0011
0000
0011
0111
0000
0011
0000
0011
0000
0111
1100
0000
2012
,
0000
3003
0000
0100
0001
0000
0011
0100
0010
0000
1001
0010
0100
1000
0011
0100
,
1011
0000
0000
0101
0010
0000
0011
0000
1101
0001
0010
1100
0001
0001
1010
1000
,
0120
0000
0131
0010
0101
1000
0110
0001
0100
0000
1110
0000
0010
0100
1001
0100
,
0011
0000
0000
1010
0100
0001
0110
1000
0011
0000
0000
0000
0101
0010
0010
1100
,
0021
0030
0000
0000
1000
0100
0011
0100
0001
0010
0100
0001
1110
0000
1010
0000
,
0101
0010
0100
1010
0100
0011
0100
1001
0110
1000
0011
0100
1001
0010
1100
0001
,
2220
3330
1100
0010
1001
0000
0100
0011
0100
1001
0010
1100
0001
1100
0011
0100
,
0001
1010
0100
1000
0101
0010
0001
1010
0101
1000
0110
1000
0011
0100
0001
0100
,
1011
0000
0010
0101
1010
0000
1100
0001
0100
0001
1000
0001
0100
0001
1110
0000
,
0000
0000
0000
0001
0100
0000
0000
0000
0100
0000
0000
0000
1110
0000
0000
0000
0100
0000
0000
0000
0100
0010
0000
0000
0100
0000
0000
0010
0000
0000
1001
0000
0000
0010
0000
0000
1101
0000
0000
0010
0000
0000
1100
0000
0000
0001
0000
0000
,
0110
0000
0000
0000
0010
0000
1000
0000
0010
0100
0000
0000
1010
0000
0000
0000
0010
0000
0100
0000
0010
1000
0000
0000
0110
0000
0000
1010
0000
0000
0000
0000
0000
1011
0000
0000
0000
0000
0000
1000
0000
0000
0101
0000
0000
0000
0000
0000
,
0000
1011
0011
0000
0111
0011
0000
1011
0011
1000
0110
0001
1110
0000
1100
0000
,
1001
0100
0010
1100
0011
0100
1010
0101
0010
1100
0010
1001
0100
0011
1100
0010
,
1001
0000
0000
0000
0000
0000
0000
0000
0000
0000
0000
0000
0100
0000
0000
0000
0001
0000
0000
0000
0000
0000
0000
0000
0000
0000
0000
0000
0000
0000
0000
0000
0001
0000
0000
0000
1000
0000
0000
0000
0000
0000
0000
0000
0000
0000
0000
0000
0111
0000
0000
0000
0000
0000
0000
0000
0000
0000
0000
0000
0000
0000
0000
0000
0001
0000
0000
0000
0000
0000
0000
0000
0100
0000
0000
0000
0000
0000
0000
0000
0001
0000
0000
0000
0000
0000
0000
0000
0000
0000
0000
0000
0000
0000
0000
0000
0011
0000
0000
0000
0000
0000
0000
0000
0000
0000
0000
0000
0100
0000
0000
0000
0000
0000
0000
0000
0000
0000
0000
0000
1000
0000
0000
0000
0000
0000
0000
0000
0000
0000
0000
0000
0111
0000
0000
0000
0000
0000
0000
0000
0000
0000
0000
0000
1000
0000
0000
0000
0000
0000
0000
0000
0000
0000
0000
0000
1000
0000
0000
0000
0000
0000
0000
0000
0000
0000
0000
0000
2222
0000
0000
0000
0000
0000
3000
0000
0000
0000
0000
0000
0300
0000
0000
0000
0000
0000
0030
0000
0000
0000
0000
0000
,
0003
0001
0010
0100
1010
0001
0100
1001
0010
1001
0100
1001
0010
1100
0011
1000
,
0010
1001
0100
0010
0101
1000
0010
1100
0001
1010
0100
1001
0110
1000
0010
1001
,
0000
1000
0100
0010
0101
1000
0001
0110
0001
1100
0010
1001
0100
1010
0101
1000
,
0101
0010
0000
1010
0001
0100
0010
1100
0001
0110
0000
1010
0101
1000
0010
0001
,
0120
1000
0031
0010
0101
1000
0011
0111
0011
0000
0011
0011
0000
0011
1011
0011
,
0100
1001
0010
0100
1010
0001
1010
0110
1001
0010
0101
1000
0011
1100
0101
1010
,
1101
0001
0010
1000
0100
0001
1100
0010
1010
0001
0010
0100
1010
0001
0110
1000
,
0021
0000
1000
0000
0031
0000
0100
0000
2010
0000
0001
0000
3100
0000
0001
0000
1200
0000
0301
0000
1000
0100
0010
0001
0100
0010
1000
0100
0010
0001
0100
0010
,
1000
0000
0000
0000
0000
0000
0000
0000
0000
0000
0000
0000
1222
0000
0000
0000
0000
0000
1333
0000
0000
0100
0000
0000
0010
0000
0000
0000
0000
0000
1001
0000
0000
0010
0000
0000
0101
0000
0000
0000
0010
0000
2200
3300
0001
0010
0000
0000
,
1100
0000
0010
0100
0011
1100
0110
0011
2200
3300
1000
0202
0313
0001
2020
3130
,
1022
0000
0000
0033
0000
0000
0100
0000
0000
0010
0000
0000
0100
0000
0000
0011
0000
0000
0110
0000
0000
1100
0000
0000
0011
0000
0000
0100
0000
0000
0000
0000
1010
0001
0000
0000
0000
0000
0000
0010
1100
0000
0001
0000
0000
0000
0000
0000
,
0221
1000
0331
0100
0011
0000
1010
0101
1011
0000
1212
0000
0313
0001
0120
1030
,
0100
0000
0000
0000
0000
0000
0000
0000
0000
0010
0000
0000
2212
0000
0000
0000
0000
0000
3313
0000
0000
1001
0000
0000
0100
0000
0000
1010
0000
0000
0100
0000
0000
1010
0000
0000
0001
0000
0000
0110
0000
0000
2102
3003
0000
0010
0000
0000
,
2102
0000
0000
0000
0000
0000
3013
0000
0000
0100
0000
0000
0011
0000
0000
1100
0000
0000
0110
0000
0000
0011
0000
0000
1100
0000
0000
0010
0000
0000
0000
0000
0011
0100
0000
0000
0001
0000
0000
0010
1100
0000
0000
0000
0000
0010
0000
0000
,
2201
0000
0010
3301
2210
0000
0010
3301
2200
0010
3300
2201
3300
2210
0001
3300
,
0221
1000
0330
0000
0011
0100
0010
1001
0000
0110
0110
0001
1010
1010
0100
0011
,
1200
0000
0000
0000
0000
0000
0300
0000
0000
0000
0000
0000
2222
0000
0000
0030
0000
0000
3313
0000
0000
1100
0000
0000
0001
0000
0000
0100
0000
0000
0010
0000
0000
0101
0000
0000
1010
0000
0000
0000
0100
0000
0022
0033
1000
0100
0000
0000
,
0011
0000
0100
0010
1100
0011
0110
1001
0220
1330
0000
1022
0133
0010
2200
3310
,
2102
0000
0000
3003
0000
0000
0010
0000
0000
0100
0000
0000
1010
0000
0000
0101
0000
0000
1100
0000
0000
0011
0000
0000
1001
0000
0000
0100
0000
0000
0000
0000
1010
0100
0000
0000
0000
0000
0000
0010
0101
0000
1000
0000
0000
0000
0000
0000
,
2012
0100
3013
1000
0011
0000
1100
0110
1011
0000
2121
0000
3031
0010
1200
0301
,
1000
0000
0000
0000
0000
0000
0000
0000
0000
0001
0000
0000
2221
0000
0000
0000
0000
0000
3331
0000
0000
1100
0000
0000
0010
0000
0000
1001
0000
0000
0100
0000
0000
1010
0000
0000
0001
0000
0000
0110
0000
0000
2021
3030
0000
0100
0000
0000
,
2012
0000
0000
0000
0000
0000
3103
0000
0000
0001
0000
0000
1010
0000
0000
0101
0000
0000
0011
0000
0000
1100
0000
0000
1001
0000
0000
0010
0000
0000
0000
0000
0101
0010
0000
0000
0100
0000
0000
0010
1001
0000
0000
0000
0000
0100
0000
0000
,
1022
0000
0100
1033
0122
1000
0000
0133
0022
1000
0033
0122
0033
1022
0100
0033
,
111M
0000
0000
0000
111M
0000
0000
0000
111M
0000
0000
0000
111M
0000
0000
0000
M111
0000
0000
0000
0001
0100
1000
0001
0010
1000
0001
0100
1000
0001
0010
0100
,
1002
0000
0010
0000
0013
0000
0000
0100
0010
0000
1000
0010
0000
1000
0100
0100
,
0020
0100
0030
0001
2001
0000
3010
0010
0201
0010
1300
0010
1002
2200
3323
0000
,
2031
0000
3101
0010
1101
0000
0010
0101
1010
0000
0100
1010
0100
0000
1011
0100
,
1000
0000
0000
0000
0000
0000
0000
0000
0110
0000
0000
0000
1000
0000
0000
0000
0111
0000
0000
0000
0000
0000
0000
0000
0010
0000
0000
0000
0100
0000
0000
0000
0010
1000
0001
0000
0000
0000
0000
0000
0100
0000
0000
0000
1010
0000
0000
0000
0101
0000
0000
0000
0000
0000
0000
0000
1001
0000
0000
0000
0010
0000
0000
0000
,
0001
0000
1000
0100
0011
1000
0100
0011
1000
0101
0010
1001
0010
1100
0011
0100
,
0000
0000
1000
0000
0101
0000
0010
0000
1101
0000
0000
0000
0100
0000
1001
0000
0110
0000
0001
0000
0000
0000
1100
0000
0011
0000
0100
0010
1001
0000
0100
0000
,
1000
0000
0011
1000
0111
0000
0100
0011
1100
0010
0000
1010
0000
0010
1101
0010
,
1000
0100
1001
0010
1101
0000
0100
0010
1100
0001
0000
0011
1100
0010
0101
0010
,
1000
0000
0110
0001
1110
0000
0100
0101
0010
1001
0100
1001
0010
0101
1010
0100
,
0000
0000
0000
1010
0000
0000
0100
0000
0000
0010
0000
0000
1102
0000
0000
0003
0000
0000
0010
0000
0000
1202
0000
0000
0303
0000
0000
0100
0000
0000
0011
0000
0000
1000
0000
0000
0100
0000
0010
0000
0001
0000
1100
0000
0000
0010
0000
0000
,
2102
3003
0101
0010
1101
0000
0010
1001
0110
0000
1002
0113
1000
0000
0122
1033
,
0100
0000
0011
1000
0221
0330
0010
1001
0100
0011
0100
1000
0112
0000
2113
0000
,
3010
0000
0001
0010
0101
1000
0011
0100
1000
0100
0010
0001
0100
1000
0111
1000
,
0100
0000
0010
0000
0001
0000
1000
0000
0100
0000
0010
0000
1102
0000
0000
0000
0000
0000
1013
0000
0000
0100
0000
0000
0011
0000
0000
1000
0000
0000
0100
0000
0000
1001
0000
0000
0000
0000
0000
1011
0000
0000
0000
0000
0000
1100
0000
0000
,
0011
0000
0100
0010
1000
0101
0000
0001
1010
0001
0020
1100
0030
0000
0112
2103
,
3000
0000
0000
0100
0000
0000
0020
0000
0000
0000
0030
0000
1020
0000
0000
0132
0000
0000
0000
0000
0000
0103
0000
0000
0001
0000
0000
1010
0000
0000
0100
0000
0000
1000
0000
0000
0110
0000
0000
1001
0000
0000
0010
0000
0000
1000
0000
0000
,
0110
0000
0110
1000
0111
1000
0100
0010
1100
0011
0000
0101
0010
1100
0011
0101
,
0000
0000
0000
1000
0000
0000
0100
0000
0000
0010
0000
0000
1001
0000
0000
1010
0000
0000
0100
0000
0000
1010
0000
0000
0001
0000
0000
0000
0000
0000
2012
0000
0000
3003
0000
0000
0101
0000
0010
0000
0001
0000
1100
0000
0000
0010
0000
0000
,
1102
0013
1000
0100
0011
1000
0100
0011
0000
1100
0010
1100
0011
1000
0120
1000
,
0030
1010
0000
0010
1101
0000
1100
0010
0101
0010
1000
0010
0101
1000
0001
1220
,
0000
0330
1010
0000
0022
1033
0100
1010
0001
1100
0010
1100
0011
1100
0010
1001
,
0000
0101
0000
0101
0110
0000
1010
0001
0110
0001
0010
0100
1001
0110
0001
1000
,
0221
1330
0001
1000
0110
1001
0100
1010
0000
0101
1000
0110
1001
0010
0102
1000
,
0003
1100
0000
0000
1110
0000
1010
0001
0110
0001
1000
0001
0110
1000
0100
2012
,
0000
3003
0100
0000
2012
3103
0010
0101
1010
0101
1000
0010
1000
0100
0010
1000
,
0120
2102
3033
0000
2101
0000
3011
0000
1201
0000
1301
0000
1012
0100
1023
0100
,
2032
3010
0100
1013
0101
1010
0001
0110
1000
0101
0010
1100
0011
0100
1000
0110
,
2000
0101
0000
3000
0111
0000
1100
0010
1201
0010
1000
0310
1101
0110
0000
1220
,
0332
0000
1010
0003
2200
3311
0100
1010
0001
1010
0100
1001
0110
1000
0010
0001
,
1000
0000
0000
0110
0000
0000
0000
0000
0000
0110
0000
0000
0111
0000
0000
0000
0000
0000
0011
0000
0000
0000
0000
0000
1101
0000
0000
0000
0000
0000
1010
0000
0000
0001
0000
0000
1000
0000
0100
0000
1000
0000
0010
0000
0100
0000
0010
0000
,
1102
0010
1000
0113
1001
0110
0001
1100
0010
0101
1000
0011
1100
0010
1000
0110
,
2000
0011
0000
3000
0111
0000
1010
0001
1210
0001
1000
0301
1110
1001
0000
2120
,
3032
0000
1100
0003
1101
0010
0100
1001
0110
0101
1000
0010
0100
0001
0100
1000
,
0010
0000
1101
0000
0000
0000
0000
0000
0111
0000
0000
0000
1000
0000
0000
0000
1111
0000
0000
0000
1001
0010
0100
0001
1000
0010
0100
1000
0001
0010
0100
0001
,
1000
0000
0010
0000
0001
0100
0010
1001
0100
0010
1100
0011
1000
0101
0010
1100
,
1000
1000
1111
0000
0000
0000
0000
0000
;
