#TITLE:Ain't Your Fairytale;
#SUBTITLE:;
#ARTIST:Sonata Arctica;
#TITLETRANSLIT:;
#SUBTITLETRANSLIT:;
#ARTISTTRANSLIT:;
#CREDIT:;
#BANNER:Aint Your Fairytale-bn.JPG;
#BACKGROUND:Aint Your Fairytale-bg.JPG;
#LYRICSPATH:aintyourfairytale.lrc;
#CDTITLE:!TEEXcdtitle.png;
#MUSIC:Sonata Arctica - Reckoning Night - 03 - Ain`t Your Fairytale.mp3;
#OFFSET:-0.104;
#SAMPLESTART:69.180;
#SAMPLELENGTH:25.417;
#SELECTABLE:YES;
#BPMS:0.000=165.000;
#STOPS:;
#BGCHANGES:;
// cache tags:
#FIRSTBEAT:0.000;
#LASTBEAT:864.000;
#SONGFILENAME:Songs/toune 4/[TEEX] Ain't Your Fairytale/Aint Your Fairytale.sm;
#HASMUSIC:1;
#HASBANNER:1;
#MUSICLENGTH:326.248;
// end cache tags

//---------------dance-single - ----------------
#NOTES:
     dance-single:
     :
     Hard:
     10:
     0.806,1.000,0.806,0.797,0.297,1314.000,263.000,260.000,0.000,13.000:
0210
0000
0000
0000
0010
0000
0000
0000
0010
0000
0000
0000
0301
0000
0001
1000
,
0100
2100
0000
0100
0000
3100
1000
0000
,
0021
0100
1000
0032
,
0103
0010
0000
1100
0000
0100
0011
1000
,
1100
0001
1001
1100
0101
1000
0110
0001
,
1001
1000
0100
0010
0100
1000
0002
0000
,
0023
0000
0130
1000
0020
0000
0100
0000
,
0001
0230
0302
0023
,
0100
0000
0000
0000
0032
0000
1000
0000
0023
0000
0000
0000
0130
0000
1000
0100
,
1000
0100
0001
0100
1000
0010
0110
0100
,
0101
0001
1001
0101
2100
0000
3020
0000
,
1000
1000
0001
2030
,
3001
0010
1000
0010
0002
0000
0100
0000
,
0203
0000
0310
1000
0100
0000
0110
1000
,
2200
3300
0012
0000
2003
0000
3002
0103
,
0000
0110
0000
1000
1100
0000
1001
0000
,
1000
0100
1000
0100
1000
0010
1000
0000
0000
0000
0001
0000
1001
0000
0000
0000
,
0001
0100
0001
0100
0001
0010
0001
0000
0000
0000
1000
0000
1001
0000
0000
0000
,
0010
0001
0010
0100
1000
0000
1000
0000
0001
0000
0100
0000
0010
0000
0100
0000
,
0002
0003
0110
1100
0010
1010
0001
1001
,
0010
0100
0001
0001
0010
0100
0000
1001
,
0020
0230
0302
2003
3020
2030
3002
0000
,
0023
0000
0230
0000
1300
0100
1000
0100
1000
0000
1000
0000
0010
0000
1000
0000
,
0002
0000
0103
0001
0000
0011
0000
0100
,
1100
0000
2002
3003
0101
0202
0000
0303
,
0220
0330
2200
3300
1002
0203
0320
0230
,
0310
1000
0001
0100
0010
1000
0010
1000
0001
0100
0001
0100
0020
0000
2030
0000
,
0000
0000
0000
3100
0000
0000
1100
0000
0000
0000
0000
0000
0011
0000
0000
0000
1001
0000
0000
0000
0000
0101
0000
0000
,
1001
0100
1010
1100
0101
1000
0001
0100
,
0002
0000
0000
0000
0023
0000
0000
0000
0130
0000
0000
0100
0000
0000
0010
0000
,
0002
2003
3020
2030
,
3002
2003
3200
2300
,
3002
1000
1003
0100
0001
0100
1000
0010
,
0001
0000
0100
0001
0000
1100
0000
0110
,
0100
1000
0201
0000
0001
0301
1000
0110
,
2000
3200
2300
3002
0023
0032
2003
3000
,
0110
0000
1000
0001
1000
0000
1000
0000
0011
0000
0011
0000
0110
0000
0110
0000
,
1100
1000
1010
1010
0010
0110
0100
0001
,
1000
0100
2001
3010
1010
1001
0000
0101
,
0000
2000
3200
2300
3002
0023
0230
0300
,
0001
0010
0100
1000
0001
0000
0001
0000
0010
0000
0100
0000
1000
0000
0200
0000
,
0000
0000
0310
0000
0010
0000
0001
0000
0100
0000
0000
0101
0000
0000
1000
0000
,
0100
0000
0000
1100
0000
0000
1000
0000
2010
0000
0000
0000
3100
0000
0000
0000
,
0012
0000
0000
0000
0103
0000
0000
0000
1001
0000
0000
1001
0000
0000
0100
0000
,
0021
0100
1000
0100
,
0001
0100
0001
0100
,
1030
0000
0001
1000
0100
0000
1100
0000
,
1000
0100
0010
0001
1000
0100
1000
0100
0020
0000
0032
0000
0203
0000
2300
0000
,
3200
0000
0000
0000
0302
0023
2030
3020
,
0032
0000
0000
0000
0000
0000
0000
0000
1000
0000
0000
1000
0000
0000
0103
0000
,
1001
0010
1000
0100
1001
0010
0001
0100
,
1001
0001
1000
0100
1100
0001
0010
0100
,
0011
0001
0100
0010
0100
0100
0001
0010
,
0100
0000
0000
0000
0100
0000
0000
0000
1000
0000
0000
1000
0000
0000
0010
0000
,
0002
0010
1000
0010
,
0013
0000
0000
0000
2000
0000
0000
0000
3001
0010
0001
1000
0010
1000
0001
0100
,
0001
1000
0100
0010
0011
0100
1000
0001
,
0110
0000
0100
0000
0001
0000
1000
0000
0100
0000
0000
0100
0000
0000
1000
0000
,
0002
0000
0100
0100
,
2000
0000
0000
0000
0020
0000
0000
3033
,
1011
0000
0000
0000
0001
0100
1000
0100
,
0002
1000
0010
1003
,
1100
0001
1010
0001
,
1100
0000
1000
0000
0011
0000
0001
0100
,
0010
1000
0010
0000
0100
0000
0100
0000
2020
0000
3030
0000
0220
0000
0330
0000
,
0001
1000
0100
1000
0001
0000
0001
0000
1000
0000
0010
0000
0100
0000
0010
0000
,
2000
0000
0100
3100
0000
1100
0000
0001
,
0100
0000
0001
0000
0010
0000
0000
0000
0200
0000
0000
0320
0000
0000
0032
0000
,
0000
2003
3200
0302
0203
2300
3020
0030
,
0010
0100
0001
0000
0001
0000
0010
0000
0100
0000
0100
0000
0010
0000
0001
0000
,
0100
0000
1000
1100
0000
1001
0000
1000
,
0010
0100
0002
0000
0013
0100
2000
0000
,
0200
3300
0011
0000
0001
0000
0101
0000
,
0001
0010
0001
0100
0010
1000
0100
1000
0010
0000
0100
0000
0000
0000
0101
0000
,
2002
3003
2020
3030
1100
2002
3003
1010
,
0220
0330
0202
0303
1000
0001
0000
1010
,
2200
3300
2001
0100
0001
0000
3002
0000
,
0000
0003
0220
0000
0001
0000
1000
0330
,
2200
0010
0001
3301
,
0110
0010
1100
0001
,
1000
0010
1000
0100
0010
0100
1000
0010
1000
0100
0010
0001
1000
0000
0001
0000
,
0220
0000
0000
0330
0001
0010
0100
0010
,
0002
0000
0000
0000
0000
0000
0000
0000
0010
0000
0000
0010
0000
0000
0100
0000
,
2003
0000
0200
0000
,
0002
0000
0000
0000
0020
0000
0000
3333
,
1110
0000
0000
0000
0100
1000
0010
0100
,
0010
0000
0000
0000
0010
0000
0000
0000
0001
0000
0000
0011
0000
0000
0100
0000
,
1001
0010
1000
0100
0001
0100
1000
0010
,
0001
0010
0100
0001
1010
0100
0001
1000
,
0110
0001
1000
0100
0011
0100
0001
1000
,
0101
0000
1000
0000
0100
0000
0010
0000
1100
0000
0000
1100
0000
0000
1100
0000
,
0011
1000
0001
0010
1010
1000
1001
0001
,
0101
1000
0001
1000
0110
0100
0001
0010
,
0200
1300
0010
0100
0001
0001
0001
0010
,
2000
0010
0001
3010
,
0011
1000
0101
1000
,
0001
0010
0001
0010
0100
0010
0100
0010
0100
1000
0100
1000
0010
1000
0010
1000
,
0002
0000
2003
0010
3002
0000
0010
0000
,
1000
0100
0010
0010
,
2003
0010
0001
0000
3001
0000
1100
0000
,
0001
0110
0001
1100
,
0002
0023
2030
0000
3002
0003
0110
0000
,
0001
0110
1000
0110
,
0001
0100
1001
0000
0100
0000
1010
0000
,
0100
0000
0000
0000
1001
0000
0000
0000
0010
1000
0001
0000
0110
0000
0000
0000
,
2001
0000
0001
0001
3002
0000
0013
0100
,
2000
0000
0010
0010
0100
0000
3020
0230
,
0302
0000
0013
1000
0020
0000
0032
2003
,
3200
0000
1000
0010
1000
0000
0320
0032
,
0203
0000
0010
0010
0010
0000
0302
0023
,
0032
0000
0100
0100
1000
0000
0023
0230
,
2300
0000
0010
0010
0100
0000
3200
0320
,
0230
0000
0001
0010
0001
0000
0310
0001
,
1000
0000
0001
0100
0001
0100
0001
0000
0000
0000
0100
0000
1100
0000
0000
0000
,
0001
0011
0101
2002
,
0000
0000
0000
0000
0000
3003
0100
0000
,
1010
0000
0100
0001
1010
0000
0100
0000
,
1100
0000
0000
0000
0001
1000
0100
0000
1001
0000
0000
0000
0100
0000
0000
0000
,
0011
0000
0100
1000
0011
0000
0100
0000
,
2010
0100
0001
3001
,
0102
0000
1000
1000
0023
0000
0130
0000
,
1001
0000
1000
0100
1001
0000
1000
0000
,
0110
0000
0001
1000
0120
0000
0230
0000
,
0302
0010
0010
0013
,
0001
0100
1000
0100
0001
1000
0100
0000
,
0100
0000
1000
0001
0101
0000
1000
0000
,
1001
1000
1100
1002
,
2003
0000
3002
0000
1003
0001
2000
0000
0000
0000
0000
0000
0000
0000
3100
0000
,
0101
0011
1010
1100
,
2002
3003
2200
3300
,
0011
0000
0100
0000
1000
0000
0001
0000
0010
0000
0100
0000
,
1000
0001
0100
0001
0010
0100
0020
0000
0000
0000
0000
0000
,
0032
0000
0003
0002
0000
0003
0002
0000
,
0203
0000
0000
0310
1000
0001
2000
0000
0000
3000
0000
0000
,
0100
0000
0000
0000
1000
0000
0000
0000
0002
0000
0000
0000
0000
0000
0000
0103
0000
0000
0001
0000
0000
0000
0000
0000
,
1100
0000
0000
0001
0010
0001
1000
0100
1000
0010
0100
0010
,
2000
0000
0000
0000
0000
0000
3002
0000
0000
0000
0000
0000
0013
0000
0100
1000
,
0100
0000
0010
0000
0001
0000
0200
0000
0000
0000
0000
0000
,
0310
1000
0010
0100
0001
1000
0001
0100
0001
0010
0001
1000
0100
1000
0001
1000
,
0010
1000
0010
0100
0001
0100
0010
1000
0001
2000
0000
0000
,
3001
0010
0001
0100
0010
0100
0001
0010
0001
0100
0010
0100
,
0001
0010
0001
1000
0100
1000
0001
1000
0100
2000
0000
3000
,
1000
0001
1000
0001
1000
0001
1000
0001
1000
0100
0010
0001
1000
0100
0010
0001
,
1000
0010
0100
0001
0010
0100
1000
0001
0010
0100
1000
0001
0200
0000
0000
0000
,
0301
0010
0001
1000
0100
1000
0002
0000
0000
0000
0000
0000
,
1003
0100
0010
0001
1000
0100
0010
0001
1000
0010
0100
0001
1000
0010
0100
0001
,
2000
0000
3001
0100
0001
0000
1000
0000
0110
0000
0000
1100
0000
1001
0000
0000
,
0011
0000
0000
0000
1100
0000
1001
0000
0000
0000
0101
0000
1000
0010
1000
0000
,
0001
0000
0000
0100
0000
0000
0001
0000
0000
0000
0000
0000
0010
0000
0000
0000
0000
0000
0100
0000
0000
0000
0000
0000
0022
0000
0000
0000
0033
0000
0000
0000
0000
2002
0000
0000
3003
0000
0000
0000
0000
0000
0202
0000
0000
0000
0000
0000
,
0000
0303
2100
3002
0023
0032
2003
0000
,
3020
0000
0230
0000
0302
0000
0203
0000
0320
0000
2030
0000
3001
0100
0001
0100
,
0001
0010
0100
1000
0001
0010
0100
1000
0001
0100
0010
1000
0100
0010
0001
1000
,
0100
0010
0100
1000
0001
1000
0010
0100
0001
1000
0010
1000
0001
1000
0100
1000
,
0002
0003
2020
3030
0202
0300
1003
0000
,
2200
0000
3000
0000
1300
0001
1000
0001
0010
0001
0010
0001
1000
0001
1000
0001
,
0100
0000
0000
0000
0110
0000
0000
0000
0011
0000
0000
1010
0000
0000
0101
0000
,
1010
0000
1000
0010
1000
0001
0000
1100
,
0101
0000
1001
0000
0001
1000
0010
1000
,
0002
0000
0100
0000
0200
0000
0020
0333
,
0000
1000
0011
0100
,
1001
0010
1100
0110
,
0101
0000
1010
0000
1010
0000
0100
0001
,
1010
0000
0000
0000
0100
0000
0000
0000
0001
0010
0001
1000
0001
0100
0001
1000
,
0002
0000
0000
0000
1003
0100
0010
0100
,
2000
0000
0000
0000
0000
0000
3000
0000
0201
0000
0000
0001
0000
0000
0310
0000
,
1010
0100
0001
1000
1001
0100
1000
0001
,
0011
1000
0010
0100
0101
1000
0001
1000
,
0200
0310
0001
0010
0100
1000
0010
0100
,
0002
0000
0000
0000
2003
0000
0000
0000
3100
0000
0000
0100
0000
0000
0011
0000
,
0202
0000
0000
0000
,
0000
0000
0000
0000
0000
0000
0303
0000
1000
0010
1000
0000
0010
0000
0010
0000
,
0101
1000
0100
0110
0011
0100
1000
0001
,
1001
0000
0100
0000
0001
0000
1000
0000
0010
0000
0000
0010
0000
0000
1010
0000
,
1002
0000
1000
0100
,
0200
0000
0000
0000
0020
0000
0000
0333
,
0111
0000
0000
0000
1000
0100
0010
0100
,
2000
0010
0100
3001
,
1001
0010
0101
1000
,
0110
0000
0001
0000
1010
0000
1000
0100
,
2002
0000
0000
0000
3000
1003
0110
0000
,
0101
1100
0011
1001
,
1000
0010
0001
0000
1000
0000
1001
0000
,
0101
0000
0010
1000
0110
0000
0001
0000
,
1100
0000
0001
0010
1000
0000
0001
0000
,
1100
0000
0100
0010
2001
0000
3001
0000
,
0021
0001
1000
0031
,
1010
0000
0000
0000
0100
0000
0010
0000
0100
0001
1000
0001
0010
0001
1000
0001
,
0200
0320
2030
3200
0302
0203
1300
0000
,
0101
0000
0010
0100
1002
0000
0103
0000
,
1200
1000
0001
1300
,
1000
0100
0001
0100
1000
1000
0020
0000
,
0230
0000
0301
0010
0100
0000
0001
0000
,
0011
0110
1100
1001
,
1000
1100
0000
1010
0000
0100
0000
0010
,
1002
0013
2010
3100
,
0102
1003
2100
3001
,
0100
0010
0100
0010
0100
0001
0100
0010
0100
0010
0100
1000
0100
0010
0100
0010
,
0200
0000
0302
0010
1000
0000
1000
0000
,
0100
0010
0100
0100
,
1000
0000
2003
0010
0001
0000
0001
0000
,
0100
0010
0100
0100
,
3001
0000
0010
1000
0101
0000
0011
0000
,
0001
1100
0010
1001
,
1000
0000
0011
0000
1000
0000
0101
0100
,
1100
1001
0001
1100
,
0001
0000
1010
0100
1001
0000
0110
0000
,
1000
0101
1000
0101
,
0010
0100
1001
0001
1100
0000
1010
0000
,
0001
0011
0100
1001
,
0001
0000
0010
0100
1100
0000
1010
0000
,
0100
0101
1000
1001
,
0001
1100
0010
1001
,
0100
0000
0011
1000
0001
0100
2002
0000
,
0000
0000
0000
0000
,
0000
0000
0000
0000
,
0000
0000
0000
0000
,
3003
0000
0000
0000
;
