#TITLE:Musouka;
#SUBTITLE:- Utawarerumono Opening;
#ARTIST:Suara;
#TITLETRANSLIT:;
#SUBTITLETRANSLIT:;
#ARTISTTRANSLIT:;
#CREDIT:Jubo;
#BANNER:Utaware-OP-Banner.png;
#BACKGROUND:Utaware-OP-BG1.jpg;
#LYRICSPATH:Utaware-OP-Lyrics.lrc;
#CDTITLE:Jubo.png;
#MUSIC:Utawarerumono OP.mp3;
#OFFSET:1.680;
#SAMPLESTART:26.064;
#SAMPLELENGTH:29.960;
#SELECTABLE:YES;
#BPMS:0.000=134.020;
#STOPS:;
#BGCHANGES:3.667=Utawarerumono OP Video.avi=1.000=1=0=0,
196.000=Utaware-OP-BG2.jpg=1.000=1=0=0,
99999=-nosongbg-=1.000=0=0=0 // don't automatically add -songbackground-
;
// cache tags:
#FIRSTBEAT:4.000;
#LASTBEAT:203.521;
#SONGFILENAME:Songs/Otaku's Dream 1st Anime Mix/Jubo - Utawarerumono OP/Utawarerumono OP.sm;
#HASMUSIC:1;
#HASBANNER:1;
#MUSICLENGTH:89.837;
// end cache tags

//---------------dance-single - ----------------
#NOTES:
     dance-single:
     :
     Hard:
     8:
     0.681,0.680,1.000,0.378,0.006,299.000,95.000,34.000,0.000,0.000:
0000
0000
0000
0000
,
1001
0110
0011
1100
,
1001
0010
0001
0100
0022
0033
1000
0010
,
0100
0010
0000
2002
0000
3003
0000
0100
,
1000
0001
0010
1000
2200
3300
1000
0010
,
0100
0000
0001
0022
0000
0033
1000
0100
,
0202
0303
0010
0200
0300
0010
0001
0010
,
0100
1000
0100
1000
2020
3030
0010
0100
,
0110
0000
0011
0000
1100
1000
1010
2020
,
0000
3030
0000
0001
1000
0000
0010
0001
,
1001
0100
0001
0101
0000
0110
0000
0010
,
0000
1010
0010
0011
0000
0000
0100
0001
,
0101
0100
0100
1100
0000
1001
0000
2002
,
0000
0000
0000
0000
3000
0010
1003
0000
,
0010
0001
0010
0100
0010
0000
1001
2000
,
0000
3000
0010
0000
1000
0000
0000
0000
0000
0000
0100
0000
1000
0000
0100
0000
,
0001
1000
0100
1000
0200
0000
0310
0020
,
0000
0000
0130
0101
0000
0010
0001
0010
,
1000
0001
0010
0001
0020
0000
0130
0200
,
0000
0000
0310
1010
0000
0100
0010
0001
,
1000
0100
1000
0010
0100
0010
0001
1000
,
0100
1000
0010
0100
0010
0001
1000
0001
,
1001
0000
0010
0110
0000
1000
0100
0101
,
0010
0011
0001
0022
0000
0033
1000
0010
,
0110
0000
0001
0011
0000
0100
1000
2200
,
0000
0300
3001
1001
0000
0000
0010
0001
,
0010
0000
0100
0010
0000
1100
1100
0000
,
1010
0000
0000
0000
1010
0000
0000
0000
0000
0101
0000
0000
0000
0000
0000
1001
0000
0000
1001
0000
0000
0000
0000
0000
,
0100
0100
0010
0010
0000
1000
1000
0001
,
1000
0001
1000
0110
0000
0220
0000
0330
,
1001
0001
1001
1000
0010
1000
1010
0010
,
0001
0001
0011
0010
1000
1000
1010
0010
,
0010
0100
0110
0100
1000
0100
1100
0100
,
0010
0001
0011
0010
0001
1000
1001
1000
,
0010
0010
1010
1000
0001
0001
1001
0001
,
0100
0100
0101
0001
0010
0100
0110
0010
,
0100
1000
1100
0100
0010
0100
0110
0010
,
0001
0000
0010
0000
0011
0000
1000
0000
1001
0000
0000
0000
2002
3003
0000
0000
,
0010
1000
1010
0001
1000
0100
1100
1000
,
0001
0010
0011
1000
0100
0001
0101
0010
,
0001
0010
1010
1000
0010
0100
0110
0001
,
0100
0010
0110
0001
1000
0001
1001
0001
,
0100
0010
0110
1000
0010
0100
0110
0001
,
0010
1000
1100
1010
1010
0000
0011
0101
,
0101
0000
1001
0000
1010
0010
0011
2002
,
0000
3003
0110
0110
,
1001
0100
0001
0101
0000
0110
0000
0010
,
0000
1010
0010
0011
0000
0000
0100
0001
,
0101
0100
0100
1100
0000
1001
0000
0220
,
0000
0000
0000
0000
,
0000
0000
0000
0000
0000
0000
0000
0330
;

//---------------dance-single - ----------------
#NOTES:
     dance-single:
     :
     Medium:
     6:
     0.458,0.538,0.701,0.089,0.006,217.000,63.000,8.000,0.000,0.000:
0000
0000
0000
0000
,
0011
1010
0110
0101
,
1001
0010
0100
0010
,
1000
0010
0100
0001
,
1001
0010
0100
0001
,
0011
0010
1000
0010
,
0110
1000
0100
0010
,
0001
0010
1001
0010
,
0100
0010
1000
0010
,
1100
0010
0100
1000
,
1001
1100
0010
0101
,
0001
1010
0100
0110
,
0010
0100
0010
0100
0000
1001
0000
0220
,
0000
0000
0000
0000
0000
0330
0110
0000
,
1000
1010
0010
0110
,
0100
0101
0001
0101
,
0100
0010
0100
0010
1000
0000
1100
0000
,
0100
0110
0000
1001
,
0010
0100
0010
0100
0001
0000
0101
0000
,
0100
0000
1100
0000
0000
0000
1000
0001
,
1000
0001
0100
0000
1100
0000
0100
0000
,
0110
0000
0100
1000
0100
1000
0100
1000
,
1100
0000
0010
0010
0000
0100
0100
0000
,
0010
0010
0000
0100
0100
0000
0010
0010
,
1000
0000
1000
0001
0000
0010
0010
0110
,
0000
0000
0000
0000
0000
0000
0100
0100
,
0100
0000
0100
1000
0000
1000
1010
0000
,
0010
0000
0000
0000
0010
0000
0000
0000
0000
0001
0000
0000
0000
0000
0000
0001
0000
0000
0101
0000
0000
0000
0000
0000
,
0110
0100
0110
0000
0110
0010
0110
0000
,
1000
0001
1000
0001
0000
2002
3003
0000
,
0100
0110
0001
0011
,
0001
0101
0100
1100
,
1000
1001
1000
1100
,
0100
0110
0010
1010
,
1000
1100
0100
0101
,
0010
0001
0010
0001
0011
0000
1100
0000
,
0100
0110
0010
0011
,
0001
0110
1001
1001
,
1000
0100
1000
0000
0001
0010
0001
0000
,
0100
0010
0100
0000
1000
0100
1000
0000
,
0001
0010
0100
0010
,
1000
0100
1000
0000
0010
0100
0010
0000
,
0001
0100
0001
0000
0010
0100
0010
0000
,
1000
0001
1000
0000
0010
0100
0010
0000
,
1000
0000
0001
0000
0010
0000
1000
2002
,
0000
0000
0000
0000
0000
0000
0000
3003
,
1001
1100
0010
0101
,
0001
1010
0100
0110
,
0010
0100
0010
0100
0000
1001
0000
0220
,
0000
0000
0000
0000
,
0000
0000
0000
0000
0000
0000
0000
0330
;

//---------------dance-single - ----------------
#NOTES:
     dance-single:
     :
     Easy:
     4:
     0.272,0.396,0.189,0.111,0.000,144.000,17.000,10.000,0.000,0.000:
0000
0000
0000
0000
,
1000
1000
0001
0001
,
1000
1000
0001
0001
,
0100
0100
0010
0010
,
1000
1000
0100
0100
,
0010
0010
1000
1000
,
0001
0001
0100
0100
,
0010
0010
1000
1000
,
0100
0100
0001
0001
,
2002
0000
0000
0000
,
3003
0110
0000
0110
,
0000
0110
0000
0110
,
0000
0000
0110
0000
0000
0000
0110
2002
,
0000
0000
0000
3003
0000
0000
0000
0000
,
1000
0010
0100
0001
,
0001
0001
0000
0001
,
0100
0010
1000
1000
,
1000
0000
0000
0000
,
0010
0100
0010
0100
,
0100
0100
0000
1000
,
0001
0000
1000
0000
0010
0000
0100
2000
,
0000
0000
0000
0000
,
3001
0000
0000
0000
,
0100
0010
0100
0000
,
0001
1000
0001
0000
,
0100
0010
0100
0000
,
1000
1100
1000
1100
,
0100
0110
0010
0110
,
0001
1001
1000
1001
,
0001
1001
0100
0220
,
0330
0000
0000
0000
,
1000
0000
0001
0000
,
1000
1000
0001
0001
,
0100
0100
0100
0000
,
0010
0010
1000
1000
,
0001
0001
0100
0100
,
0001
0001
0001
0001
,
0000
0000
0010
0010
,
1000
1000
0000
0000
,
0100
0010
0100
0000
,
0000
1000
0001
1000
,
0000
0000
0000
0000
,
0100
0001
0100
0000
,
1000
0010
1000
0000
,
0100
0100
0100
0200
,
0000
0300
0000
0000
,
0001
0001
1000
1000
,
0010
0010
0100
0100
,
0010
0010
0100
0100
,
2002
0000
0000
0000
,
0000
0000
0000
0000
0000
0000
0000
3003
;

//---------------dance-single - ----------------
#NOTES:
     dance-single:
     :
     Beginner:
     1:
     0.091,0.113,0.056,0.045,0.000,48.000,5.000,4.000,0.000,0.000:
0000
0000
0000
0000
,
1000
1000
1000
1000
,
0000
0000
0000
0000
,
1000
0000
0000
0000
,
0010
0000
0000
0000
,
0100
0000
0000
0000
,
0010
0000
0000
0000
,
1000
0000
0000
0000
,
0001
0000
0000
0000
,
0110
0000
0000
0000
,
1000
0000
0000
0000
,
0001
0000
0000
0000
,
0100
0000
0000
0000
,
0010
0000
0000
0000
,
1001
0000
0000
0000
,
0100
0000
0000
0000
,
0100
0000
0000
0000
,
0100
0000
0000
0000
,
0001
0000
0000
0000
,
0001
0000
0000
0000
,
0001
0000
0000
0000
,
2000
0000
0000
0000
,
3000
0000
0000
0000
,
0001
0000
0000
0000
,
0001
0000
0000
0000
,
0100
0000
0000
0000
,
0010
0000
0000
0000
,
1000
0000
0000
0000
,
0002
0000
0000
0000
,
0000
0000
0000
0000
,
0003
0000
0000
0000
,
1000
0000
0000
0000
,
0100
0000
0000
0000
,
0010
0000
0000
0000
,
0100
0000
0000
0000
,
1000
0000
0000
0000
,
0010
0000
0000
0000
,
0100
0000
0000
0000
,
1001
0000
0000
0000
,
0100
0000
0000
0000
,
1000
0000
0000
0000
,
0010
0000
0000
0000
,
0100
0000
0000
0000
,
0001
0000
0000
0000
,
1000
0000
0000
0000
,
0110
0000
0000
0000
,
0010
0000
0000
0000
,
0010
0000
0000
0000
,
0100
0000
0000
0000
,
0220
0000
0000
0000
,
0000
0000
0000
0000
0000
0000
0000
0000
0000
0000
0000
0000
0000
0000
0000
0000
0000
0000
0000
0000
0000
0000
0000
0000
0000
0000
0000
0000
0000
0000
0000
0000
0000
0000
0000
0000
0000
0000
0000
0000
0000
0000
0000
0000
0000
0000
0000
0000
0000
0000
0000
0000
0000
0000
0000
0000
0000
0000
0000
0000
0000
0000
0000
0000
0000
0000
0000
0000
0000
0000
0000
0000
0000
0000
0000
0000
0000
0000
0000
0000
0000
0000
0000
0000
0000
0000
0000
0000
0000
0000
0000
0000
0000
0000
0000
0000
0000
0000
0000
0000
0000
0000
0000
0000
0000
0000
0000
0000
0000
0000
0000
0000
0000
0000
0000
0000
0000
0000
0000
0000
0000
0000
0000
0000
0000
0000
0000
0000
0000
0000
0000
0000
0000
0000
0000
0000
0000
0000
0000
0000
0000
0000
0000
0000
0000
0000
0000
0000
0000
0000
0000
0000
0000
0000
0000
0000
0000
0000
0000
0000
0000
0000
0000
0000
0000
0000
0000
0000
0000
0330
0000
0000
0000
0000
0000
0000
0000
0000
0000
0000
0000
0000
0000
0000
0000
0000
0000
0000
0000
0000
0000
0000
;
