#TITLE:Outta Here;
#SUBTITLE:;
#ARTIST:Trucks Factory;
#TITLETRANSLIT:;
#SUBTITLETRANSLIT:;
#ARTISTTRANSLIT:;
#CREDIT:;
#BANNER:../ban - Jawn2.png;
#BACKGROUND:../Jawn2 - bg.png;
#LYRICSPATH:;
#CDTITLE:../CDa.png;
#MUSIC:Outta Here.ogg;
#OFFSET:0.009;
#SAMPLESTART:38.802;
#SAMPLELENGTH:12.000;
#SELECTABLE:YES;
#BPMS:0.000=198.000;
#STOPS:;
#BGCHANGES:;
// cache tags:
#FIRSTBEAT:32.000;
#LASTBEAT:496.000;
#SONGFILENAME:Songs/Jimmy Jawns 2/Outta Here - [Aoreo]/Outta Here.sm;
#HASMUSIC:1;
#HASBANNER:1;
#MUSICLENGTH:150.909;
// end cache tags

//---------------dance-single - J. Nero----------------
#NOTES:
     dance-single:
     J. Nero:
     Challenge:
     16:
     1.000,1.000,0.033,0.066,1.000,1441.000,5.000,10.000,0.000,0.000:
0000
0000
0000
0000
,
0000
0000
0000
0000
,
0000
0000
0000
0000
,
0000
0000
0000
0000
,
0000
0000
0000
0000
,
0000
0000
0000
0000
,
0000
0000
0000
0000
,
0000
0000
0000
0000
,
0010
0100
0001
0010
0100
1000
0010
0100
,
0001
0010
0100
1000
0010
0100
0001
1000
,
0100
0010
0001
0100
0010
1000
0100
0010
,
0001
0100
0010
1000
0100
0010
0001
0100
,
0010
1000
0100
1000
0010
0100
0010
1000
,
0100
1000
0010
0100
0010
1000
0100
1000
,
0001
0010
0001
0100
0010
0100
0001
0010
,
0001
0100
0010
0100
0001
1000
1001
0000
,
0001
0100
0001
1000
0010
0100
0010
1000
0001
0100
0001
1000
0100
0010
0100
1000
,
0001
1000
0100
0010
0001
1000
0001
0100
0010
1000
0010
0100
0001
1000
0100
0010
,
0100
1000
0001
1000
0100
0010
0001
1000
0001
0100
0010
1000
0010
0100
0001
1000
,
0001
0010
0100
1000
0001
1000
0100
0010
0001
1000
0001
0100
0010
0100
0001
1000
,
0010
0100
0010
1000
0001
1000
0100
0010
0100
1000
0001
1000
0100
0010
0001
1000
,
0001
0100
0010
1000
0010
0100
0001
1000
0100
0010
0100
1000
0001
1000
0100
0010
,
0001
1000
0001
0100
0010
0100
0001
1000
0001
0010
0100
0010
0001
1000
0001
0100
,
0010
1000
0010
0100
0001
1000
0100
0010
0100
1000
0001
1000
0100
0010
0001
0100
,
0001
0100
0010
1000
0010
0100
0001
1000
0100
0010
0100
1000
0001
1000
0100
0010
,
0001
1000
0001
0100
0010
1000
0010
0100
0001
1000
0100
0010
0100
1000
0001
1000
,
0010
0100
0010
1000
0001
1000
0100
0010
0001
1000
0001
0100
0010
1000
0010
0100
,
0001
1000
0001
0010
0100
0010
0001
1000
0001
0100
0010
1000
0010
0100
0001
1000
,
0100
0010
0100
1000
0001
1000
0100
0010
0001
1000
0001
0100
0010
0100
0001
1000
,
0010
1000
0001
0100
0010
0100
0001
1000
0001
0010
0100
0010
0001
1000
0001
0100
,
0010
1000
0010
0100
0001
1000
0100
0010
0100
1000
0001
1000
0010
0100
0001
0100
,
0010
1000
0001
1000
0100
0010
0001
1000
0001
0010
0100
0010
0001
1000
0001
0100
,
0010
1000
0010
0100
0001
1000
0100
0010
0100
1000
0001
1000
0100
0010
0001
1000
,
0001
0100
0010
1000
0010
0100
0001
1000
0100
0010
0100
1000
0001
0100
0001
0100
,
0010
1000
0010
0100
0001
1000
0100
0010
0100
1000
0001
1000
0100
0010
0001
1000
,
0001
0100
0010
0100
0001
1000
0001
0010
0100
0010
0100
1000
0010
0100
0010
1000
,
0010
0100
0001
1000
0100
0010
0100
1000
0010
0100
0001
0100
0010
1000
0001
0100
,
0001
0010
0100
0010
0001
0100
0001
0100
0010
1000
0010
0100
0001
1000
0100
0010
,
0100
0010
0001
1000
0001
0100
0010
1000
0010
0100
0001
0010
0100
0010
0100
1000
,
0001
1000
0010
0100
0001
0100
0010
1000
0100
0010
0001
1000
0100
0010
0001
0100
,
0001
1000
0010
1000
0001
0100
0001
0010
0100
0010
0100
1000
0001
1000
0010
0100
,
0010
1000
0001
1000
0100
0010
0100
1000
0001
0100
0001
0100
0010
1000
0001
0100
,
0001
1000
0100
1000
0001
0010
0100
0010
0001
0100
0010
1000
0010
0100
0001
1000
,
0010
0100
0001
0100
0010
1000
0100
0010
0100
1000
0010
0100
0010
1000
0010
0100
,
0001
1000
0001
0010
0100
1000
0001
0100
0010
0100
0001
1000
0010
0100
0001
0010
,
0100
0010
0001
1000
0010
0100
0010
1000
0001
0100
0010
0100
0001
1000
0100
0010
,
0100
1000
0010
0100
0010
1000
0001
1000
0010
0100
0001
0010
0100
0010
0100
1000
,
0001
0100
0001
1000
0010
0100
0010
1000
0001
0010
0100
1000
0001
0010
0100
1000
,
0010
0100
0010
1000
0001
1000
0100
0010
0100
1000
0001
1000
0100
0010
0001
1000
,
0001
0100
0010
1000
0010
0100
0001
1000
0100
0010
0100
1000
0001
0100
0001
0100
,
0010
1000
0010
0100
0001
1000
0100
0010
0100
1000
0001
1000
0100
0010
0001
1000
,
0001
0100
0010
0100
0001
1000
0001
0010
0100
0010
0100
1000
0010
0100
0010
1000
,
0010
0100
0001
1000
0100
0010
0100
1000
0010
0100
0001
0100
0010
1000
0001
0100
,
0001
0010
0100
0010
0001
0100
0001
0100
0010
1000
0010
0100
0001
1000
0100
0010
,
0100
0010
0001
1000
0001
0100
0010
1000
0010
0100
0001
0010
0100
0010
0100
1000
,
0001
1000
0010
0100
0001
0100
0010
1000
0100
0010
0001
1000
0100
0010
0001
0100
,
0001
1000
0010
1000
0001
0100
0001
0010
0100
0010
0100
1000
0001
1000
0010
0100
,
0010
1000
0001
1000
0100
0010
0100
1000
0001
0100
0001
0100
0010
1000
0001
0100
,
0001
1000
0100
1000
0001
0010
0100
0010
0001
0100
0010
1000
0010
0100
0001
1000
,
0010
0100
0001
0100
0010
1000
0100
0010
0100
1000
0010
0100
0010
1000
0010
0100
,
0001
1000
0001
0010
0100
1000
0001
0100
0010
0100
0001
1000
0010
0100
0001
0010
,
0100
0010
0001
1000
0010
0100
0010
1000
0001
0100
0010
0100
0001
1000
0100
0010
,
0100
1000
0010
0100
0010
1000
0001
1000
0010
0100
0001
0010
0100
0010
0100
1000
,
0001
0100
0001
1000
0010
0100
0010
1000
0001
0010
0100
1000
0001
0010
0100
1000
,
0002
0000
0000
0000
,
0000
0000
2003
0000
,
3200
0000
0000
0000
,
0000
0000
0320
0000
,
0032
0000
0000
0000
,
0000
0000
2003
0000
,
3020
0000
0000
0000
,
0230
0000
0302
0000
,
1003
0100
1000
0010
0100
0001
0010
0100
,
1000
0001
0010
0001
0100
0010
1000
0001
,
0100
0010
1000
0100
0010
0001
0100
0010
,
1000
0001
0100
0001
0010
0100
1000
0001
,
1000
0100
1000
0010
0100
0001
0010
0100
,
1000
0001
0010
0001
0100
0010
1000
0001
,
0100
0010
1000
0100
0010
0001
0100
0010
,
1000
0001
0100
0001
0010
0100
1000
0001
,
0100
0001
0100
0010
1000
0001
0010
0100
0010
0001
1000
0001
0010
0100
1000
0001
,
1000
0010
0100
0001
0100
0010
1000
0001
0010
0100
0010
0001
1000
0010
1000
0010
,
0100
0001
0100
0010
1000
0001
0010
0100
0010
0001
1000
0001
0010
0100
1000
0001
,
1000
0010
0100
0010
1000
0001
1000
0100
0010
0100
0010
0001
0100
0010
0100
0001
,
0100
0010
1000
0001
0010
0100
0010
0001
0100
0010
1000
0010
0100
0001
1000
0010
,
1000
0100
0010
0100
1000
0010
1000
0010
0100
0001
0100
0010
1000
0001
0010
0100
,
0010
0100
1000
0001
1000
0010
0100
0001
0100
0010
1000
0100
0010
0100
0010
0001
,
1000
0001
0100
0010
1000
0010
0100
0001
0010
0100
1000
0001
0010
0100
1000
0010
,
1000
0001
0100
0001
1000
0010
1000
0100
0010
0100
0010
0001
1000
0001
0100
0010
,
0100
0001
1000
0001
0010
0100
0010
0001
1000
0010
1000
0010
0100
0001
1000
0010
,
1000
0001
0010
0001
1000
0100
0010
0100
1000
0010
0100
0001
0100
0010
1000
0001
,
0100
0010
1000
0010
0100
0001
0010
0100
0010
0001
0100
0010
0100
0001
0100
0010
,
1000
0001
1000
0100
0010
0001
1000
0010
0100
0010
1000
0001
0100
0010
1000
0100
,
0010
0100
1000
0001
0100
0010
0100
0001
1000
0010
0100
0010
1000
0001
0010
0100
,
0010
0001
0100
0010
0100
0001
1000
0001
0100
0010
1000
0100
0010
0100
0010
0001
,
1000
0010
1000
0001
0100
0010
0100
0001
1000
0100
0010
0001
1000
0100
0010
0001
,
0100
0010
0100
0001
1000
0001
0010
0100
0010
0001
1000
0001
0010
0100
1000
0001
,
1000
0010
0100
0001
0100
0010
1000
0001
0010
0100
0010
0001
1000
0010
1000
0010
,
0100
0001
0100
0010
1000
0001
0010
0100
0010
0001
1000
0001
0010
0100
1000
0001
,
1000
0010
0100
0010
1000
0001
1000
0100
0010
0100
0010
0001
0100
0010
0100
0001
,
0100
0010
1000
0001
0010
0100
0010
0001
0100
0010
1000
0010
0100
0001
1000
0010
,
1000
0100
0010
0100
1000
0010
1000
0010
0100
0001
0100
0010
1000
0001
0010
0100
,
0010
0100
1000
0001
1000
0010
0100
0001
0100
0010
1000
0100
0010
0100
0010
0001
,
1000
0001
0100
0010
1000
0010
0100
0001
0010
0100
1000
0001
0010
0100
1000
0010
,
1000
0001
0100
0001
1000
0010
1000
0100
0010
0100
0010
0001
1000
0001
0100
0010
,
0100
0001
1000
0001
0010
0100
0010
0001
1000
0010
1000
0010
0100
0001
1000
0010
,
1000
0001
0010
0001
1000
0100
0010
0100
1000
0010
0100
0001
0100
0010
1000
0001
,
0100
0010
1000
0010
0100
0001
0010
0100
0010
0001
0100
0010
0100
0001
0100
0010
,
1000
0001
1000
0100
0010
0001
1000
0010
0100
0010
1000
0001
0100
0010
1000
0100
,
0010
0100
1000
0001
0100
0010
0100
0001
1000
0010
0100
0010
1000
0001
0010
0100
,
0010
0001
0100
0010
0100
0001
1000
0001
0100
0010
1000
0100
0010
0100
0010
0001
,
1000
0010
1000
0001
0100
0010
0100
0001
1000
0100
0010
0001
1000
0100
0010
0001
,
1000
0000
0000
0000
1001
0000
0000
0001
,
0100
0001
0010
0000
,
0100
0000
0000
0000
1100
0000
0000
1000
,
0001
0100
0010
0000
,
0100
0000
0000
0000
0101
0000
0000
0001
,
1000
0100
1000
0000
,
0001
0000
0000
0000
0101
0000
0000
0100
,
0010
1000
0100
0000
,
2000
0000
0000
0000
,
0000
0000
0000
0000
,
0000
0000
0000
0000
,
0000
0000
0000
0000
,
3000
0000
0000
0000
;
