#TITLE:Nazi Requiem;
#SUBTITLE:from Wolfenstein 3D;
#ARTIST:Mazedude;
#TITLETRANSLIT:;
#SUBTITLETRANSLIT:;
#ARTISTTRANSLIT:;
#CREDIT:Darkmage;
#BANNER:nazirequiem-bn.png;
#BACKGROUND:nazirequiem-bg.png;
#LYRICSPATH:;
#CDTITLE:!darkmagetitle2.png;
#MUSIC:Nazi Requiem.ogg;
#OFFSET:-2.874;
#SAMPLESTART:68.180;
#SAMPLELENGTH:20.450;
#SELECTABLE:YES;
#BPMS:0.000=187.500,420.000=165.000,424.000=150.000,426.000=75.000,428.000=187.500,588.750=150.000,589.500=130.000,590.000=100.000,590.250=80.000,590.500=60.000,590.750=40.000,591.000=30.000,591.250=27.000,591.500=25.000,591.750=22.000,592.000=187.500,712.000=165.000,716.000=150.000,718.000=75.000,720.000=187.500;
#STOPS:;
#BGCHANGES:0.000=nazirequiem-bg.png=1.000=0=0=1,
99999=-nosongbg-=1.000=0=0=0 // don't automatically add -songbackground-
;
// cache tags:
#FIRSTBEAT:12.000;
#LASTBEAT:784.000;
#SONGFILENAME:Songs/Archmage and Dark0wl Hammer of Thor UltraHyperMegaPack/Nazi Requiem/Nazi Requiem.sm;
#HASMUSIC:1;
#HASBANNER:1;
#MUSICLENGTH:269.312;
// end cache tags

//---------------dance-single - Darkmage----------------
#NOTES:
     dance-single:
     Darkmage:
     Challenge:
     14:
     0.834,1.000,0.550,0.431,0.442,1309.000,148.000,116.000,0.000,3.000:
0000
0000
0000
0000
,
0000
0000
0000
0000
,
0000
0000
0000
0000
,
1000
0000
0000
0000
0000
0000
0100
0000
0000
0000
0000
0000
1000
0000
0000
0010
0000
0000
0100
0001
0100
0001
0100
0001
,
0100
0000
0000
0000
0010
1000
0010
0000
0100
0000
0001
0000
1000
0000
0000
0000
,
0001
0000
0000
0000
0000
0000
0000
0000
0000
0000
0000
0000
0010
0000
0000
0000
0000
0000
0000
0000
0000
0000
0000
0000
1000
0000
0100
0000
1000
0000
0100
0000
1000
0000
0100
0000
1000
0000
0000
0100
0000
0000
1000
0000
0000
0100
0000
0000
,
0010
0000
0000
0000
0001
0000
0010
0000
0100
1000
0100
0000
0001
0000
0100
0000
,
0010
0000
0000
0000
0000
0000
1000
0000
0000
0000
0000
0000
0001
0000
0000
0000
0000
0000
0010
0100
0010
0100
0010
0100
,
1000
0000
0000
0000
0001
0100
0001
0000
1000
0000
0010
0000
0100
0000
0000
0000
,
0001
0000
0000
0000
0000
0000
0000
0000
0000
0000
0000
0000
0100
0000
0000
0000
0000
0000
0000
0000
0000
0000
0000
0000
0001
0000
1000
0000
0001
0000
1000
0000
0001
0000
1000
0000
0001
0000
0000
1000
0000
0000
0001
0000
0000
1000
0000
0000
,
0100
0000
0000
0000
1000
0000
0010
0000
0100
0010
0100
0000
0001
0000
1000
0000
,
0010
0000
0000
0000
0000
0000
0100
0000
0000
0000
0000
0000
0001
0000
0000
0000
0000
0000
0010
0100
0010
0100
0010
0100
,
0010
0000
0000
0000
0010
0100
0010
0000
0001
0000
1000
0000
0010
0000
0000
0000
,
0100
0000
0000
0000
0000
0000
0000
0000
0000
0000
0000
0000
0001
0000
0000
0000
0000
0000
0000
0000
0000
0000
0000
0000
0010
0000
0100
0000
0010
0000
0100
0000
0010
0000
0100
0000
0010
0000
0000
0100
0000
0000
0010
0000
0000
0100
0000
0000
,
1000
0000
0000
0000
0001
0000
0100
0000
0010
1000
0010
0000
0100
0000
0001
0000
,
1000
0000
0000
0000
0000
0000
0001
0000
0000
0000
0000
0000
0010
0000
0000
0000
0000
0000
0001
0010
0001
0010
0001
0010
,
0100
0000
0000
0000
0010
0100
0010
0000
0100
0000
1000
0000
0001
0000
0000
0000
,
0100
0000
0000
0000
0000
0000
0000
0000
0000
0000
0000
0000
0010
0000
0000
0000
0000
0000
0000
0000
0000
0000
0000
0000
1000
0000
0010
0000
1000
0000
0010
0000
1000
0000
0010
0000
1000
0000
0000
0010
0000
0000
1000
0000
0000
0010
0000
0000
,
0100
0000
0000
0000
0001
0000
1000
0000
0001
0010
0001
0000
0100
0000
0000
0000
,
0102
0000
0203
0000
0320
0000
1030
0100
,
0002
0000
0000
0000
0203
0000
0000
0000
1300
0010
1000
0000
0100
0000
0000
0000
,
2010
0000
3002
0000
0013
0000
0100
1000
,
0100
0000
0010
0000
0001
0000
0000
0000
1000
0010
1000
0000
0010
0000
0100
0000
,
0012
0203
2300
3200
,
0320
0000
0000
0000
2030
0000
0000
0000
3001
0010
0001
0000
1000
0000
0000
0000
,
0201
0000
0320
0000
1030
0000
0100
1000
,
0010
0000
0100
0000
0001
0000
0000
0000
0100
0010
0100
0000
0010
0000
1000
0000
,
1001
0101
1001
1100
,
0011
0000
0000
0000
0110
0000
0000
0000
1000
0100
1000
0000
0001
0000
0000
0000
,
0101
0000
0110
0000
1010
0000
0100
0010
,
1000
0000
0001
0000
0010
0000
0000
0000
0100
0010
0100
0000
0010
0000
0001
0000
,
2001
0000
0000
0000
0000
0000
3002
0000
0000
0000
0000
0000
2003
0000
0000
0000
0000
0000
3001
0100
0001
0100
0001
0100
,
0010
0000
0000
0000
1000
0100
1000
0000
0100
0000
0010
0000
0101
0000
0000
0000
,
1100
0000
0000
0000
0000
0000
0000
0000
0000
0000
0000
0000
0001
0000
0000
0000
0000
0000
0000
0000
0000
0000
0000
0000
0100
0000
0010
0000
0100
0000
0010
0000
0100
0000
0010
0000
0100
0000
0000
0010
0000
0000
0100
0000
0000
0010
0000
0000
,
1000
0000
0000
0000
0000
0000
0000
0000
0000
0000
0000
0000
0001
1000
0001
1000
0001
1000
0001
1000
0001
1000
0001
1000
,
0002
0000
2003
0000
3200
0000
0310
0001
,
0010
0000
0100
0000
1000
0000
0000
0000
0001
0100
0001
0000
0010
0000
0000
0000
,
1200
0000
2300
0000
3020
0000
0130
0001
,
0100
0000
0010
0000
1000
0000
0000
0000
0001
0010
0001
0000
0100
0000
0010
0000
,
2100
0000
3020
0000
0230
0000
0301
0010
,
0100
0000
0010
0000
0001
0000
0000
0000
1000
0010
1000
0000
0001
0000
0000
0000
,
0102
0000
0023
0000
0130
0000
1000
0100
,
1000
0010
0200
0000
0000
0000
1010
0300
,
0021
0000
0100
0000
1000
0000
0130
0001
,
0010
0000
0100
0000
1000
0000
0000
0000
0001
0100
0001
0000
1000
0000
0000
0000
,
1020
0000
0100
0000
1030
0000
0001
0010
,
0100
0000
1000
0000
0001
0000
0000
0000
0100
0010
0100
0000
0001
0000
1000
0000
,
1200
0000
0302
0000
0203
0000
0310
0001
,
1000
0000
0010
0000
0100
0000
0000
0000
1000
0100
1000
0000
0100
0000
0000
0000
,
1010
0100
0101
0001
,
0011
0000
0000
0000
0010
0000
0100
0000
1000
0100
0010
0000
0001
0000
1000
0000
,
1020
0230
0320
2030
,
3002
0000
0000
0000
0023
0000
0000
0000
0130
1000
0100
0000
2000
0000
0000
0000
,
3012
0000
0023
0000
0230
0000
0310
0001
,
1000
0000
0010
0000
0100
0000
0000
0000
0001
0010
0001
0000
0100
0000
0010
0000
,
0102
0023
0230
0302
0203
2300
3002
0203
,
0320
2030
3002
0023
0230
2300
3002
0203
,
0320
0000
0000
0000
,
0000
0000
2030
0000
,
3110
0000
0101
0000
1010
0000
0100
0001
,
0011
0000
0000
0000
0110
0000
0000
0000
1000
0100
1000
0000
0011
0000
0000
0000
,
1100
0000
1010
0000
0101
0000
0010
0100
,
1000
0000
0001
0000
0010
0000
0000
0000
0100
1000
0100
0000
0010
0000
0001
0000
,
1020
0000
0000
0000
0000
0000
0230
0000
0000
0000
0000
0000
0320
0000
0000
0000
0000
0000
1030
0100
1000
0100
1000
0100
,
2000
0000
0000
0000
3001
0010
0001
0000
1000
0000
0001
0000
0010
0000
0000
0000
,
1100
0000
0000
0000
0000
0000
0000
0000
0000
0000
0000
0000
0100
0000
0000
0000
0000
0000
0000
0000
0000
0000
0000
0000
1000
0000
0100
0000
1000
0000
0100
0000
1000
0000
0100
0000
1000
0000
0000
0100
0000
0000
1000
0000
0000
0100
0000
0000
,
1000
0000
0000
0000
0001
0000
0010
0000
0100
0010
0100
0000
1000
0000
0001
0000
,
0100
0000
0000
0000
0000
0000
0010
0000
0000
0000
0000
0000
1000
0000
0000
0000
0000
0000
0100
1000
0100
1000
0100
1000
,
0010
0000
0000
0000
0100
0001
0100
0000
0010
0000
1000
0000
0001
0000
0000
0000
,
0010
0000
0000
0000
0000
0000
0000
0000
0000
0000
0000
0000
0100
0000
0000
0000
0000
0000
0000
0000
0000
0000
0000
0000
1000
0000
0010
0000
1000
0000
0010
0000
1000
0000
0010
0000
1000
0000
0000
0010
0000
0000
1000
0000
0000
0010
0000
0000
,
1000
0000
0000
0000
0001
0000
0010
0000
0100
1000
0100
0000
1000
0000
0001
0000
,
0100
0000
0000
0000
0000
0000
0010
0000
0000
0000
0000
0000
1000
0000
0000
0000
0000
0000
0001
0010
0001
0010
0001
0010
,
0100
0000
0000
0000
1000
0100
1000
0000
0100
0000
0010
0000
0001
0000
1000
0000
,
0001
0000
0000
0000
0000
0000
0000
0000
0000
0000
0000
0000
0100
0000
0000
0000
0000
0000
0000
0000
0000
0000
0000
0000
0010
0000
1000
0000
0010
0000
1000
0000
0010
0000
1000
0000
0010
0000
0000
1000
0000
0000
0010
0000
0000
1000
0000
0000
,
0001
0010
0100
1000
0010
0100
0001
0010
0100
1000
0010
0100
0001
0010
0100
1000
0010
0100
0001
0010
0100
1000
0010
0100
,
0001
0100
1000
0100
0010
1000
0001
0010
,
0100
0001
0100
0010
0001
1000
0010
0100
,
0001
0100
1000
0100
0010
1000
0001
0010
,
0100
0001
0100
0010
0001
1000
0010
0100
,
0010
1000
0001
0010
0100
0001
0100
1000
,
0001
0100
0010
1000
0010
0001
0010
0100
,
0001
1000
0100
0010
0100
0001
0100
0010
,
0001
1000
0010
0100
1000
0100
0010
1000
,
0001
0010
0100
0010
0001
1000
0010
0001
,
0010
0100
0001
0010
0100
1000
0001
0010
,
1000
0010
0001
1000
0010
0100
0001
0010
,
1000
0010
0001
0010
0100
1000
0100
0001
,
0100
1000
0100
0010
0001
1000
0010
0100
,
0001
0010
0100
1000
0100
1000
0010
0100
,
1000
0100
0010
1000
0001
0010
0100
0010
,
0001
1000
0010
0100
1000
0100
0010
1000
0001
0010
0100
1000
,
0101
0011
0101
0011
,
0101
0000
0011
0000
0010
0001
0100
0010
,
0101
1010
0101
1010
,
1100
0000
1010
0000
0100
0010
1000
0010
,
1100
0011
1100
0011
,
1100
0000
0011
0000
0001
0010
0100
1000
,
1010
0110
1010
0110
,
1010
0000
0110
0000
0010
0100
0001
0010
,
0101
0011
1100
1010
,
0101
0000
0011
0000
0100
1000
0010
0100
,
1010
1100
0011
0101
,
1010
0000
1100
0000
0010
0010
0000
0000
,
1020
2030
3002
0023
,
0230
2300
3020
0230
,
0301
0000
0101
0000
,
0101
0000
0101
0000
,
0011
0000
0000
0000
0000
0000
0100
0000
0000
0000
0000
0000
1000
0000
0000
0010
0000
0000
0100
0001
0100
0001
0100
0001
,
1000
0000
0100
0000
1000
0010
0100
0001
1000
0100
0010
0000
0001
0000
1000
0000
,
0010
0000
0000
0000
0000
0000
0000
0000
0000
0000
0000
0000
0200
0000
0000
0000
0000
0000
0000
0000
0000
0000
0000
0000
0301
0000
1000
0000
0001
0000
1000
0000
0001
0000
1000
0000
0001
0000
0000
1000
0000
0000
0001
0000
0000
1000
0000
0000
,
0010
0000
0100
0000
0001
0000
1000
0000
0100
1000
0100
0000
1000
0000
0001
0000
,
0100
0000
0000
0000
0000
0000
0010
0000
0000
0000
0000
0000
1000
0000
0000
0100
0000
0000
0010
0001
0010
0001
0010
0001
,
1000
0000
0010
0000
0100
0001
0100
0010
1000
0100
0010
0000
0001
0000
1000
0000
,
0010
0000
0000
0000
0000
0000
0000
0000
0000
0000
0000
0000
0200
0000
0000
0000
0000
0000
0000
0000
0000
0000
0000
0000
0301
0000
1000
0000
0001
0000
1000
0000
0001
0000
1000
0000
0001
0000
0000
1000
0000
0000
0001
0000
0000
1000
0000
0000
,
0010
0000
0100
0000
0001
0000
0010
0000
0100
1000
0100
0000
1100
0000
0000
0000
,
1010
0000
0100
0000
,
0001
0000
0010
0000
,
1100
0000
1000
0000
,
0010
0000
0000
0000
0000
0000
0000
0000
0000
0000
0000
0000
0100
0000
0000
0000
0000
0000
0000
0000
0000
0001
0010
0100
,
1000
0000
0001
0000
,
0010
0000
0000
0000
0000
0000
0000
0000
0000
0000
0000
0000
0100
0000
0000
0000
0000
0000
0000
0000
0000
1000
0100
0010
,
0001
0000
0000
0000
,
2020
0000
0000
0000
,
3030
0000
0000
0000
1000
0010
0000
1000
,
0010
0000
1000
0010
0000
1000
0010
0000
,
1010
0100
0011
0000
,
0110
0000
0000
0000
0000
0000
0000
0000
1000
0100
1000
0000
0100
0000
1000
0000
,
1010
0000
0000
0000
0001
0010
0000
0001
,
0010
0000
0001
0010
0000
0001
0010
0000
,
1100
0000
0000
0101
,
1000
0010
1000
0010
1000
0000
0000
0000
0100
0000
0000
0000
0001
0100
0001
0100
0001
0100
0001
0100
0001
0000
0000
0000
1000
0010
1000
0010
1000
0010
1000
0010
,
1000
0000
0100
1000
0100
0010
0001
0100
,
0010
1000
0001
0010
0100
1000
0010
0100
,
0101
0000
1000
0100
0000
1000
0010
0100
,
0001
0000
0000
0000
0000
0000
0010
0000
0000
0000
0000
0000
0100
0000
0000
0000
0000
0000
0000
0000
0000
0000
0000
0000
1000
0000
0000
0010
0000
0000
1000
0000
0000
0000
0000
0000
0001
0000
0010
0000
0100
0000
1000
0000
0010
0000
0100
0000
,
0002
0000
0000
0000
0100
0100
0000
0010
,
0010
0000
1000
1000
0000
0100
0100
0003
,
0101
0100
0010
0000
1000
0000
0001
0000
,
1000
0000
0000
0000
0010
0000
0000
0000
0100
0000
0000
0000
0000
0000
0000
0000
0100
0010
0100
0010
0100
0000
0000
0000
0001
1000
0001
1000
0001
0000
0000
0000
,
1010
0000
0100
0010
1000
0001
0010
0100
,
1000
0000
0001
0000
0100
0000
0010
0000
1000
0100
1000
0000
0001
0000
0000
0000
,
0101
0000
0100
0010
1000
0001
0010
0100
,
1000
0000
0000
0000
0000
0000
0001
0000
0000
0000
0000
0000
0100
0000
0000
0000
0000
0000
0010
0000
0000
0000
0000
0000
0100
0000
0000
0001
0000
0000
0100
0000
0000
0000
0000
0000
0010
0000
1000
0000
0001
0000
0010
0000
0100
0000
1000
0000
,
0002
0000
0000
0000
0100
0100
0000
1000
,
1000
0000
0010
0010
0000
0100
0100
0003
,
0101
0010
1000
0000
0001
0000
0100
1000
,
0100
1000
0100
0000
0020
0032
1003
0010
,
0000
0000
0000
1001
0000
0000
0000
0000
0000
0000
0000
0000
0000
0000
0000
0000
,
1001
0100
0010
0001
1000
0010
0100
1000
,
0100
0010
1000
0001
0010
0100
0001
0100
,
0010
0100
1000
0001
0100
1000
0100
0010
,
1000
0010
0100
0001
0010
0100
0010
0001
,
2000
3020
0230
0302
0023
0230
2300
3020
,
0230
0302
0023
0230
0320
0032
2003
3020
,
0130
0001
0010
0100
1000
0000
0100
0010
,
0001
0000
0000
0000
0000
0000
1000
0000
0010
0000
0100
0000
0001
0000
0000
1000
0000
0000
0100
0000
0000
0010
0000
0000
,
0101
0010
0100
0001
0100
0010
0001
1000
,
0010
0100
1000
0100
0010
1000
0001
0010
,
0100
0010
0001
1000
0010
0100
0001
0100
,
0010
1000
0001
0010
0100
0010
0001
1000
,
0002
0203
2300
3200
0320
2030
3002
0023
,
0230
0320
0032
2003
3020
0230
0302
2003
,
3100
0010
0001
1000
0010
0100
1000
0100
,
0010
0000
0000
1000
0000
0000
0001
0000
0000
0010
0000
0000
0100
1000
0100
0010
0001
0010
0100
1000
0100
0010
0001
0010
,
1100
1010
1100
1010
,
1100
0000
1010
0000
0100
0010
1000
0010
,
0101
0011
0101
0011
,
0101
0000
0011
0000
0100
0001
0010
0001
,
0110
0101
0110
0101
,
0110
0000
0101
0000
0010
0100
0001
0100
,
1010
0110
1010
0110
,
1010
0000
0110
0000
0001
0010
0100
1000
,
0110
0101
0011
1100
,
1010
0000
0101
0000
0010
0100
0001
1000
,
0101
0011
1100
1010
,
0101
0000
0011
0000
0100
0100
0000
0000
,
0101
0011
1100
1010
,
0101
0011
1100
1010
,
1100
0000
1100
0000
,
1100
0000
1100
0000
,
1100
0000
0000
0000
0000
0000
1000
0000
0000
0000
0000
0000
0001
0000
0000
0100
0000
0000
0010
1000
0010
1000
0010
1000
,
0010
0000
0100
0001
0010
0100
1000
0100
0010
0001
1000
0000
0010
0000
0100
0000
,
0001
0000
1000
0000
0010
0000
0100
0001
,
0100
0000
0000
0000
0010
0000
1000
0000
0001
0010
0001
0000
0100
0000
0010
0000
,
1000
0000
0100
0000
0010
0001
1000
0010
,
0100
0000
0000
0000
0000
0000
0001
0000
0100
0010
0100
0000
0001
0000
1000
0000
,
0100
0000
0000
0000
0000
0000
0000
0000
0010
0000
0000
0000
0000
0000
0000
0000
0001
0000
0000
0000
1000
0000
0000
0000
0010
0100
0010
0100
0010
0000
0000
0000
,
1000
0000
0000
0000
0100
0000
0000
0000
0010
0000
0000
0000
0001
0000
0000
0000
1000
0000
0010
0000
1000
0000
0000
0000
0010
1000
0010
1000
0010
0000
0000
0000
,
1000
0000
0001
0000
0010
0000
0100
1000
,
0100
0000
0000
0000
0000
0000
0010
0000
0001
0010
0001
0000
0010
0000
0000
0000
,
0001
1000
0010
0100
,
0001
0000
0000
0000
0000
0000
0000
0000
1000
0100
1000
0000
0001
0000
0000
0000
,
2000
0000
0000
0000
,
0000
0000
0000
0000
,
0000
0000
0000
0000
,
0000
0000
0000
0000
,
3000
0000
0000
0000
;
