#TITLE:Scripted Connection-A mix-;
#SUBTITLE:;
#ARTIST:DJ MURASAME;
#TITLETRANSLIT:;
#SUBTITLETRANSLIT:;
#ARTISTTRANSLIT:;
#CREDIT:;
#BANNER:;
#BACKGROUND:;
#LYRICSPATH:;
#CDTITLE:;
#MUSIC:Scripted Connection [another].mp3;
#OFFSET:1.788;
#SAMPLESTART:37.947;
#SAMPLELENGTH:12.000;
#SELECTABLE:YES;
#BPMS:0.000=151.000;
#STOPS:;
#BGCHANGES:;
// cache tags:
#FIRSTBEAT:12.000;
#LASTBEAT:304.000;
#SONGFILENAME:Songs/toune/scripted/scripted.sm;
#HASMUSIC:1;
#HASBANNER:0;
#MUSICLENGTH:123.431;
// end cache tags

//---------------iidx-single7 - scripted connection----------------
#NOTES:
     iidx-single7:
     scripted connection:
     Hard:
     10:
     1.000,1.000,1.000,0.000,1.000,955.000,199.000,0.000,0.000,6.000:  // measure 1
00000000
00000000
00000000
00000000
,  // measure 2
00000000
00000000
00000000
00000000
,  // measure 3
00000000
00000000
00000000
00000000
,  // measure 4
00000011
00000100
00010000
01000000
00000100
00010000
01000000
10000000
00001000
10000000
00001000
00100000
00000000
00001000
00100000
00001000
,  // measure 5
10000000
00001000
10000000
00000000
10000000
00000010
01000000
00000100
00100000
00000000
00100000
00001000
00000000
00001000
00100000
00000000
,  // measure 6
00000010
00000100
00010000
01000000
00000100
00010000
01000000
10000000
00001000
10000000
00001000
00100000
00000000
00001000
00100000
00001000
,  // measure 7
10000000
00001000
10000000
00000000
10000000
00000010
01000000
00000100
00100000
00000000
00100000
00001000
00000000
00001000
00100000
00001000
,  // measure 8
00000011
00000100
00010000
01000000
00001001
00100000
01000000
00001000
00010000
01000000
00100000
00001000
00000000
00001000
00100000
00001000
,  // measure 9
00100000
00001000
00100000
00000000
00001000
00000010
00100000
00000100
00010000
00000000
00100000
00001000
00000000
00001000
00100000
00001000
,  // measure 10
00000010
00000100
00010000
01000000
00001000
00100000
01000000
00001000
00010000
01000000
00100000
00001000
00000000
00001000
00100000
00001000
,  // measure 11
00100000
00001000
00100000
00000000
00001000
00000010
00100000
00000100
00010000
00000000
00100000
00001000
00000000
00001000
00100000
00001000
,  // measure 12
00000011
00001000
00100000
10000000
00000100
00010000
01000000
10000000
00001000
00000000
00100000
00001000
00000000
01000000
00001000
00100000
,  // measure 13
00001000
00100000
00001000
00000000
00001000
00000010
00100000
00000100
00010000
00000000
00100000
00001000
00000000
00001000
00100000
00001000
,  // measure 14
00000011
00001000
00100000
10000000
00000100
00010000
01000000
10000000
00100000
00000000
00001000
00100000
00000000
00100000
00001000
00100000
,  // measure 15
00001000
00100000
00001000
00000000
00100000
00000010
01000000
00000100
10000000
00000000
00001000
00100000
00000000
00001000
00100000
00001000
,  // measure 16
00000011
00001000
00100000
10000000
00000100
00010000
01000000
10000000
00001000
00000100
00100000
00001000
00000000
00001000
00100000
00001000
,  // measure 17
00100000
00001000
00100000
00000000
00001000
00000010
00001000
01000000
00001000
00100000
00000100
10000000
00000000
00001000
00100000
00001000
,  // measure 18
00000011
00001000
00100000
10000000
00000100
00010000
01000000
10000000
00100000
00001000
00100000
00001000
00000000
00100000
00001000
00100000
,  // measure 19
00001001
00100000
00001000
00000000
00100000
00000010
00100000
00000100
00100000
00001000
00100000
00001000
00100000
00001000
00100000
00001000
,  // measure 20
00100100
00000000
00000100
00000000
10000000
00100000
10000000
00100000
01000000
00000000
01000000
00000000
00000010
00001000
00000010
00001000
,  // measure 21
00000100
00000000
00000100
00000000
10000000
00100000
10000000
00100000
01000000
00000000
01000000
00000000
00000010
00001000
00000010
00001000
,  // measure 22
00000100
00000000
00000100
00000000
10000000
00100000
10000000
00100000
01000000
00000000
01000000
00000000
00000010
00001000
00000010
00001000
,  // measure 23
00000100
00000000
00000100
00000000
10000000
00100000
10000000
00100000
01000000
00000000
01000000
00000000
00000010
00001000
00000010
00001000
,  // measure 24
00000010
00000010
00000010
00000010
,  // measure 25
00000010
00000010
00000010
00000010
,  // measure 26
10000010
10000000
10000000
10000000
,  // measure 27
00100000
00000000
00100000
00000000
00100000
00000000
00100000
00000000
00100000
00001000
00100000
00000000
00100001
00001000
00100000
00001000
,  // measure 28
10000001
00000010
00000100
00000000
00000000
00000000
00000000
00000000
10000000
00000000
00000000
00000000
00000000
00000000
00000000
00000000
10000000
00000000
00000000
00000000
00010000
00000000
00000000
00000000
10000000
00000000
00000000
00000000
00000000
00000000
00000000
00000000
,  // measure 29
10000010
00000100
00000000
00000000
10000000
00000000
00000000
00000000
10000000
00000000
00000000
00000000
10000000
00000000
00000000
00000000
,  // measure 30
10000010
00000100
00000000
00000000
10000000
00000000
00000000
00000000
10000000
00000000
00010000
00000000
10000000
00000000
00000000
00000000
,  // measure 31
10000010
00000100
00000000
00000000
10000000
00000000
00000000
00000000
10000000
00000000
00000000
00000000
10000000
00000000
00000000
00000000
,  // measure 32
10100001
01000000
00000100
00000010
10000000
00000000
00000100
00001000
10000000
00000000
01000100
00000010
10000000
00000000
00000100
00001000
,  // measure 33
10100000
01000000
00000100
00000010
10000000
00000000
00000100
00001000
10000000
00000000
01000100
00000010
10000000
00000000
00000100
00001000
,  // measure 34
10100001
01000000
00000100
00000010
10000000
00000000
00000100
00001000
10000000
00000000
01000100
00000010
10000000
00000000
00000100
00001000
,  // measure 35
10100000
01000000
00000100
00000010
10000000
00000000
00000010
00001000
10000010
00001000
00000010
00001000
10000010
00001000
00000100
00000010
,  // measure 36
10101001
01000000
00000100
00000010
10010000
00000000
00000100
00001000
10000000
00000000
01000100
00000010
10010000
00000000
00000100
00001000
,  // measure 37
10100000
01000000
00000100
00000010
10010000
00000000
00000100
00000010
10000000
00000000
01000100
00001010
10010000
00000000
00000100
00000010
,  // measure 38
10000001
00000010
01000000
00000100
10010000
00000010
01000000
00000100
10000000
00000010
01000000
00000100
10010000
00000010
01000000
00000100
,  // measure 39
00001001
00000010
00010001
00000100
00001001
00000010
00010000
00000100
00001001
00000010
00010000
00000100
00001001
00000010
00010000
00000100
,  // measure 40
00010001
00100000
00001000
00010000
10100000
00000010
00000100
00010000
00100000
00001000
00100000
00010000
10000100
00001000
00010000
00100000
,  // measure 41
01000000
00001000
00000100
00010000
10100000
00000010
00000100
00010000
00000100
00001000
00010000
00100000
10001000
00000100
00010000
00001000
,  // measure 42
00100000
00010000
00001000
00010000
10001000
00010000
00000100
00000010
00100000
00010000
00001000
00010000
10001000
00010000
00000100
00000010
,  // measure 43
00100000
00010000
00001000
00010000
10001000
00010000
00000100
00000010
00100000
00010000
00001000
00010000
10001000
00010000
00000100
00000010
,  // measure 44
00001001
00010000
00001000
00010000
10100001
00000010
00000100
00010000
00100000
00001000
00100000
00010000
10000100
00001000
00010000
00100000
,  // measure 45
01000000
00001000
00000100
00010000
10100000
00000010
00000100
00010000
00000100
00001000
00010000
00100000
10001000
00000100
00010000
00001000
,  // measure 46
00100000
00010000
00001000
00010000
10001000
00010000
00000100
00000010
00100000
00010000
00001000
00010000
10001000
00010000
00000100
00000010
,  // measure 47
00100100
00010000
00001000
00010000
10001000
00010000
00000100
00000010
00100000
00010000
00001000
00010000
10001000
00010000
00000100
00000010
,  // measure 48
01000100
00000000
10000010
00101000
01000100
00000000
10000010
00101000
01000100
00000000
10000010
00101000
01000100
00000000
10000010
00101000
,  // measure 49
01000100
00000000
10000010
00101000
01000100
00000000
10000010
00101000
01000100
00000000
10000010
00101000
01000100
00000000
10000010
00101000
,  // measure 50
01000100
00000000
00101000
10000010
01000100
00000000
00101000
10000010
01000100
00000000
00101000
10000010
01000100
00000000
00101000
10000010
,  // measure 51
01000100
00000000
10000010
00101000
01000100
00000000
10000010
00101000
01000100
00000000
10000010
00101000
01000100
00000000
10000010
00000000
,  // measure 52
00000011
00100000
00001000
00100000
00000010
00100000
00001000
00100000
00000100
00010000
00000100
01000000
00000100
00010000
00000100
01000000
,  // measure 53
00100001
10000000
00100000
10000000
00100000
10000000
00100000
10000000
00100000
10000000
00100000
10000000
00100000
10000000
00100000
10000000
,  // measure 54
00001001
00000010
00001000
00000010
00001000
00000010
00001000
00000010
00001001
00000010
00001000
00000010
00001000
00000010
00001000
00000010
,  // measure 55
10000001
00000010
00100001
00001000
10000001
00000010
00100000
00001000
10000001
00000010
00100000
00001000
10000001
00000010
00100000
00001000
,  // measure 56
00000011
00001000
00000010
00001000
10000010
00000000
00000010
00000000
00000010
00001000
00000010
00001000
10000010
00000000
00000010
00000000
,  // measure 57
00000010
00001000
00000010
00001000
10000010
00000000
00000010
00000000
00000010
00001000
00000010
00001000
10000010
00000000
00000010
00000000
,  // measure 58
10000000
00100000
10000000
00100000
10000010
00000000
10000000
00000000
10000000
00100000
10000000
00100000
10000010
00000000
10000000
00000000
,  // measure 59
10000000
00100000
10000000
00100000
10000010
00000000
10000000
00000000
00001000
00010000
00100000
01000000
00010010
00100000
01000000
10000000
,  // measure 60
00000010
00000000
00001000
00000000
00100010
00000000
01001000
00000000
10000010
00000000
00000000
00000000
00100010
00000000
01000000
00000000
00000010
00000000
00001000
00000000
00100010
00000000
00001000
01000000
10000010
00000000
00000000
00000000
00100010
00000000
01000000
00000000
,  // measure 61
00000010
00001000
00100010
01001000
10000010
00000000
00100010
01000000
00000010
00001000
00100010
01001000
10000010
00000000
00100010
01000000
,  // measure 62
10000000
00100000
10001000
00100100
10000010
00000000
10001000
00000100
10000000
00100000
10001000
00100100
10000010
00000000
10001000
00000100
,  // measure 63
10000000
00100000
10001000
00100100
10000010
00000000
10001000
00000100
00000011
00000100
00001000
00010000
00000101
00001000
00010000
00100000
,  // measure 64
10000001
00100000
00010000
00001000
10100000
00010000
00001000
00000010
10000000
00100000
00010000
00001000
00100010
00010000
00001000
00000010
,  // measure 65
10000000
01000000
00010000
00000100
11000000
00010000
00000100
00000010
10000000
01000000
00010000
00000100
01000010
00010000
00000100
00000010
,  // measure 66
10000000
01000000
00100000
00010010
01000000
00100000
00010000
00001000
00100000
00010000
00001000
00000100
10010000
00001000
00000100
00000010
,  // measure 67
10000000
01000000
00100000
00010000
01000010
00100000
00010000
00001000
00100000
00010000
00001000
00000100
10010000
00001000
00000100
00000010
,  // measure 68
10000001
00010000
01000000
00010000
00100010
00001000
00010000
00000100
10000000
00100000
01000000
00010000
00100010
00001000
00010000
00000100
,  // measure 69
01000000
00010000
00100000
00001000
10010000
00000100
00010000
00001000
01000010
00010000
00100000
00001000
10010000
00000100
00001000
00000010
,  // measure 70
10000000
01000000
00100000
00010000
00001000
00000100
00000010
00000001
10000000
01000000
00100000
00010000
00001000
00000100
00000010
00000001
,  // measure 71
10000000
01000000
00100000
00010000
00001000
00000100
00000010
00000001
10000000
01000000
00100000
00010000
00001000
00000100
00000010
00000001
,  // measure 72
10000000
00000000
10000100
00000010
10100000
00000000
10000100
00001000
10000000
00000000
10000100
00000010
10100000
00000000
10000100
00001000
,  // measure 73
10000001
00000000
10000100
00000010
10100000
00000000
10000100
00001000
10000001
00000000
10000100
00000010
10100000
00000000
10000100
00001000
,  // measure 74
00000011
00000000
01000010
10000000
00001011
00000000
01000010
00100000
00000011
00000000
01000010
10000000
00001011
00000000
01000010
00100000
,  // measure 75
00000010
00000000
10000010
00100000
00001010
00000000
10000010
00100000
00000010
00000000
10000010
00100000
00001010
00000000
10000010
00100000
,  // measure 76
00010001
00000000
00000000
00000000
,  // measure 77
00000101
00000000
00000000
00000000
;

//---------------iidx-single7 - scripted connection----------------
#NOTES:
     iidx-single7:
     scripted connection:
     Challenge:
     12:
     1.000,1.000,1.000,0.000,1.000,1073.000,417.000,0.000,0.000,76.000:  // measure 1
00000000
00000000
00000000
00000000
,  // measure 2
00000000
00000000
00000000
00000000
,  // measure 3
00000000
00000000
00000000
00000000
,  // measure 4
10101011
00000100
00010000
01000000
10001000
00100000
01000000
00001000
10010000
01000000
00100000
00001000
10000000
00001000
00100000
00001000
,  // measure 5
10100000
00001000
00100000
00000000
10001000
00000010
00100000
00000100
10010000
00000000
00100000
00001000
10000000
00001000
00100000
00001000
,  // measure 6
10000010
00000100
00010000
01000000
10001000
00100000
01000000
00001000
10010000
01000000
00100000
00001000
10000000
00001000
00100000
00001000
,  // measure 7
10100000
00001000
00100000
00000000
10001000
00000010
00100000
00000100
10010000
00000000
00100000
00001000
10000000
00001000
00100000
00001000
,  // measure 8
10000011
00000100
00010000
01000000
10001001
00100000
01000000
00001000
10010000
01000000
00100000
00001000
10000000
00001000
00100000
00001000
,  // measure 9
10100000
00001000
00100000
00000000
10001000
00000010
00100000
00000100
10010000
00000000
00100000
00001000
10000000
00001000
00100000
00001000
,  // measure 10
10000010
00000100
00010000
01000000
10001000
00100000
01000000
00001000
10010000
01000000
00100000
00001000
10000000
00001000
00100000
00001000
,  // measure 11
10100000
00001000
00100000
00000000
10001000
00000010
00100000
00000100
10010000
00000000
00100000
00001000
10000000
00001000
00100000
00001000
,  // measure 12
10000011
00001000
00100000
10000000
00000100
00010000
01000000
10000000
00001000
00000000
10100000
00001000
00000000
01000000
00001000
00100000
,  // measure 13
10001000
00100000
00001000
00000000
00001000
00000010
00100000
00000100
00010000
00000000
00100000
00001000
00000000
00001000
00100000
00001000
,  // measure 14
10000011
00001000
00100000
10000000
00000100
00010000
01000000
10000000
00100000
00000000
10001000
00100000
00000000
00100000
00001000
00100000
,  // measure 15
00001000
00100000
00001000
00000000
00100000
00000010
01000000
00000100
10000000
00000000
00001000
00100000
00000000
00001000
00100000
00001000
,  // measure 16
00000011
00001000
00100000
10000000
00000100
00010000
01000000
10000000
00001000
00000100
00100000
00001000
00000000
00001000
00100000
00001000
,  // measure 17
00100000
10001000
00100000
00000000
00001000
00000010
00001000
01000000
00001000
00100000
00000100
10000000
00000000
00001000
00100000
00001000
,  // measure 18
10000011
00001000
00100000
10000000
00000100
00010000
01000000
10000000
00100000
00001000
00100000
00001000
00000000
00100000
00001000
00100000
,  // measure 19
10001001
00100000
00001000
00000000
00100000
00000010
00100000
00000100
00100000
00001000
00100000
00001000
00100000
00001000
00100000
00001000
,  // measure 20
00100100
10000000
00000100
00000000
10000000
00100000
10000000
00100000
01000000
00000000
01000100
00000000
00000010
00001000
00000010
00001000
,  // measure 21
00100100
10000000
00000100
00000000
10000000
00100000
10000000
00100000
01000000
00000000
01000000
00000000
00000010
00001000
00000010
00001000
,  // measure 22
00100100
10000000
00000100
00000000
10000000
00100000
10000000
00100000
01000000
00000000
01000100
00000000
00000010
00001000
00000010
00001000
,  // measure 23
10000100
00100000
00000100
00000000
10000000
00100000
10000000
00100000
01000000
00000000
01000000
00000000
00000010
00001000
00000010
00001000
,  // measure 24
10100010
00001000
10000000
00000000
10000010
00100000
10000000
00100000
01000010
00000000
01001000
00000000
00010010
01000000
00010000
01000000
,  // measure 25
10001010
00000000
00100000
00000000
00100010
00001000
00100000
00001000
00100010
00000000
00100000
00000000
00001010
00100000
00001000
10000000
,  // measure 26
01010010
00000000
00010000
00000000
10000100
00010000
00000100
00010000
10000100
00000000
00010000
00000000
10000100
00010000
00000100
00010000
,  // measure 27
10101000
00000000
00101000
00000000
00100010
00001000
00100010
00001000
00100100
10000000
00100100
00000000
00101001
10000010
00101000
01000010
,  // measure 28
10011001
00100000
00000100
00100000
10001000
00100000
00000100
00001000
10100000
00001000
00000100
00001000
10100000
00001000
00000100
00100000
,  // measure 29
10001000
00100000
00000100
00100000
10001000
00100000
00000100
00001000
10100000
00001000
00000100
00001000
10100000
00001000
00000010
00010000
,  // measure 30
11001000
00100000
00000100
00100000
10001000
00100000
00000100
00001000
10100000
00001000
01000100
00001000
10100000
00001000
00000100
00100000
,  // measure 31
10001000
00100000
00000100
00100000
10001000
00100000
00000100
00100000
10001000
00100000
00000100
00001000
10100000
00001000
00000010
00010000
,  // measure 32
00100000
10000000
00010100
10000010
00100000
10000000
00010100
00101000
10000000
00100000
00010100
00100010
10000000
00100000
00010100
10001000
,  // measure 33
00100000
10000000
00010100
10000010
00100000
10000000
00010100
10001000
00100000
10000000
00010100
00100010
10000000
00100000
00010100
01001000
,  // measure 34
00100000
10000000
00010100
10000010
00100000
10000000
00010100
00101000
10000000
00100000
00010100
00100010
10000000
00100000
00010100
10001000
,  // measure 35
00100000
10000000
00010100
10000010
00100000
10000000
00010010
10001000
00100010
10001000
00000010
00101000
10000010
00101000
00000100
01000010
,  // measure 36
00101001
00010000
00100100
01000010
00100000
01000000
00010000
01000100
00100000
01000000
00100100
01000010
00100000
01000000
00010100
01001000
,  // measure 37
00010000
01000000
00010100
01000010
00010000
01000000
00010100
01000010
00010000
01000000
00011000
01000100
00010000
01000000
00010100
01001000
,  // measure 38
00100011
10001000
00100100
10000000
00100010
10001000
00100100
10000000
00100010
10001000
00100100
10000000
00100010
10001000
00100100
10000000
,  // measure 39
00101001
00000010
00010001
00000100
11001001
00000010
00010000
01000100
00001001
00000010
00010000
00100100
10001001
00000010
00010000
00000100
,  // measure 40
10011001
00100000
00001000
00010000
10101000
00000010
00000100
00010000
10100000
00001000
01100000
00010000
10100100
00001000
00010000
00100000
,  // measure 41
11000010
00011000
00000100
00010000
11100000
00000010
00000100
00010000
10000100
00001000
00010000
00100000
11001000
00000100
00010000
00001000
,  // measure 42
10100100
01010000
00001000
00010000
10101000
00010000
00000100
00000010
10100000
00010000
01001000
00010000
11001000
00010000
00000100
00000010
,  // measure 43
10100000
01010000
00001000
00010000
11001000
00010000
00000100
00000010
10100000
00010000
00001000
00010000
11001000
00010000
00000100
00000010
,  // measure 44
10101001
01010000
00001000
00010000
10100001
00000010
00000100
00010000
10100000
00001000
01100000
00010000
10000100
00001000
00010000
00100000
,  // measure 45
11000000
00101000
00000100
00010000
11100000
00000010
00000100
00010000
10000100
00001000
00010000
00100000
11001000
00000100
00010000
00001000
,  // measure 46
10100000
01010000
00001000
00010000
10101000
00010000
00000100
00000010
10100000
00010000
01001000
00010000
11001000
00010000
00000100
00000010
,  // measure 47
10100100
01010000
00001000
00010000
11001000
00010000
00000100
00000010
10100000
00010000
00001000
00010000
11001000
00010000
00000100
00000010
,  // measure 48
01000100
00101000
10000010
00101000
01000100
00101000
10000010
00101000
01000100
00101000
10000010
00101000
01000100
00101000
10000010
00101000
,  // measure 49
01000100
00101000
10000010
00101000
01000100
00101000
10000010
00101000
01000100
00101000
10000010
00101000
01000100
00101000
10000010
00101000
,  // measure 50
01000100
10000010
00101000
10000010
01000100
10000010
00101000
00010000
01000100
10000010
00101000
10000010
01000100
10000010
00101000
00010000
,  // measure 51
01000100
00101000
10000010
00101000
01000100
00101000
10000010
00101000
01000100
00101000
10000010
00101000
01000100
00101000
10000010
00010000
,  // measure 52
10100011
00001000
00000100
00001000
11000010
00001000
00000100
01010000
10000010
00000100
00100010
00001000
10000010
00000100
00000010
00001000
,  // measure 53
00101001
10000000
00100100
10001000
00100000
10000000
00100100
10010000
00100000
10001000
00100100
10001000
00110000
10000100
00100010
10010000
,  // measure 54
01001001
00000010
00101000
00000010
10001000
00000010
00101000
00000010
10001001
00000010
00101000
00000010
10001000
00000010
00101000
00000010
,  // measure 55
00100101
00001000
01000011
00000100
10001001
01000100
00100010
00000100
10001001
00100100
00010010
01000100
10001001
00100100
00000010
00101000
,  // measure 56
10000011
00000010
00000010
00000010
10100010
00000000
00000010
00000000
10001000
00001000
00001000
00001000
10101000
00000000
00001000
00000000
,  // measure 57
10000010
00000010
00000010
00000010
10100010
00000000
00000010
00000000
10001000
00001000
00001000
00001000
10101000
00000000
00001000
00000000
,  // measure 58
10000010
00000010
00000010
00000010
10100010
00000000
00000010
00000000
10001000
00001000
00001000
00001000
10101000
00000000
00001000
00000000
,  // measure 59
10000010
00000010
00000010
00000010
10100010
00000000
00000010
00000000
10000010
00000100
00001000
00010000
11000100
00001000
00010000
00100000
,  // measure 60
01000010
01000000
01000000
01000000
01000010
00000000
01000000
00000000
00010010
00010000
00010000
00010000
00010010
00000000
00010000
00000000
,  // measure 61
01000010
01000000
01000000
01000000
01000010
00000000
01000000
00000000
00100010
00100000
00100000
00100000
00100010
00000000
00100000
00000000
,  // measure 62
10000010
10000000
10000000
10000000
10000010
00000000
10000000
00000000
01000010
01000000
01000000
01000000
01000010
00000000
01000000
00000000
,  // measure 63
00100010
00100000
00100000
00100000
00100010
00000000
00100000
00000000
00000111
00001000
00010000
00100000
00000111
00001000
00010000
00100000
,  // measure 64
11000001
00100000
00010000
00001000
10100000
00010000
00001000
00000100
10100000
00010000
01001000
00000100
10010000
00001000
00000100
00000010
,  // measure 65
11000000
00100000
00010010
00001000
10100000
00010000
00001000
00000100
10100000
00010000
00001000
00000100
10010000
00001000
00000100
00000010
,  // measure 66
10100000
00010000
00001000
00000110
10010000
00001000
00000100
00000010
10100000
00010000
01001000
00000100
10010000
00001000
00000100
00000010
,  // measure 67
10100000
00010000
00101000
00000100
10010000
00001000
00000100
00000010
10100000
00010000
00101000
01000100
10010000
00001000
00000100
00000010
,  // measure 68
10000011
01000000
00100100
00011000
01000010
00100000
00010000
00001100
01000010
00100000
00010100
00001000
00100010
00010000
00001000
00000100
,  // measure 69
10000010
01000000
00101000
00010000
01000010
00100000
00010000
00001000
01000010
00100000
10010000
00001000
00100010
00010000
01001000
00000100
,  // measure 70
10000010
01000000
00101000
00010000
01000010
00100000
00010000
00001000
01000010
00100000
10010000
00001000
00100010
00010000
01001000
00000100
,  // measure 71
10000011
01000000
10100000
00011000
01000010
00100000
01010000
10001000
01000010
00100000
01010000
10001000
00100010
00010000
01001000
00010100
,  // measure 72
10100001
00010000
10001000
01000100
10010000
00001000
10000100
01000010
10100000
00010000
10001000
01000100
10010000
00001000
10000100
01000010
,  // measure 73
10001001
00100000
10001000
00100000
10001000
00100000
10001000
00100000
10001001
00010000
10000100
00010000
10000100
00010000
10000100
00010000
,  // measure 74
01000011
00010000
01000010
00010000
01000011
00010000
01000010
00010000
00100011
00001000
00100010
00001000
00100011
00001000
00100010
00001000
,  // measure 75
01010010
00000000
10000110
10000000
01010110
00000000
10001010
10000000
00010110
00000000
10000010
10000000
00101110
00000000
10000010
10000000
,  // measure 76
00010001
00000000
00000000
00000000
,  // measure 77
00000101
00000000
00000000
00000000
;
