#TITLE:Bloody Tears;
#SUBTITLE:(IIDX Version);
#ARTIST:DJ YOSHITAKA;
#TITLETRANSLIT:;
#SUBTITLETRANSLIT:;
#ARTISTTRANSLIT:;
#CREDIT:;
#BANNER:BloodyTears-bn.png;
#BACKGROUND:BloodyTears-bg.png;
#LYRICSPATH:;
#CDTITLE:pannpann.png;
#MUSIC:Bloody Tears .mp3;
#OFFSET:-0.587;
#SAMPLESTART:61.894;
#SAMPLELENGTH:12.000;
#SELECTABLE:YES;
#BPMS:0.000=170.000;
#STOPS:;
#BGCHANGES:;
// cache tags:
#FIRSTBEAT:0.000;
#LASTBEAT:303.250;
#SONGFILENAME:Songs/Bemani.se Megapack/(forehead) Bloody Tears/Bloody Tears.sm;
#HASMUSIC:1;
#HASBANNER:1;
#MUSICLENGTH:109.851;
// end cache tags

//---------------dance-single - funky shit y----------------
#NOTES:
     dance-single:
     funky shit y:
     Challenge:
     11:
     1.000,1.000,1.000,1.000,1.000,757.000,228.000,136.000,0.000,42.000:







1001
1100
0110
1100
,
2200
0000
3322
0000
2233
0000
3322
0000
2233
0000
3322
0000
2233
0300
3220
0330
,
0101
0110
1100
0011
,
0202
0000
2323
0000
3232
0000
2323
0000
3232
0000
2323
0000
3232
0000
2323
3030
,
0110
1100
0101
0110
,
0220
0000
2332
0000
3223
0000
2332
0000
3223
0000
2332
0000
3223
0330
1001
0000
,
1010
1100
0101
0110
,
0022
0003
0232
0003
0322
0003
0232
0003
0322
0003
0232
0003
0322
0033
1001
0000
,
1100
0000
0110
1000
0011
0000
0101
1000
,
2020
0000
3232
0300
2203
0000
3322
0030
0223
0300
2230
3000
2320
0000
3232
0000
,
1313
0000
1100
0010
1001
0000
0011
1000
,
0220
0300
2230
0300
3220
0030
0322
0003
2032
0000
3223
0300
0232
0000
2323
0000
,
3131
0000
1000
0000
1000
0001
1000
0000
0001
1000
0001
0000
1000
0001
1000
0000
,
1000
0000
0010
0000
1000
0100
0010
0000
0010
0100
1000
0000
0010
0100
0010
0000
,
0001
0010
0100
1000
0100
0010
0001
0010
0100
0010
0001
0010
0100
1000
0100
0010
,
0100
0000
0000
0000
0000
0000
0000
0000
0000
0000
0000
0000
0010
0000
0000
0000
0000
0000
0000
0000
0000
0000
0000
0000
0001
0000
0000
0000
0000
0000
0000
0000
0000
0000
0000
0000
1000
0000
0000
0000
0000
0000
0000
0000
0000
0000
0000
0000
0001
0000
0000
0000
0000
0000
0000
0000
0000
0000
0000
0000
1000
0000
0000
0000
0000
0000
0000
0000
0000
0000
0000
0000
0001
0000
0000
0000
0000
0000
0000
0000
0000
0000
0000
0000
1000
0000
0000
0000
0000
0000
0000
0000
0000
0000
0000
0000
0001
0000
0000
0000
0000
0000
0000
0000
1000
0000
0000
0000
0000
0000
0000
0000
0001
0000
0000
0000
0000
0000
0000
0000
1000
0000
0000
0000
0000
0000
0001
0000
0000
0000
0000
0000
1000
0000
0000
0000
0000
0000
0001
0000
0000
0000
0000
0000
1000
0000
0000
0000
0000
0000
0001
0000
0000
0000
0000
0000
1000
0000
0000
0000
0000
0000
0001
0000
0000
0000
0000
0000
1000
0000
0000
0000
0000
0000
0001
0000
0000
0000
0000
0000
1000
0000
0000
0000
0000
0000
0001
0000
0000
0000
0000
0000
,
2002
0000
0000
0000
0000
0000
0000
3003
,
1001
0010
0100
1000
0010
0100
0010
0100
,
1000
0100
0010
0100
1000
0001
0010
1001
,
0110
0100
1000
0100
1000
0001
0100
0010
,
1001
0100
0010
0001
0101
0100
0101
0100
,
1001
0100
0001
0100
1000
0100
0001
0100
,
1000
0100
0010
0001
0100
1000
0100
1001
,
1001
1000
0010
0110
1001
0100
0010
1010
,
1010
1000
1100
0010
0011
1010
0011
0100
,
0010
0100
0010
0100
0010
0000
0100
0010
0000
1000
0001
1000
0001
1000
0100
0000
,
1000
0010
1000
0001
1000
0100
0010
0001
0100
0010
1010
0000
0000
0000
0001
1000
,
0001
0000
1000
0100
0000
0000
1100
0000
0110
0000
0100
0000
0010
0000
0100
0000
,
1000
0000
0100
1000
0000
0001
0010
0100
1000
0010
0100
0010
1000
0000
0010
0000
,
1000
0000
0100
0001
0000
0000
0100
1000
0010
0100
0001
0010
0100
1000
0001
0000
,
0101
0000
0001
1000
0000
0000
0010
1000
0100
0000
1000
0001
0000
0000
1001
0000
,
0001
0010
0100
0010
0001
0000
0010
0001
0010
0100
1000
0100
0010
0100
0010
0001
,
1000
0000
0010
0100
0000
0000
0010
0100
0010
1000
0100
0010
0001
0000
1010
0000
,
0001
0000
0010
0001
0000
0000
0100
1000
0100
0010
0100
1000
0100
0010
0001
0000
,
0220
0000
0000
0330
2200
0000
0000
3300
0022
0000
0000
0033
0202
0000
0000
0303
2020
0000
0000
3030
0220
0000
0000
0330
2020
0000
0000
3030
0022
0000
0000
0033
,
0011
0000
0000
0202
0303
0000
1100
0000
0110
0000
0000
2200
3300
0000
0110
0000
,
0011
0000
0000
0220
0330
0000
1000
0100
1000
0100
0010
0001
0010
0100
0010
0100
,
0010
0000
0011
0101
0000
0000
1100
0000
0110
0000
0110
1100
0000
0000
0101
0000
,
1001
0000
0110
1001
0000
0000
0001
0000
1000
0010
0100
0001
1000
0001
1000
0010
,
0101
0000
0000
0202
0303
0000
1100
0000
0110
0000
0000
2200
3300
0000
0110
0000
,
0011
0000
0000
0220
0330
0000
0001
0100
0010
1000
0001
0100
0010
1000
0100
0010
,
0101
0000
0011
0101
0000
0000
0110
0000
1100
0000
0011
1100
0000
0000
1100
0000
,
0110
0000
0110
1001
0000
0000
1000
0000
1000
0100
0010
0001
0010
0100
1000
0100
,
1100
0100
0110
0001
0110
0100
1100
0100
,
0110
1100
1001
0110
0101
0011
1100
0110
,
0101
0010
0101
0010
1100
0010
0101
0100
,
0011
1001
0110
1100
1010
1001
0110
1100
,
0110
1000
0110
0010
1010
0001
1100
1000
,
0011
1100
0011
0101
0110
1100
1001
1010
,
0001
0100
0001
0100
0001
0100
0001
0100
0001
0010
0100
1000
0010
0100
0001
0010
,
0100
0000
0000
0000
0000
0000
0000
0000
0000
0000
0000
0000
1000
0000
0000
0000
0000
0000
0000
0000
0000
0000
0000
0000
0100
0000
0000
0000
0000
0000
0000
0000
0000
0000
0000
0000
1000
0000
0000
0000
0000
0000
0000
0000
0000
0000
0000
0000
0100
0000
0000
0000
0000
0000
0000
0000
0000
0000
0000
0000
1000
0000
0000
0000
0000
0000
0000
0000
0000
0000
0000
0000
0100
0000
0000
0000
0000
0000
0000
0000
0000
0000
0000
0000
1000
0000
0000
0000
0000
0000
0000
0000
0000
0000
0000
0000
0100
0000
0000
0000
0000
0000
0000
0000
1000
0000
0000
0000
0000
0000
0000
0000
0100
0000
0000
0000
0000
0000
0000
0000
1000
0000
0000
0000
0000
0000
0100
0000
0000
0000
0000
0000
1000
0000
0000
0000
0000
0000
0100
0000
0000
0000
0000
0000
1000
0000
0000
0000
0000
0000
0100
0000
0000
0000
0000
0000
1000
0000
0000
0000
0000
0000
0100
0000
0000
0000
0000
0000
1000
0000
0000
0000
0000
0000
0100
0000
0000
0000
0000
0000
1000
0000
0000
0000
0000
0000
0100
0000
0000
0000
0000
0000
,
2200
0000
0000
3300
,
0001
0010
0100
1000
0010
0100
0001
0010
0100
1000
0001
0010
0100
1000
0010
0100
,
0001
0010
0001
1000
0100
0010
0001
0100
0010
1000
0100
0010
0001
0010
0100
0010
,
0001
0100
0010
1000
0001
0100
0010
1000
0001
0100
0010
1000
0001
1000
0100
1000
,
0110
1000
0100
0010
0001
0100
0010
1000
0100
0010
0001
1000
0100
0010
0001
1000
,
0100
1000
0010
0100
0001
1000
0010
0100
0001
1000
0010
0100
0001
1000
0100
0010
,
0100
1000
0100
0010
0100
1000
0001
0010
0100
1000
0100
0010
0001
0010
0100
0010
,
0001
0010
0100
1000
0001
1000
0100
0010
0001
0010
0100
0010
0100
1000
0100
0000
,
0000
0000
0000
0000
0000
0000
0000
0000
0000
0000
0000
0000
0000
0000
0100
1000
,
0100
0000
0010
0100
0000
0000
0011
0000
0101
0000
0010
0000
1100
0000
0001
0000
,
0010
0000
0000
0110
0000
0010
0001
0010
0100
0010
0001
0010
0100
1000
0100
0000
,
1000
0000
0100
1000
0010
0000
1000
0100
0010
0001
0100
0010
1000
0100
0010
0100
,
1000
0000
1000
0100
0000
0100
1000
0100
0010
0000
0001
0100
0000
0100
0001
0100
,
0001
0000
1000
0100
0000
0000
0110
0000
0001
0000
1010
0000
0100
0000
0010
0100
,
0010
0000
0000
0010
0000
0010
0100
0010
1000
0100
0010
0100
0010
0001
0010
0000
,
1100
0000
0001
0010
0000
0001
0100
0010
1000
0001
0100
0010
1000
0100
0010
0001
,
0010
0000
1001
0000
1000
0001
1000
0001
1000
0100
0010
0001
0010
0100
1000
0010
,
0220
0330
0000
0110
0000
0000
0110
0000
2200
3300
0000
0011
0000
0000
0101
0000
,
2020
3030
0000
0110
0000
0000
1000
0000
0010
0100
0010
1000
0100
0010
0001
0010
,
0011
0000
0011
0101
0000
0000
0110
0000
1100
0000
0110
1100
0000
0000
1001
0000
,
1010
0000
1010
0101
0000
0000
1000
0000
0100
0010
0100
1000
0010
0100
0001
1000
,
2200
3300
0000
1100
0000
0000
0110
0000
2020
3030
0000
0110
0000
0000
0101
0000
,
0022
0033
0000
1001
0000
0000
1000
0000
0001
0010
0100
1000
0001
0010
0100
1000
,
1100
0000
0110
1100
0000
0000
1010
0000
0110
0000
0110
0011
0000
0000
0110
0000
,
0101
0000
1010
0101
0000
0000
0011
0000
0110
0000
1000
0000
0100
1000
0000
0000
;
