#TITLE:Scenario;
#SUBTITLE:(album version);
#ARTIST:BeForU NEXT;
#TITLETRANSLIT:;
#SUBTITLETRANSLIT:;
#ARTISTTRANSLIT:;
#CREDIT:;
#BANNER:banner.jpg;
#BACKGROUND:bg.jpg;
#LYRICSPATH:;
#CDTITLE:!milkTitle.png;
#MUSIC:01 Scenario (album version).mp3;
#OFFSET:-5.260;
#SAMPLESTART:134.910;
#SAMPLELENGTH:12.000;
#SELECTABLE:YES;
#BPMS:0.000=200.000;
#STOPS:;
#BGCHANGES:;
// cache tags:
#FIRSTBEAT:0.000;
#LASTBEAT:860.000;
#SONGFILENAME:Songs/Bemani.se Megapack/(Milk) Scenario/scenario.sm;
#HASMUSIC:1;
#HASBANNER:1;
#MUSICLENGTH:264.542;
// end cache tags

//---------------dance-single - ----------------
#NOTES:
     dance-single:
     :
     Hard:
     11:
     1.000,1.000,1.000,0.060,0.140,1653.000,487.000,16.000,0.000,0.000:
1001
0000
0001
1000
0000
1000
0000
1000
,
1001
0000
0100
0010
0000
0010
0000
0010
,
1001
0000
0001
0100
0000
0100
0000
0100
,
1001
0000
0010
0100
0000
0100
0000
0100
,
2001
0000
0100
0010
0000
0010
0000
0100
,
0010
0000
0001
0100
0000
0100
0000
0100
,
3020
0000
0100
1000
0000
1000
0000
1000
,
0031
0010
0100
1000
0000
0001
0010
0100
1000
0000
0001
0000
1001
0000
0000
0000
,
1000
1000
1001
1000
1000
1000
1001
1000
,
1000
1000
1001
1000
1000
1000
1001
1000
,
1000
1000
1001
1000
1000
1000
1001
1000
,
1000
1000
1001
1000
1000
1000
1001
1000
,
1000
1000
1001
1000
1000
1000
1001
1000
,
1000
1000
1001
1000
1000
1000
1001
1000
,
1000
1000
1001
1000
1000
1000
1001
1000
,
1001
0000
0000
1100
0000
0000
1001
0000
,
1001
0100
0010
0001
1000
0001
0010
0100
,
0010
0001
1000
0010
0100
0001
0100
0010
,
0100
0001
1000
0100
0010
0001
0100
0010
,
1001
0101
0110
1100
1001
0011
0110
0100
,
1000
0001
1000
0100
0010
0100
1000
0001
,
1000
0010
0100
0001
1000
0010
0100
0001
,
0010
0100
1000
0010
0100
0001
0010
0100
,
1001
0000
1001
0000
1001
0000
1001
0000
1001
0000
1000
0001
1000
0001
1000
0001
,
1001
0100
1001
0001
0010
0100
1001
0100
,
1000
0001
1001
0010
1000
0100
1001
1000
,
0001
1000
1001
1000
0100
0010
1001
0001
,
1000
0010
1001
0010
0100
0001
1001
1100
,
0011
0110
1100
0101
1001
1100
0011
0101
,
1001
1000
0110
1000
0001
0100
1010
1001
,
0110
0001
0101
0110
0101
1100
1001
1002
,
0000
0000
1000
0000
1000
0000
1003
0000
1000
0100
0010
0001
1001
0000
0000
0000
,
1001
0100
1000
1001
0001
0010
1001
0010
,
0100
1001
0001
1001
1010
1100
1001
1010
,
1001
0100
0010
1001
0100
0001
1001
1000
,
0010
1001
1000
1010
1100
1010
1001
1000
,
0110
0001
1000
1001
0100
0010
1001
0100
,
1001
0010
0100
1001
1000
0001
1001
1000
,
1001
0100
1001
1001
0100
1001
2002
0000
,
0000
0000
0000
3003
0000
0000
0000
0000
,
1001
0100
0010
0110
0001
0100
0101
1000
,
0100
1000
1001
0010
1001
0100
1001
1000
,
0101
1000
0010
1001
1000
0100
1001
0001
,
1000
0001
1000
0100
1000
0010
1001
0100
,
1001
0010
1001
1010
0001
1001
1002
1000
,
1000
1000
1003
0100
0010
1001
1100
1010
,
1001
0100
1001
1001
0010
1001
1001
0010
,
0100
1000
1001
0010
1001
0100
1001
1010
,
1001
1001
1001
1001
1001
1001
1001
1001
,
1001
1000
0100
0010
0001
0010
0100
1000
,
1001
1000
1001
0001
1000
0100
1001
0010
,
0100
0001
1001
0100
0010
1000
1001
1000
,
0001
0010
1001
0001
0010
0100
1001
1000
,
0100
0010
1001
0010
0100
0001
1001
1000
,
0010
1000
1001
0100
1000
0001
1001
0001
,
1000
0001
1001
0010
0100
0010
1001
0100
,
0010
0100
1001
1000
0100
1000
1001
0010
,
1000
0100
1001
1001
1001
1001
1001
1001
,
1001
0100
1001
0010
0001
0010
1001
0100
,
0010
1000
1001
1000
0010
1000
1001
0010
,
0100
0001
1001
1000
0001
1000
1001
0001
,
1000
0001
1001
0100
0010
0001
1001
0010
,
0100
0001
1001
0100
1000
0001
1001
1000
,
0100
0010
1001
0001
0010
0100
1001
0010
,
0100
0000
0001
0000
1001
0000
0100
0000
1000
0000
0010
0000
1001
0000
1000
0001
,
1000
0100
1001
0010
0100
1000
1001
0010
,
1001
1000
1001
1000
1000
1000
1001
1000
,
1000
1000
1001
1000
1000
1000
1001
1000
,
1000
1000
1001
1000
1000
1000
1001
1000
,
1000
1000
1001
1000
1000
1000
1001
1000
,
1000
1000
1001
1000
1000
1000
1001
1000
,
1000
1000
1001
1000
1000
1000
1001
1000
,
1000
1000
1001
1000
1000
1000
1001
1000
,
1001
0000
1000
0100
0010
0001
1000
0100
0010
0001
1000
0001
1000
0000
0000
0000
,
1001
0001
1000
0001
1000
0000
1000
0001
,
1000
0000
1001
0000
1000
0000
1001
0001
,
1000
0001
1000
0001
1000
0000
1000
0001
,
1000
0000
1001
0000
1000
0000
1000
0001
,
1000
0001
1000
0001
1000
0001
1000
0001
,
1000
0000
1001
0000
1000
0000
1000
0001
,
1000
1000
1000
0001
1000
0001
1000
0001
,
1001
0000
1100
0000
0011
0000
0101
0000
1010
0000
1001
0100
0010
0001
0010
0100
,
1001
0100
0010
0100
0010
0001
1000
0010
,
0100
0001
0100
0010
1000
0100
0010
0001
,
0100
0010
0100
0001
1000
0001
0010
0001
,
1000
0010
0100
0010
1000
0001
0110
1100
,
0110
0011
1001
1100
0110
0011
0110
1010
,
1100
0010
1001
0010
0100
0001
0010
0100
,
1000
0100
1000
0001
0010
0100
0000
2000
,
0000
0000
0100
0000
0010
0000
0001
0000
3010
0100
1000
0100
1001
0000
0000
0000
,
1001
1000
0010
1001
0010
0100
1001
0001
,
0100
1001
1010
1100
1001
1010
1001
1010
,
1001
0010
0100
1001
0010
1001
1001
0100
,
0010
1001
0100
1001
1001
1010
1100
0010
,
0011
0010
0100
1100
0001
1000
1001
0001
,
1001
0100
1000
1001
0010
0100
1001
0010
,
1001
0100
1001
1001
0100
1001
1002
1000
,
1000
0103
0010
0001
1000
0100
1000
0010
,
1001
1000
0010
1001
0001
0010
1001
0100
,
0010
0100
1001
0001
1001
0100
1001
1000
,
1001
0100
0010
1001
0100
0010
1001
1000
,
0100
1000
0001
0010
0100
0010
1001
0100
,
1001
0010
1001
1001
0010
1001
1002
0100
,
1000
0013
0100
0010
1000
1001
1001
1001
,
1001
1000
1001
1100
1000
1010
1001
0010
,
0100
0010
1001
0100
1001
0010
1001
1001
,
1001
0100
1001
1001
0100
1001
1001
0000
,
1001
0000
0010
0000
0100
0000
1000
0000
0100
0000
0010
0001
0110
0000
0000
0000
,
1001
0100
1001
0100
1000
0100
1001
0010
,
0001
0010
1001
0010
0100
0001
1001
1000
,
0100
0010
1001
0100
0010
1000
1001
0010
,
0100
1000
1001
0001
1000
0010
1001
1000
,
0010
1000
1001
0001
0100
0010
1001
0100
,
0001
1000
1001
0010
0100
0010
1001
0010
,
1000
0010
1001
1000
0001
1000
1001
0001
,
1000
0000
1000
0100
0010
0001
0010
0100
1000
0100
0010
0001
0010
0100
1000
0100
,
1001
0100
1001
0010
0001
1000
1001
1000
,
0010
1000
1001
0100
0010
0100
1001
0001
,
1000
0001
1001
1000
0001
1000
1001
0100
,
0010
0001
1001
1000
0100
1000
1001
0100
,
0010
1000
1001
1000
0010
0100
1001
0010
,
0100
1000
1001
0001
0100
0010
1001
0100
,
0010
0000
0001
0000
1001
0000
0010
0000
0100
0000
1000
0000
1001
0000
1000
0001
,
1000
0001
0010
0100
1001
0110
0011
1100
,
1002
1000
1000
1003
0010
1000
1001
0100
,
0010
0100
1001
0010
0100
0010
1001
0001
,
1000
0100
1001
1000
0010
1000
1001
0010
,
0100
1000
1001
0010
0001
1000
1001
0100
,
0010
1000
1001
0001
1000
0001
1001
1000
,
0010
1000
1001
1000
0001
1000
1001
0010
,
0100
0001
1001
0100
0010
1000
1001
0001
,
1000
0000
0001
0000
1001
0000
1000
0100
0010
0000
0001
0000
0010
0000
0100
0000
,
1001
0010
1001
0100
0010
1000
1001
0100
,
1000
0100
1001
0010
1000
0100
1001
0010
,
0001
0010
1001
0100
1000
0010
1001
1000
,
0100
0010
1001
0100
0010
0100
1001
0010
,
0100
0010
1001
1000
0010
1000
1001
0001
,
1000
0010
1001
0001
1000
0001
1001
0100
,
0010
0000
1000
0000
1001
0000
0001
0000
0010
0000
0100
0000
1001
0000
1000
0001
,
1000
0000
0010
0000
0100
0000
0001
0000
0010
0000
0100
1000
0100
0000
1000
0000
,
1001
1000
1000
0001
0010
0100
1000
0100
,
1000
1000
1000
0001
0010
0100
1000
0100
,
1000
1000
1000
0001
1000
0001
1000
0001
,
1000
1000
1000
0100
0010
0100
1000
0010
,
1000
1000
1000
0100
1000
0010
1000
0001
,
1000
1000
1000
0010
0100
0010
0100
1000
,
1001
1100
0101
1010
0110
1100
0011
1001
,
1010
1100
1001
1100
0110
0011
0110
1100
,
2002
0000
0000
0000
0000
3003
1001
0000
,
1001
0100
0010
0100
1000
0100
0010
0001
,
1000
0001
0100
0010
1000
0100
0010
0100
,
1000
0010
1000
0010
0100
0001
0010
0100
,
1000
0010
0100
0001
0010
0001
1000
0100
,
1000
0010
0100
0001
1000
0100
0010
0001
,
1000
0010
1000
0100
0010
0001
0010
0100
,
1000
0100
0010
0001
1000
0001
1000
0010
,
0100
0010
1000
0001
1000
0001
0010
0001
,
1001
1100
0110
0011
0110
1100
0110
0011
,
1001
0000
0100
0000
0010
0000
0001
0000
0010
0000
0100
1000
0100
0000
0010
0000
,
0001
0010
0100
1000
0100
0010
0001
0010
,
1001
0000
0000
0000
,
0000
0000
1000
0100
0010
0001
0010
0100
1000
0100
0010
0001
0010
0100
1000
0100
,
1001
0000
0000
0000
,
0000
0000
0001
0010
0100
1000
0100
0010
0001
0010
0100
1000
0100
0010
0001
0010
,
1001
0000
0000
0000
,
0000
0000
0001
0010
0100
1000
0001
0010
0100
1000
0001
0010
0100
1000
0010
0100
,
1001
0000
0000
0000
,
1001
0000
1100
0000
0010
0000
0100
1000
0100
0000
0110
0000
1001
0000
0000
0000
,
1001
0000
0100
0000
0100
0000
0100
0000
1001
0000
0100
0000
0100
0000
0100
0010
,
0100
0010
0001
0010
0100
1000
0100
0010
,
1001
0100
0100
0100
1001
0100
0100
0100
,
1000
0000
0100
1000
0100
0000
0010
0001
0010
0001
0010
0100
1000
0100
0010
0001
,
1001
0000
0100
1001
0000
0000
0100
0000
,
1001
0000
0100
1001
0000
0000
0100
0000
,
1001
0000
0000
1100
0000
0000
2002
0000
,
0000
0000
0000
0000
,
0000
0000
0000
3003
1001
0000
1001
0000
,
1001
0010
1001
1000
0010
1000
1001
0001
,
1000
0001
1001
0001
0010
0100
1001
1000
,
0100
0010
1001
0010
0100
1000
1001
0100
,
0010
0001
1001
0100
1001
1010
1100
1010
,
1001
0100
1001
0010
0100
1000
1001
0010
,
0100
0010
1001
0100
1000
0100
1001
0010
,
0100
1000
1001
0010
0100
1000
1001
0100
,
0010
0000
0001
0000
1001
0000
1000
0100
0010
0001
0010
0100
1000
0100
0010
0001
,
1001
0100
1001
0100
0010
1000
1001
0010
,
0100
0001
1001
0100
1000
0001
1001
0010
,
0100
1000
1001
0010
0100
0001
1001
0010
,
0100
0010
1001
0100
0010
0001
1001
0010
,
0001
0010
1001
0100
0010
1000
1001
0001
,
1000
0010
1001
0001
1000
0001
1001
0010
,
0001
0100
1001
0100
0010
0001
1001
0001
,
0010
0100
1001
0010
0100
0010
1001
0100
,
0010
1000
1001
1000
0010
1000
1001
0010
,
0100
1000
1001
1000
0100
0010
1001
0010
,
0001
0000
1000
0000
1001
0000
0100
0000
0010
0000
0100
0000
1001
0000
1000
0001
,
1000
1000
1001
0100
0010
0001
0010
0100
,
1001
0100
1001
0010
0100
1000
1001
0010
,
0100
0001
1001
0100
0010
1000
1001
0100
,
0010
0100
1001
0010
0100
1000
1001
0000
,
0000
0000
0010
0000
0100
0000
0000
0000
1000
0100
0010
0001
1000
0100
0010
0100
,
1001
1000
1001
1000
1000
1000
1001
1000
,
1000
1000
1001
1000
1000
1000
1001
1000
,
1000
1000
1001
1000
1000
1000
1001
1000
,
1000
1000
1001
1000
1000
1000
1001
1000
,
1000
1000
1001
1000
1000
1000
1001
1000
,
1000
1000
1001
1000
1000
1000
1001
1000
,
1000
0000
1000
0000
1001
0000
1000
0000
1000
0000
1000
0000
1001
0000
1000
0001
,
1000
0100
0010
0001
0010
0100
1001
0000
,
1001
1100
0110
1001
1100
0110
0011
0110
,
1100
0110
0011
0110
1001
0110
0011
1100
,
0011
0110
1100
0101
1010
1100
1001
1100
,
1010
0000
0101
0000
0110
0000
1001
0000
0011
0000
1100
0000
0101
0000
1010
2002
,
0000
0000
0000
0000
,
0000
0000
0000
0000
,
3003
0000
0000
0000
;
