#TITLE:Cave Stage;
#SUBTITLE:Marvel Vs. Capcom 2 (2000);
#ARTIST:Tetsuya Shibata;
#TITLETRANSLIT:;
#SUBTITLETRANSLIT:;
#ARTISTTRANSLIT:yohka;
#CREDIT:;
#BANNER:Cave Stage.png;
#BACKGROUND:Cave Stage-bg.png;
#LYRICSPATH:;
#CDTITLE:cdtitle.png;
#MUSIC:Cave Stage.mp3;
#OFFSET:-0.042;
#SAMPLESTART:54.521;
#SAMPLELENGTH:12.000;
#SELECTABLE:YES;
#BPMS:0.000=110.580;
#STOPS:;
#BGCHANGES:;
// cache tags:
#FIRSTBEAT:0.625;
#LASTBEAT:161.000;
#SONGFILENAME:Songs/VGMP 3/Cave Stage (IamMe)/Cave Stage.sm;
#HASMUSIC:1;
#HASBANNER:1;
#MUSICLENGTH:100.368;
// end cache tags

//---------------dance-single - ----------------
#NOTES:
     dance-single:
     :
     Hard:
     10:
     1.000,0.902,1.000,0.000,1.000,545.000,183.000,0.000,0.000,6.000:

0000
0000
0000
0000
0000
0000
0000
0000
0000
0000
0000
0000
0000
0000
0000
0000
0000
0000
0000
0000
0000
0000
0000
0000
0000
0000
0000
0000
0000
0000
0100
0000
0000
0000
0000
0000
0010
0000
0000
0000
0000
0000
0100
0000
0000
0000
0000
0000
1001
0000
0000
0000
0000
0000
0000
0000
0000
0000
0000
0000
0000
0000
0000
0000
0010
0000
0000
0000
0000
0000
0000
0000
0100
0000
0000
0000
0000
0000
0000
0000
0000
0000
0000
0000
0000
0000
0000
0000
0001
0000
0000
0000
0000
0000
0000
0000
1010
0000
0000
0000
0000
0000
0000
0000
0000
0000
0000
0000
0000
0000
0000
0000
0100
0000
0000
0000
0000
0000
0000
0000
0000
0000
0000
0000
0000
0000
0000
0000
0000
0000
0000
0000
0000
0000
0000
0000
0011
0000
0000
0000
0000
0000
0000
0000
0000
0000
0000
0000
0000
0000
0000
0000
1000
0000
0000
0000
0000
0000
0000
0000
0010
0000
0000
0000
0000
0000
0000
0000
0100
0000
0000
0000
0000
0000
0000
0000
0001
0000
0000
0000
0000
0000
0000
0000
0010
0000
0000
0000
0000
0000
0000
0000
,
1100
0010
0100
1000
0001
0100
0010
0000
1000
0101
0000
0000
0101
0000
0010
1000
0001
1000
0110
0001
0010
1100
0001
0010
,
0100
0000
0000
1001
0000
1001
0010
0000
0101
0000
0000
0010
0101
0000
0000
0010
0000
0000
1100
0000
0001
0010
0000
1100
,
0011
0000
0000
1100
0000
0000
0001
0000
0110
0000
0000
1000
0011
0000
0000
0100
0000
0010
1001
0000
0100
0010
0000
1001
,
0110
0000
0000
0011
0000
1100
0010
0000
0101
0000
0000
0010
0101
0000
0000
1000
0000
0100
0011
0000
0100
1000
0000
0011
,
1100
0000
0000
0011
0000
0100
0010
0000
0101
0000
0000
0010
0101
0000
0000
1000
0000
0010
1100
0000
0010
0001
0100
0010
,
1001
0000
0100
0001
0000
0011
0000
0000
0100
0000
0000
0001
1100
0000
0000
0010
0000
0010
0100
0000
0000
0000
0000
0100
,
0011
0000
0000
0100
0000
0100
1000
0000
0001
0000
0000
0010
0101
0000
0000
1000
0000
0010
0100
0000
0001
0010
0000
0100
,
1010
0000
0001
0110
0000
1010
0000
0000
0001
0000
0000
0001
1100
0000
0000
0010
0000
0010
0100
0000
0000
0000
0000
0010
,
1001
0000
0000
0100
0000
0100
0010
0000
0000
1000
0000
0010
1100
0000
0010
0100
0000
0010
0001
0010
0100
0010
0000
0100
,
1001
0000
0010
1100
0010
0101
0000
0000
1000
0000
0000
1000
0101
0000
0000
0010
0000
0010
1000
0000
0000
0000
0000
1000
,
0011
0000
0000
0100
0000
0100
0010
0000
0100
0001
0000
1000
0011
0000
0100
0001
0000
0010
0100
0000
1000
0001
0000
0100
,
1010
0000
0101
0011
0000
1100
0000
0000
0010
0000
0000
0010
1001
0000
0000
0010
0000
0010
0100
0000
0000
0000
0000
0100
,
1001
0000
0000
0100
0000
1000
0010
0000
0000
0001
0000
0100
0011
0000
1000
0100
0000
0010
1100
0000
0011
1100
0000
0000
,
0011
0000
0000
1100
0110
0011
1001
0000
0100
0010
0000
0000
0010
0000
0000
0100
0000
0000
1001
0000
0000
0000
0000
0000
,
0100
0000
0010
0100
0010
1001
0000
0000
0100
0010
0001
1000
0010
0100
0001
1010
0100
0010
0100
1000
0001
0100
0010
1100
,
0011
0000
0000
0000
0000
0000
0000
0000
0000
0000
0000
0000
0000
0000
0000
0000
1101
0000
0000
0000
0000
0000
0000
0000
0000
0000
0000
0000
0000
0000
0000
0000
0000
0000
0000
0000
0010
0000
0000
0000
0000
0000
0100
0000
0000
0000
0000
0000
1011
0000
0000
0000
0000
0000
0000
0000
0000
0000
0000
0000
0000
0000
0000
0000
0000
0000
0000
0000
0000
0000
0000
0000
0010
0000
0000
0000
0000
0000
0000
0000
0000
0000
0000
0000
0000
0000
0000
0000
0000
0000
0000
0000
0000
0000
0000
0000
0101
0000
0000
0000
0000
0000
0000
0000
0000
0000
0000
0000
0000
0000
0000
0000
1010
0000
0000
0000
0000
0000
0000
0000
0100
0000
0000
0000
0000
0000
0000
0000
0000
0000
0000
0000
0000
0000
0000
0000
0011
0000
0000
0000
0000
0000
0000
0000
0000
0000
0000
0000
0000
0000
0000
0000
0000
0000
0000
0000
0000
0000
0000
0000
1100
0000
0000
0000
0000
0000
0000
0000
0000
0000
0000
0000
0000
0000
0000
0000
0000
0000
0000
0000
0000
0000
0000
0000
0110
0000
0000
0000
0000
0000
0000
0000
,
0000
0000
0000
0000
0000
0000
0000
0000
0000
0000
0000
0000
0000
0000
0000
0000
1011
0000
0000
0000
0000
0000
0000
0000
0000
0000
0000
0000
0000
0000
0000
0000
0000
0000
0000
0000
0000
0000
0000
0000
0110
0000
0001
0000
0000
0000
0000
0000
0000
0000
0000
0000
0000
0000
0000
0000
0000
0000
0000
0000
0000
0000
0000
0000
0000
0000
0000
0000
0000
0000
0000
0000
1000
0000
0000
0000
0000
0000
0000
0000
0000
0000
0000
0000
0000
0000
0000
0000
0010
0000
0000
0000
0000
0000
0000
0000
0101
0000
0000
0000
0000
0000
0000
0000
0000
0000
0000
0000
0000
0000
0000
0000
0000
0000
0000
0000
0000
0000
0000
0000
0010
0000
0000
0000
0000
0000
0000
0000
0000
0000
0000
0000
0000
0000
0000
0000
1000
0000
0000
0000
0000
0000
0000
0000
0010
0000
0000
0000
0000
0000
0000
0000
0000
0000
0000
0000
0000
0000
0000
0000
1000
0000
0000
0000
0000
0000
0000
0000
0000
0000
0000
0000
0000
0000
0000
0000
0000
0000
0000
0000
0000
0000
0000
0000
0010
0000
0000
0000
0000
0000
0000
0000
,
0101
0000
1000
0110
0000
0101
0000
0000
0101
0000
1000
0010
0101
0000
1001
0000
0010
0100
0010
0000
1100
0000
0010
0001
,
0100
0000
1010
0000
0000
0000
1001
0000
0000
0000
0000
0010
0101
0000
1000
0000
0000
0110
0000
0001
1000
0010
0100
0001
,
0110
1000
0001
0100
0010
1000
0100
0000
0001
1100
0000
0000
1100
0000
0010
0001
1000
0010
0101
0010
0001
1100
0001
0010
,
0100
0000
0000
1100
0000
1100
0010
0000
1100
0000
0000
0010
1100
0000
0000
0001
0000
0000
1010
0000
0100
0001
0000
0110
,
1001
0000
0000
0110
0000
0000
1000
0000
0011
0000
0000
1000
0011
0000
0000
0100
0000
0010
1100
0000
0001
0010
0000
1100
,
0011
0000
0000
0101
0000
1010
0100
0000
1001
0000
0000
0010
1001
0000
0000
0010
0000
0100
0011
0000
1000
0100
0000
1001
,
0110
0000
0000
0011
0000
0100
0010
0000
1100
0000
0000
0010
1100
0000
0000
0010
0000
1000
0101
0000
1000
0001
0100
0010
,
1001
0000
0100
0010
0000
0011
0000
0000
0100
0000
0000
0001
0110
0000
0000
1000
0000
1000
0100
0000
0000
0000
0000
0100
,
1010
0000
0000
0100
0000
0100
0010
0000
0001
0000
0000
0010
0101
0000
0000
1000
0000
0100
0010
0000
0001
1000
0000
0100
,
0011
0000
1000
0110
0000
1100
0000
0000
0010
0000
0000
0010
1001
0000
0000
0100
0000
0100
0010
0000
0000
0000
0000
0100
,
1001
0000
0000
0010
0000
0010
0001
0000
0000
0100
0000
0010
1001
0000
0010
0100
0000
1000
0010
0100
0010
0001
0000
0100
,
1001
0000
0010
0101
0010
1100
0000
0000
0010
0000
0000
0010
1100
0000
0000
0001
0000
0001
1000
0000
0000
0000
0000
1000
,
0110
0000
0000
1000
0000
1000
0010
0000
0100
0010
0000
1000
0101
0000
0010
0001
0000
0010
0100
0000
1000
0001
0000
0100
,
0011
0000
1100
0101
0000
0110
0000
0000
1000
0000
0000
1000
0101
0000
0000
0010
0000
0010
0100
0000
0000
0000
0000
0100
,
1010
0000
0000
0100
0000
0001
1000
0000
0000
0001
0000
0100
1001
0000
0010
0100
0000
0010
1001
0000
0110
1001
0000
0000
,
0110
0000
0000
1010
0101
0110
1001
0000
0100
0010
0000
0000
0010
0000
0000
0100
0000
0000
1010
0000
0000
0000
0000
0000
,
0001
0000
1000
0010
1000
0011
0000
0000
1000
0010
0100
0001
0010
0100
0010
1000
0010
0001
0010
1000
0001
0100
0010
1001
,
0110
0000
0000
0000
0000
0000
0000
0000
0000
0000
0000
0000
0000
0000
0000
0000
1011
0000
0000
0000
0000
0000
0000
0000
0000
0000
0000
0000
0000
0000
0000
0000
0000
0000
0000
0000
0100
0000
0000
0000
0000
0000
0010
0000
0000
0000
0000
0000
1101
0000
0000
0000
0000
0000
0000
0000
0000
0000
0000
0000
0000
0000
0000
0000
0000
0000
0000
0000
0000
0000
0000
0000
0010
0000
0000
0000
0000
0000
0000
0000
0000
0000
0000
0000
0000
0000
0000
0000
0000
0000
0000
0000
0000
0000
0000
0000
1100
0000
0000
0000
0000
0000
0000
0000
0000
0000
0000
0000
0000
0000
0000
0000
0101
0000
0000
0000
0000
0000
0000
0000
0010
0000
0000
0000
0000
0000
0000
0000
0000
0000
0000
0000
0000
0000
0000
0000
1100
0000
0000
0000
0000
0000
0000
0000
0000
0000
0000
0000
0000
0000
0000
0000
0000
0000
0000
0000
0000
0000
0000
0000
0110
0000
0000
0000
0000
0000
0000
0000
0000
0000
0000
0000
0000
0000
0000
0000
0000
0000
0000
0000
0000
0000
0000
0000
0011
0000
0000
0000
0000
0000
0000
0000
,
0000
0000
0000
0000
0000
0000
0000
0000
0000
0000
0000
0000
0000
0000
0000
0000
1101
0000
0000
0000
0000
0000
0000
0000
0000
0000
0000
0000
0000
0000
0000
0000
0000
0000
0000
0000
0000
0000
0000
0000
0110
0000
1000
0000
0000
0000
0000
0000
0000
0000
0000
0000
0000
0000
0000
0000
0000
0000
0000
0000
0000
0000
0000
0000
0000
0000
0000
0000
0000
0000
0000
0000
0001
0000
0000
0000
0000
0000
0000
0000
0000
0000
0000
0000
0000
0000
0000
0000
0010
0000
0000
0000
0000
0000
0000
0000
1100
0000
0000
0000
0000
0000
0000
0000
0000
0000
0000
0000
0000
0000
0000
0000
0000
0000
0000
0000
0000
0000
0000
0000
0010
0000
0000
0000
0000
0000
0000
0000
0000
0000
0000
0000
0000
0000
0000
0000
0100
0000
0000
0000
0000
0000
0000
0000
0010
0000
0000
0000
0000
0000
0000
0000
0000
0000
0000
0000
0000
0000
0000
0000
1000
0000
0000
0000
0000
0000
0000
0000
0000
0000
0000
0000
0000
0000
0000
0000
0000
0000
0000
0000
0000
0000
0000
0000
0010
0000
0000
0000
0000
0000
0000
0000
,
1100
0000
0001
1010
0000
0110
0000
0000
0101
0000
1000
0100
0011
0000
1010
0000
0100
0010
0001
0000
1100
0000
0010
0001
,
0010
0000
0101
0000
0000
0000
1001
0000
0000
0000
0000
1000
0011
0000
0100
0000
0000
1010
0000
0001
0100
0010
1000
0001
,
1100
0010
0001
0100
0010
1000
0100
0000
0001
1010
0000
0000
1010
0000
0100
0001
0010
1000
0110
0001
1000
0110
1000
0001
,
0010
0000
0000
1010
0000
1010
0100
0000
0000
0000
0000
0000
0000
0000
0000
0000
0000
0000
0000
0000
0000
0000
0000
0000
;
