#TITLE:LOW;
#SUBTITLE:;
#ARTIST:RAM;
#TITLETRANSLIT:;
#SUBTITLETRANSLIT:;
#ARTISTTRANSLIT:;
#CREDIT:;
#BANNER:LOW-BN.png;
#BACKGROUND:LOW-BG.png;
#LYRICSPATH:;
#CDTITLE:!cattitle.png;
#MUSIC:Low.mp3;
#OFFSET:-1.136;
#SAMPLESTART:23.790;
#SAMPLELENGTH:12.000;
#SELECTABLE:YES;
#BPMS:0.000=160.000;
#STOPS:;
#BGCHANGES:;
// cache tags:
#FIRSTBEAT:0.000;
#LASTBEAT:293.500;
#SONGFILENAME:Songs/Fresh Flock of Fantastic Files F4/(cat) LOW/Low.sm;
#HASMUSIC:1;
#HASBANNER:1;
#MUSICLENGTH:112.590;
// end cache tags

//---------------dance-single - cat*----------------
#NOTES:
     dance-single:
     cat*:
     Hard:
     11:
     0.950,0.978,1.000,0.018,0.893,614.000,133.000,2.000,0.000,0.000:
0001
0000
0010
0000
0100
0000
1000
0000
0010
0000
0100
0000
0000
0001
0000
0010
,
0100
0000
1000
0000
0001
0000
1000
0000
0100
0000
0010
0000
0000
0001
0000
0000
,
0100
0000
0010
0000
1000
0000
0001
0000
0010
0000
0100
0000
0000
1000
0000
0010
,
0100
0000
0001
0000
0010
0000
0100
0000
1000
0000
0100
0000
0000
0001
0000
0000
,
0100
1000
0010
0100
1000
0010
0100
0001
,
0010
0000
0100
0000
1000
0000
0001
0000
0100
0000
0010
0000
0000
1000
0000
0000
,
0001
0000
0100
0000
1000
0000
0100
0000
0001
0000
0010
0000
0000
0100
0000
1000
,
0010
0000
0100
0000
0001
0000
1000
0010
0100
0001
1000
0010
0100
0001
0010
0100
,
1000
0001
0010
0100
1000
0001
1010
0000
0000
0000
0110
0000
0000
0110
0000
1000
,
0010
0000
1100
0010
0000
0000
1000
0000
0000
0000
0110
0000
0000
0110
0000
1000
,
0010
0000
0100
0000
0000
0000
1010
0000
0000
0000
0110
0000
0000
0110
0000
1000
,
0010
0000
1100
0100
0000
0000
1000
0000
0000
0000
0101
0000
0000
0101
0000
1000
,
0010
0000
0100
0000
0000
0000
1010
0000
0000
0000
0110
0000
0000
0110
0000
1000
,
0010
0000
1100
0100
0000
0000
1000
0000
0000
0000
0110
0000
0000
0101
0000
1000
,
0010
0000
0100
0000
0000
0000
0101
0000
0100
0000
0110
0000
0100
0010
0000
0110
,
0000
0100
1010
0000
0000
0000
0001
0100
0010
1000
0001
0100
0010
1000
0100
0010
,
0001
1000
0100
0010
0001
1000
0101
0000
1000
0000
0010
0000
0100
0001
0000
0000
,
0100
0000
0110
0000
0000
0010
0000
0000
1000
0000
0101
0000
0000
0010
0000
0000
,
1100
0000
1000
0000
0000
0100
0010
0000
0001
0000
0010
0000
0100
1000
0000
0000
,
0010
0000
0101
0000
0000
0010
0000
0000
1000
0000
1001
0000
0000
1010
0000
0000
,
0101
0000
1000
0000
0000
0000
0101
0000
1000
0000
0100
0000
0010
0100
0000
0000
,
1000
0000
1010
0000
0000
0010
0000
0000
1000
0000
0101
0000
0000
0010
0000
0000
,
1100
0000
0001
0000
0000
0010
1000
0000
0010
0000
0100
0000
0001
0010
0000
0000
,
0100
0000
1100
0000
0000
1000
0100
0010
0001
0010
0100
1000
0010
0100
0001
0100
,
0010
1000
0100
0010
0001
1000
0101
0000
0010
0000
0100
0000
1000
0010
0000
0000
,
0100
0000
0101
0000
0000
0010
0000
0000
1000
0000
1010
0000
0000
0100
0000
0000
,
1010
0000
1000
0000
0000
1000
0001
0000
0100
0000
0010
0000
1000
0100
0000
0000
,
0001
0000
1100
0000
0000
0010
0000
0000
1000
0000
0101
0000
0000
1001
0000
0000
,
0011
0000
0100
0000
0000
0000
1010
0000
0100
0000
0001
0000
0010
0100
0000
0000
,
1000
0000
1010
0000
0000
0100
0000
0000
0001
0000
1010
0000
0000
0100
0000
0000
,
1010
0000
0100
0000
0000
0001
0000
0010
0100
0010
0100
0010
0100
0010
0100
0010
,
0100
0010
0100
0010
0100
0010
1000
0001
1000
0001
1000
0001
1000
0001
1000
0001
,
1000
0001
1000
0001
1000
0001
1010
0000
0100
0000
0010
0000
1001
0100
0000
0000
,
0100
0000
0000
1000
0010
0000
0001
0000
0010
0000
1010
0000
0000
0100
0001
0000
,
0100
0001
0000
1000
0010
0000
1100
0000
0001
0000
0010
0000
0010
0100
0000
0000
,
1000
0000
0000
0100
0010
0000
0001
0000
0010
0000
1010
0000
0000
0101
0000
0000
,
0101
0000
0000
1010
0000
0000
1010
0000
0101
0000
1000
0000
1001
0100
0000
0000
,
0100
0000
0000
1000
0010
0000
1000
0000
1000
0000
1010
0000
0000
0101
0000
0000
,
0101
0000
0000
1010
0000
0000
1001
0100
1001
0000
1000
0001
0010
0100
1000
0000
,
0101
0010
0000
1000
0010
0000
1000
0000
0000
0100
0011
0000
1000
0101
0000
1000
,
0011
0100
0000
1010
0000
0101
0010
0100
,
1000
0000
0100
0000
0010
0000
0000
1000
0100
0000
0010
0000
0000
0001
0000
0000
,
1010
0000
0100
0010
1000
0000
0000
1000
0000
0000
1010
0000
0000
0010
0100
0000
,
1010
0100
1000
0110
1000
0000
0101
0010
1000
0000
0100
0000
1010
0100
0000
0000
,
0101
0000
0000
1010
0000
0100
0001
0010
,
1000
0000
0010
0000
0001
0000
0000
1000
0100
0000
0010
0000
0000
0001
0000
0000
,
1001
0000
0100
0010
1000
0000
0000
0000
0000
0000
0000
0000
0000
0000
0000
0000
,
0000
0000
0000
0000
0000
0000
1000
0000
0100
0000
0010
0000
0001
0000
0000
0010
,
0100
0000
1000
0000
0000
0000
1010
0000
0100
0000
0011
0000
0000
1010
0000
0100
,
1010
0000
0101
0010
1000
0000
1000
0000
0100
0000
0011
0000
0000
0011
0000
0000
,
1010
0000
0100
0000
0001
0000
1010
0000
0100
0000
0011
0000
0000
0101
0000
0100
,
1010
0000
1010
0001
0010
0000
1000
0000
0100
0000
0011
0000
0000
0101
0000
0000
,
1010
0000
0100
0000
0010
0000
1010
0000
0100
0000
0011
0000
0100
0010
1000
0000
,
1010
0000
0110
0010
1000
0000
1000
0000
0100
0000
0011
0000
0000
0101
0000
0000
,
1010
0000
0100
0000
1000
0000
0101
0000
0100
0000
0011
0000
0000
0110
0000
0100
,
1010
0000
0101
0010
1000
0000
1000
0010
0100
0001
1000
0010
0100
0001
0010
0100
,
1000
0001
0010
0100
1000
0001
1010
0000
0010
0000
0100
0000
1000
0100
0000
0000
,
0001
0000
0110
0000
0000
0100
0000
0000
1000
0000
1010
0000
0000
0100
0000
0000
,
0011
0000
0100
1000
0100
1000
0010
0000
0100
0000
0010
0000
0001
0010
0000
0000
,
1000
0000
0110
0000
0000
0001
0000
0000
1000
0000
0101
0000
0000
0101
0000
0000
,
1010
0000
0100
1000
0100
1000
0101
0000
0010
0000
0100
0000
1000
0010
0000
0000
,
0100
0000
0101
0000
0000
0010
0000
0000
1000
0000
1001
0000
0000
0010
0000
0000
,
0101
0000
0100
0000
0000
0010
1000
0000
0100
0000
0001
0000
0010
0100
0000
0000
,
1000
0000
0110
0000
0000
0001
0100
0010
1000
0001
0100
0010
1000
0100
0010
0001
,
1000
0100
0010
0001
1000
0001
1010
0000
0100
0000
0010
0000
0001
1000
0000
0000
,
0100
0000
0011
0000
0000
0100
0000
0000
1000
0000
0101
0000
0000
1000
0000
0000
,
0101
0000
1000
0100
1000
0010
0101
0000
0010
0000
0100
0000
1000
0010
0000
0000
,
0100
0000
0011
0000
0000
1000
0100
0010
0100
0010
0100
0010
0100
0010
0100
0010
,
0100
0010
0100
0010
0100
0010
0101
0000
0010
0000
0100
0000
1000
0010
0000
0000
,
0100
0000
0101
0000
0000
0010
0000
0000
1000
0000
1001
0000
0000
1000
0000
0000
,
0101
0000
0001
0100
0010
1000
0101
0000
0010
0000
0100
0000
1000
0100
0000
0000
,
0010
0000
0011
0000
0000
0100
0000
1000
0010
0100
0001
0100
0010
1000
0100
0010
,
0001
0010
0100
1000
0001
0100
2002
0000
0000
0000
0000
0000
0000
0000
0000
0000
,
0000
0000
0000
3003
0000
0000
0000
0000
;
