#TITLE:Turkisk March;
#SUBTITLE:;
#ARTIST:DJ Izzy (Wolfgang Amadeus Mozart);
#TITLETRANSLIT:;
#SUBTITLETRANSLIT:;
#ARTISTTRANSLIT:;
#CREDIT:;
#BANNER:Turkey March Mini copy.png;
#BACKGROUND:Turkey March copy.png;
#LYRICSPATH:;
#CDTITLE:Izzy MiniLittle copy.png;
#MUSIC:Turkey March.mp3;
#OFFSET:0.000;
#SAMPLESTART:37.500;
#SAMPLELENGTH:12.000;
#SELECTABLE:YES;
#BPMS:0.000=160.000;
#STOPS:;
#BGCHANGES:;
// cache tags:
#FIRSTBEAT:0.000;
#LASTBEAT:445.000;
#SONGFILENAME:Songs/IzzySM Keyboard Mega Pack/Turkey March/Turkisk March.sm;
#HASMUSIC:1;
#HASBANNER:1;
#MUSICLENGTH:168.075;
// end cache tags

//---------------dance-single - ----------------
#NOTES:
     dance-single:
     :
     Hard:
     10:
     1.000,1.000,1.000,0.000,0.946,1073.000,391.000,0.000,0.000,0.000:
1000
0100
1000
0100
1000
0000
0000
0000
0001
0010
0001
0010
0001
0000
0000
0000
,
0000
0001
0010
0100
1000
0100
0010
0001
0010
0100
1000
0100
0010
0001
0000
0000
,
0011
1100
0011
1100
0011
1100
0110
1001
,
0110
1001
0101
1010
1001
0110
1001
0000
,
1000
0010
1000
0010
1000
0000
0000
0000
0001
0100
0001
0100
0001
0000
0000
0000
,
1000
0100
0010
0001
0010
0100
1000
0100
0010
0001
0010
0100
1000
0000
0000
0000
,
0101
1010
0101
1010
0101
1010
0101
1100
,
0011
1100
0011
1100
0110
1001
1001
0000
,
0110
0000
0110
0000
1001
0000
1001
0000
1000
0100
1000
0100
1000
0000
0000
0000
,
1001
0000
1001
0000
0110
0000
0110
0000
0001
0010
0001
0010
0001
0000
0000
0000
,
0011
0000
0011
0000
1100
0000
1100
0000
1000
0010
1000
0010
1000
0000
0000
0000
,
1100
0000
1100
0000
0011
0000
0011
0000
0001
0100
0001
0100
0001
0000
0000
0000
,
1000
0100
1000
0100
1000
0000
0000
0000
0001
0010
0001
0010
0001
0000
0000
0000
,
0000
0001
0010
0100
1000
0100
0010
0001
0010
0100
1000
0100
0010
0001
0000
0000
,
1100
0011
0110
1001
1100
0011
0110
1001
,
0011
0000
1100
0000
1001
0000
0000
0000
1000
0100
1000
0100
1000
0000
0000
0000
,
0011
0000
0011
0000
1100
0000
1100
0000
0001
0100
0001
0100
0001
0000
0000
0000
,
1100
0000
1100
0000
0011
0000
0011
0000
1000
0010
1000
0010
1000
0000
0000
0000
,
0101
0000
0101
0000
1010
0000
1010
0000
0001
0010
0001
0010
0001
0000
0000
0000
,
0101
0000
0101
0000
1010
0000
1010
0000
1000
0100
1000
0100
1000
0000
0000
0000
,
1000
0001
1000
0001
1000
0000
0000
0000
0001
1000
0001
1000
0001
0000
0000
0000
,
0001
0010
0100
1000
0100
0010
0001
0010
0100
1000
0100
0010
0001
0000
0000
0000
,
0011
1100
0101
1010
0110
1001
0110
1001
,
0011
0000
1100
0000
1001
0000
0000
0000
1000
0001
1000
0001
1000
0000
0000
0000
,
1100
1100
0011
0000
1100
1100
0011
0101
,
1010
0011
1100
0011
0110
1001
0110
1001
,
1100
1100
0011
0000
1100
1100
0011
0101
,
1010
0101
0011
1100
0101
0110
1001
0000
,
1100
1100
0011
0000
1100
1100
0011
1100
,
0101
1010
0110
1001
0011
1100
0110
1001
,
1100
1100
0011
0000
1100
1100
0011
1100
,
0011
0110
1001
0101
1010
0110
1001
0000
,
1000
0100
0010
0001
0010
0100
1000
0100
1000
0010
1000
0001
1000
0010
1000
0100
,
1000
0010
1000
0001
1000
0010
1000
0100
1000
0100
0010
0001
0010
0100
1000
0100
,
0010
0001
0010
0001
0100
0010
1000
0001
0010
0100
1000
0001
0010
0001
0100
0010
,
1000
0001
0100
0001
0010
1000
0100
1000
0010
1000
0001
0010
0100
1000
0000
0000
,
0001
0010
0100
1000
0100
0010
0001
0010
0100
1000
0001
0010
0001
0100
0010
1000
,
0100
1000
0010
1000
0100
0001
0010
1000
0100
1000
0001
0010
0100
1000
0100
0010
,
1000
0001
0100
0010
1000
0001
0010
1000
0100
0001
0010
1000
0001
1000
0010
1000
,
0100
1000
0010
1000
0001
1000
0010
1000
0100
1000
0010
1000
0001
1000
0000
0000
,
0001
0010
0100
1000
0001
0010
0100
1000
0001
0010
0100
1000
0001
0010
0100
1000
,
0010
1000
0100
1000
0010
1000
0001
1000
0010
1000
0100
0000
1001
0000
1001
0000
,
0001
0010
0100
1000
0100
1000
0010
1000
0001
1000
0010
1000
0100
1000
0010
1000
,
0001
1000
0010
1000
0100
1000
0010
1000
0001
1000
0010
1000
0100
1000
0000
0000
,
1000
0100
0010
0001
0010
0100
1000
0001
1000
0001
1000
0001
1000
0001
1000
0001
,
1000
0001
1000
0001
1000
0001
1000
0100
1000
0100
1000
0100
1000
0100
1000
0010
,
1000
0010
1000
0010
1000
0100
0001
0100
0001
0100
0001
0100
0001
0100
0001
0100
,
0001
0100
0010
1000
0010
1000
0010
1000
0100
0001
0010
0100
1000
0000
0000
0000
,
0001
0010
0100
1000
0001
0010
0100
1000
0001
0010
0100
1000
0100
1000
0100
1000
,
0010
1000
0001
1000
0010
1000
0100
1000
0010
1000
0000
0000
0101
0000
0101
0000
,
0001
0010
0100
1000
0001
0010
0100
1000
0001
0010
0100
1000
0001
0010
0100
1000
,
0001
0010
0100
1000
0001
0010
0100
1000
0001
0010
0100
1000
0100
1000
0000
0000
,
1000
0100
0010
0001
0010
0100
1000
0100
1000
0010
1000
0001
1000
0010
1000
0100
,
1000
0010
1000
0001
1000
0010
1000
0100
1000
0010
1000
0001
0010
0001
0010
0001
,
0010
0001
0010
0001
0010
0100
1000
0100
1000
0100
1000
0100
1000
0100
1000
0100
,
1000
0100
0010
0001
0010
0001
0010
0100
1000
0001
0010
0100
1000
0000
0000
0000
,
1100
1100
0011
0000
1100
1100
0011
1100
,
0011
0101
1010
0101
0110
1010
0110
1001
,
1100
1100
0011
0000
1100
1100
0011
0101
,
1010
1100
0011
1010
0101
0110
1001
0000
,
1100
1100
0011
0000
1100
1100
0011
1100
,
0011
1100
0101
1010
0110
1001
0110
1001
,
1100
1100
0011
0000
1100
1100
0011
0101
,
1010
0011
1100
0110
1001
0110
1001
0000
,
1000
0100
1000
0100
1000
0000
0000
0000
0001
0010
0001
0010
0001
0000
0000
0000
,
0001
0010
0100
1000
0100
0010
0001
0010
0100
1000
0100
0010
0001
0000
0000
0000
,
1001
0110
0011
1100
0110
0101
1010
0110
,
1001
0011
1100
0101
1010
0110
1001
0000
,
1000
0100
1000
0100
1000
0000
0000
0000
0001
0010
0001
0010
0001
0000
0000
0000
,
0001
0010
0100
1000
0100
0010
0001
0010
0100
1000
0100
0010
0001
0000
0000
0000
,
0011
1100
0110
1001
1010
0101
1001
1100
,
0011
0110
1001
1100
0011
0110
1001
0000
,
0101
0000
0101
0000
1010
0000
1010
0000
1000
0001
1000
0001
1000
0000
0000
0000
,
1010
0000
1010
0000
0101
0000
0101
0000
0001
1000
0001
1000
0001
0000
0000
0000
,
0110
0000
0110
0000
1001
0000
1001
0000
1000
0100
1000
0100
1000
0000
0000
0000
,
1001
0000
1001
0000
0110
0000
0110
0000
0001
0010
0001
0010
0001
0000
0000
0000
,
1000
0100
1000
0100
1000
0000
0000
0000
0001
0010
0001
0010
0001
0000
0000
0000
,
0001
0010
0100
1000
0100
0010
0001
0010
0100
1000
0100
0010
0001
0000
0000
0000
,
0110
1001
1100
0011
0110
1010
0101
0110
,
1001
0000
0110
0000
1001
0000
0000
0000
1000
0100
1000
0100
1000
0000
0000
0000
,
1100
0000
1100
0000
0011
0000
0011
0000
0001
0100
0001
0100
0001
0000
0000
0000
,
0011
0000
0011
0000
1100
0000
1100
0000
1000
0100
1000
0100
1000
0000
0000
0000
,
1010
0000
1010
0000
0101
0000
0101
0000
0001
1000
0001
1000
0001
0000
0000
0000
,
0101
0000
0101
0000
1010
0000
1010
0000
1000
0001
1000
0001
1000
0000
0000
0000
,
1000
0100
1000
0100
1000
0000
0000
0000
0001
0010
0001
0010
0001
0000
0000
0000
,
0001
0010
0100
1000
0100
0010
0001
0010
0100
1000
0100
0010
0001
0000
0000
0000
,
1100
0011
0110
1001
0110
1010
0101
0110
,
1001
0000
0110
0000
1001
0000
0000
0000
1000
0001
1000
0001
1000
0000
0000
0000
,
1100
1100
0011
0000
1100
1100
0011
1100
,
0101
1010
0110
1001
0011
1100
0110
1001
,
1100
1100
0011
0000
1100
1100
0011
1100
,
0110
0101
1010
0110
1001
0110
1001
0000
,
1100
1100
0011
0000
1100
1100
0011
0101
,
1010
0110
1001
0110
1100
0011
0110
1001
,
1100
1100
0011
0000
1100
1100
0011
0101
,
1010
0011
1100
0110
1001
0110
1001
0000
,
1100
0000
0000
1100
0011
0000
0000
0000
0000
0000
0000
0000
0011
0000
0000
0000
,
0000
0000
0000
0000
1000
0010
1000
0010
1000
0010
1000
0010
1000
0000
0000
0000
,
0000
0000
0011
0011
0011
0011
0011
0000
,
0000
1100
0011
0000
0000
0000
0011
0000
,
0000
0000
0000
0000
0001
0100
0001
0100
0001
0100
0001
0100
0001
0000
0000
0000
,
0000
0000
0110
0000
0000
0000
1100
1100
,
1100
0000
0000
0000
0000
0000
0000
0000
1100
0000
0000
0000
0000
0000
0000
0000
1100
0000
0000
0000
0000
0000
0000
0000
0000
0000
0000
0000
0000
0000
0000
0000
1000
0000
0000
0000
0000
0000
0000
0000
0000
0000
0000
0000
0000
0000
0000
0000
0001
0000
0000
0010
0000
0000
0000
0000
0000
0000
0000
0000
0000
0000
0000
0000
,
0000
0000
0000
0000
1001
0000
0000
0000
0000
0000
0000
0000
1000
0001
1000
0001
,
1000
0001
1000
0001
1000
0000
0000
0000
0000
0000
0000
0000
0110
0000
0110
0000
,
0110
0110
1001
0000
0000
0110
1001
0000
,
0000
0000
0000
0000
1001
0000
0000
0000
0000
0000
0000
0000
0001
1000
0001
1000
,
0001
1000
0001
1000
0001
0000
0000
0000
0000
0000
0000
0000
0110
0000
0000
0000
,
0000
0000
1001
1001
1001
1001
0110
0000
,
0000
1100
0011
0000
0000
1100
0011
0000
,
0000
1100
0011
1010
0101
0110
1001
0000
,
1001
1001
0000
0000
;
