#TITLE:Bitter Sweet Symphony;
#SUBTITLE:;
#ARTIST:The Verve;
#TITLETRANSLIT:;
#SUBTITLETRANSLIT:;
#ARTISTTRANSLIT:;
#CREDIT:Arch0wl;
#BANNER:bittersweetsymphony-bn.png;
#BACKGROUND:bittersweetsymphony-bg.png;
#LYRICSPATH:;
#CDTITLE:!arch0wltitle.png;
#MUSIC:bittersweetsymphony.ogg;
#OFFSET:0.325;
#SAMPLESTART:45.964;
#SAMPLELENGTH:22.456;
#SELECTABLE:YES;
#BPMS:0.000=85.500;
#STOPS:;
#BGCHANGES:0.000=bittersweetsymphony-bg.png=1.000=0=0=1,
99999=-nosongbg-=1.000=0=0=0 // don't automatically add -songbackground-
;
// cache tags:
#FIRSTBEAT:2.000;
#LASTBEAT:192.500;
#SONGFILENAME:Songs/Archmage and Dark0wl Hammer of Thor UltraHyperMegaPack/Bitter Sweet Symphony/bittersweetsymphony.sm;
#HASMUSIC:1;
#HASBANNER:1;
#MUSICLENGTH:105.000;
// end cache tags

//---------------dance-single - Arch0wl----------------
#NOTES:
     dance-single:
     Arch0wl:
     Medium:
     8:
     0.676,0.731,1.000,0.038,0.000,335.000,158.000,4.000,0.000,0.000:
0000
0000
2000
0000
,
3020
0000
0000
0000
,
0000
0000
0230
0000
,
0302
0000
0000
0000
,
0000
0000
0000
0000
1003
0100
1000
0100
,
0010
0100
1000
0000
0001
0010
0100
0000
,
0010
0100
1000
0000
0001
0100
0001
0100
,
0010
1000
0100
0000
0010
0001
1000
0000
,
0001
1000
0010
0000
0010
1000
0010
1000
,
0001
0100
1000
0000
0001
0010
0100
0000
,
0010
1000
0100
0000
0010
0001
0010
0001
,
0100
0010
1000
0000
0001
0010
1000
0000
,
0001
0100
1000
0000
0010
0100
0010
0100
,
0001
1000
0010
0000
0100
0010
1000
0000
,
0100
0010
0001
0000
1000
0100
1000
0100
,
0010
0001
1000
0000
0010
0100
1000
0000
,
0100
0010
1000
0000
1100
0011
1100
0011
,
1100
0110
0011
0100
1001
0110
1010
0001
,
0110
0101
0011
1000
0101
1010
0101
1010
,
0110
0101
0011
0100
1001
1100
0011
0100
,
1010
0110
1001
0100
0110
0011
0110
0011
,
1001
0101
0110
0001
1010
0110
0101
1000
,
0011
0110
1100
0010
1001
0110
1001
0110
,
1010
1100
0110
1000
0101
0110
0011
1000
,
0110
1010
0110
1010
0110
0110
0001
0110
,
1000
0100
0100
0010
0011
0011
0100
1001
,
0100
0011
0100
1001
0100
1001
0100
0001
,
0010
0100
0100
1000
0100
0010
0001
0100
,
0010
0101
0110
1100
0010
0101
0010
0101
,
0010
1100
1100
0110
0001
0110
0001
1010
,
0101
0011
0110
1100
0001
1100
0001
0010
,
0100
0010
0010
0001
1000
0100
0010
0100
,
1000
1001
1010
1010
0110
0001
0110
0001
,
0110
0001
0110
0001
1010
0001
1010
0001
,
1010
1010
0001
1100
0001
1100
0001
0100
,
0010
1000
0100
0010
0001
0100
0010
1000
,
0100
0011
1001
0101
0110
1000
0110
1000
,
0110
0110
0101
0101
0011
0110
0011
1001
,
0100
1001
0100
1001
0100
0011
0100
0010
,
0001
1000
0100
0010
0001
0100
0010
1000
,
0100
0011
0011
0110
1100
0101
0110
1100
,
0101
0110
1100
0101
0010
1100
0101
0110
,
1000
0011
0110
1100
0001
1100
0110
0011
,
0100
0011
0110
1100
0001
1100
0110
0011
,
1000
0011
0110
1100
1010
0101
1010
0101
,
1010
0101
1010
0110
0001
0110
1100
0110
,
0011
0110
1100
0110
0001
1010
1010
0001
,
0110
0110
0001
0110
0001
0110
0001
0110
,
1001
0000
0000
0000
;

//---------------dance-single - Arch0wl----------------
#NOTES:
     dance-single:
     Arch0wl:
     Hard:
     9:
     0.967,1.000,1.000,1.000,0.133,368.000,221.000,122.000,0.000,13.000:
0000
0000
2002
0000
,
3223
0000
0302
0000
,
2003
0000
3232
0000
,
0323
0000
2000
0000
,
3200
0000
0000
0000
1332
0100
1000
0100
,
0023
0100
1000
0000
2031
0010
0100
0000
,
3012
0100
1000
0000
2103
0010
0100
0010
,
3201
1000
0010
0000
0312
1000
0100
0000
,
2013
0001
0100
0000
3010
1000
0010
1000
,
0001
0100
1000
0000
0001
0010
0100
0000
,
0010
1000
0100
0000
0010
0001
0010
0001
,
0100
0010
1000
0000
0001
0010
1000
0000
,
0001
0100
1000
0000
0010
0100
0010
0100
,
0001
1000
0010
0000
0100
0010
1000
0000
,
0100
0010
0001
0000
1000
0100
1000
0100
,
0010
0001
1000
0000
0010
0100
1000
0000
,
0100
0000
0000
0000
0000
0000
0001
0000
0100
0000
1000
0000
0001
0000
0010
0000
1000
0000
0001
0000
0010
0000
0100
0000
1100
0000
0000
0000
0000
0000
0011
0000
0000
0000
0000
0000
1100
0000
0000
0000
0000
0000
0011
0000
0000
0100
0000
0000
,
1100
0000
0110
0000
0011
0000
0101
0000
1001
0000
0110
0000
1010
0000
0101
0010
,
0110
0000
0101
0000
0011
0000
1001
0000
0101
0000
1010
0000
0101
0000
1010
0100
,
0110
0000
0101
0000
0011
0000
0101
0000
1001
0000
1100
0000
0011
0000
0101
0010
,
1010
0000
0110
0000
1001
0000
1100
0000
0110
0000
0011
0000
0110
0000
0011
1000
,
1001
0000
0101
0000
0110
0000
0101
0000
1010
0000
0110
0000
0101
0000
1010
0001
,
0011
0000
0110
0000
1100
0000
1010
0000
1001
0000
0110
0000
1001
0000
0110
1000
,
1010
0000
1100
0000
0110
0000
1001
0000
0101
0000
0110
0000
0011
0000
1010
0100
,
0110
0000
1010
0000
0110
0000
1010
0000
0110
0000
0110
0000
1001
0000
0110
1000
,
1001
0000
0100
0000
0100
0000
0010
0000
0011
0000
0011
0000
0100
0000
1001
0100
,
0100
0000
0011
0000
0100
0000
1001
0000
0100
0000
1001
0000
0100
0000
0001
0010
,
0010
0000
0100
0000
0100
0000
1000
0000
0100
0000
0010
0000
0001
0000
0100
0010
,
0010
0000
0101
0000
0110
0000
1100
0000
0010
0000
0101
0000
0010
0000
0101
0010
,
0010
0000
1100
0000
1100
0000
0110
0000
0001
0000
0110
0000
0001
0000
1010
0001
,
0101
0000
0011
0000
0110
0000
1100
0000
0001
0000
1100
0000
0001
0000
0010
0100
,
0100
0000
0010
0000
0010
0000
0001
0000
1000
0000
0100
0000
0010
0000
0100
1000
,
1000
0000
0000
0000
1001
0000
0000
0000
1010
0000
0000
0000
1010
0000
0000
0000
0120
0000
0000
0030
0102
0000
0000
0003
0120
0000
0000
0030
0102
0000
0000
0003
,
0210
0000
0000
0300
0102
0000
0000
0003
0120
0000
0000
0030
0001
0000
0000
0000
2010
0000
0000
3000
1002
0000
0000
0003
1020
0000
0000
0030
0001
0000
0000
0000
,
2010
0000
0000
3000
1020
0000
0000
0030
0102
0000
0000
0003
1100
0000
0000
0000
0120
0000
0000
0030
1200
0000
0000
0300
0120
0000
0000
0030
1200
0000
0000
0300
,
1002
0000
0000
0003
2010
0000
0000
3000
0120
0000
0000
0030
0010
0000
0000
0000
1002
0000
0000
0003
1200
0000
0000
0300
0120
0000
0000
0030
1000
0000
0000
0000
,
0201
0000
0000
0300
0021
0000
0000
0030
2001
0000
0000
3000
0101
0000
0000
0000
0210
0000
0000
0300
2010
0000
0000
3000
0210
0000
0000
0300
2010
0000
0000
3000
,
0120
0000
0000
0030
0210
0000
0000
0300
0102
0000
0000
0003
0101
0000
0000
0000
0012
0000
0000
0003
0210
0000
0000
0300
0021
0000
0000
0030
1001
0000
0000
0000
,
0120
0000
0000
0030
2001
0000
0000
3000
0201
0000
0000
0300
1001
0000
0000
0000
0120
0000
0000
0030
0012
0000
0000
0003
0120
0000
0000
0030
0012
0000
0000
0003
,
2001
0000
0000
3000
1200
0000
0000
0300
0120
0000
0000
0030
0010
0000
0000
0000
1002
0000
0000
0003
0210
0000
0000
0300
2010
0000
0000
3000
1000
0000
0000
0000
,
0210
0000
0000
0000
0000
0000
0000
0000
0000
0000
0000
0000
0000
0000
0000
0000
0000
0000
0300
0000
0000
0000
0000
0000
0021
0000
0000
0000
0000
0000
0000
0000
0001
0000
0000
0000
0000
0000
0000
0000
0100
0000
0030
0000
0000
0000
0000
0000
0012
0000
0000
0000
0000
0000
0000
0000
0010
0000
0000
0000
0000
0000
0000
0000
1000
0000
0003
0000
0000
0000
0000
0000
0110
0000
0000
0000
0000
0000
0000
0000
0010
0000
0000
0000
0000
0000
0000
0000
1000
0000
0000
0000
0000
0000
0000
0000
1200
0000
0000
0000
0000
0000
0000
0000
0000
0000
0000
0000
0000
0000
0000
0000
0000
0000
0300
0000
0000
0000
0000
0000
0102
0000
0000
0000
0000
0000
0000
0000
0000
0000
0000
0000
0000
0000
0000
0000
0000
0000
0003
0000
0000
0000
0000
0000
0210
0000
0000
0000
0000
0000
0000
0000
0000
0000
0000
0000
0000
0000
0000
0000
0000
0000
0300
0000
0000
0000
0000
0000
2100
0000
0000
0000
0000
0000
0000
0000
0000
0000
0000
0000
0000
0000
0000
0000
0000
0000
3000
0000
0000
0000
0000
0000
,
0102
0000
0000
0003
0120
0000
0000
0030
2100
0000
0000
3000
0101
0000
0000
0000
0012
0000
0000
0003
2100
0000
0000
3000
0102
0000
0000
0003
0110
0000
0000
0000
,
2001
0000
0000
3000
0012
0000
0000
0003
0120
0000
0000
0030
1100
0000
0000
0000
0012
0000
0000
0003
2100
0000
0000
3000
0120
0000
0000
0030
0012
0000
0000
0003
,
2100
0000
0000
3000
0021
0000
0000
0030
0210
0000
0000
0300
1100
0000
0000
0000
0012
0000
0000
0003
2100
0000
0000
3000
0120
0000
0000
0030
0011
0000
0000
0000
,
2100
0000
0000
3000
0021
0000
0000
0030
0210
0000
0000
0300
1100
0000
0000
0000
1020
0000
0000
0030
0201
0000
0000
0300
1020
0000
0000
0030
0201
0000
0000
0300
,
2010
0000
0000
3000
0102
0000
0000
0003
1020
0000
0000
0030
0110
0000
0000
0000
1002
0000
0000
0003
0120
0000
0000
0030
2100
0000
0000
3000
0110
0000
0000
0000
,
0021
0000
0000
0030
0210
0000
0000
0300
2100
0000
0000
3000
0110
0000
0000
0000
0201
0000
0000
0300
1020
0000
0000
0030
2010
0000
0000
3000
0201
0000
0000
0300
,
0120
0000
0000
0030
0210
0000
0000
0300
2001
0000
0000
3000
0010
0000
0000
0000
0102
0000
0000
0003
0210
0000
0000
0300
0021
0000
0000
0030
0110
0000
0000
0000
,
2002
3003
0000
0000
0000
0000
0000
0000
;
