#TITLE:Tornado;
#SUBTITLE:;
#ARTIST:Rhapsody Of Fire;
#TITLETRANSLIT:;
#SUBTITLETRANSLIT:;
#ARTISTTRANSLIT:;
#CREDIT:;
#BANNER:../Banner.png;
#BACKGROUND:../BG.png;
#LYRICSPATH:;
#CDTITLE:../CDTitleKIRBY.png;
#MUSIC:Rhapsody Of Fire - Tornado.ogg;
#OFFSET:-2.884;
#SAMPLESTART:145.690;
#SAMPLELENGTH:24.000;
#SELECTABLE:YES;
#BPMS:0.000=200.000,624.000=199.985,625.000=200.000,634.000=200.015,635.000=200.000,951.000=199.985,952.000=200.000;
#STOPS:;
#BGCHANGES:;
// cache tags:
#FIRSTBEAT:0.000;
#LASTBEAT:962.000;
#SONGFILENAME:Songs/Index Tesseract/Tornado - [Kirby5464]/Tornado.sm;
#HASMUSIC:1;
#HASBANNER:1;
#MUSICLENGTH:295.183;
// end cache tags

//---------------dance-single - ----------------
#NOTES:
     dance-single:
     :
     Challenge:
     19:
     1.000,1.000,0.014,0.200,1.000,2823.000,4.000,59.000,0.000,1.000:
1000
0010
0100
0001
1000
0000
0001
0000
,
1000
0100
0010
0001
1000
0000
0010
0000
,
1000
0001
0010
0100
1000
0001
0100
0010
,
1000
0001
1000
0010
0100
0000
0010
0000
,
1000
0001
0100
0001
1000
0000
0001
0000
,
1000
0100
0010
0001
1000
0100
1000
0001
,
0100
0010
1000
0100
0010
0001
1000
0100
,
0010
0100
1000
0001
0100
0001
0010
0100
,
1000
0000
0001
0000
,
0100
0000
0010
1000
,
0100
0010
0001
1000
,
0010
0100
0001
0010
0100
1000
0001
0010
0001
1000
0010
1000
0100
0010
0001
1000
,
0020
0000
0000
0000
0000
0000
0000
0000
0000
0000
0000
0000
0000
0000
0000
0030
0240
0000
0000
0000
0000
0000
0000
0000
0000
0000
0000
0000
0000
0000
0000
0000
,
0000
0000
0330
0000
,
0000
0000
0000
0000
,
0000
0000
0000
0000
,
2000
0000
0000
0000
0000
0000
0000
0000
0000
0000
0000
0000
0000
0000
0000
3000
4002
0000
0000
0000
0000
0000
0000
0000
0000
0000
0000
0000
0000
0000
0000
0000
,
0000
0000
3003
0000
,
0000
0000
0000
0000
,
0000
0000
0000
0000
,
0001
0010
0100
1000
0001
0010
0001
1000
,
0100
1000
0001
0010
0100
0010
0001
1000
,
0010
1000
0100
0010
0001
1000
0010
0100
,
0001
0010
0100
1000
0001
0100
0010
1000
,
0100
1000
0001
0100
0001
0010
0100
1000
,
0001
0100
0010
1000
0100
1000
0001
0100
,
0001
0010
0100
1000
0001
0100
0010
1000
,
0100
0010
0100
1000
0001
0010
0001
1000
,
0010
1000
0100
0010
0001
1000
0010
0100
,
0001
0010
0100
0010
0001
1000
0100
1000
,
0001
0010
0001
1000
0010
0100
0010
1000
,
0001
0000
0100
0000
0010
1000
0100
0010
0001
1000
0100
0010
0100
1000
0001
0100
,
0001
1000
0100
0010
0100
1000
0001
0010
0001
1000
0100
1000
0010
0100
0010
1000
,
0001
0010
0100
1000
0001
0010
0100
0010
0001
1000
0100
1000
0001
0100
0010
1000
,
0100
0010
0100
1000
0001
0010
0001
1000
0010
1000
0100
0010
0001
0100
0010
1000
,
0001
0010
0100
1000
0001
0100
0010
1000
0100
0010
0001
1000
0010
0100
0001
0010
,
0100
1000
0001
0010
0001
1000
0010
1000
0100
0010
0001
1000
0100
0010
0100
1000
,
0001
0100
0001
0010
0100
1000
0010
0100
0010
1000
0100
1000
0001
0010
0001
1000
,
0010
1000
0100
0010
0001
1000
0010
0100
0001
0010
0100
0010
0001
1000
0100
1000
,
0001
0100
0010
1000
0100
0010
0001
0100
0020
0000
0000
0000
0000
0000
0000
0000
,
1030
0001
0010
0100
1000
0001
0010
0001
1000
0010
1000
0100
0010
0001
1000
0100
,
0010
0100
1000
0001
0010
0001
1000
0010
0100
0001
1000
0001
0010
0100
1000
0010
,
0100
0010
1000
0100
1000
0001
0010
0001
1000
0100
0010
0001
1000
0010
0100
0001
,
0010
0100
0010
0001
1000
0010
1000
0001
0200
0000
0000
0000
0000
0000
0000
0000
,
0301
0010
0100
1000
0001
0010
0001
1000
0100
1000
0001
0010
0100
0010
0001
1000
,
0010
1000
0100
0010
0001
1000
0010
0100
0001
1000
0001
0100
0010
1000
0100
0010
,
0100
1000
0001
0010
0001
1000
0100
1000
0010
0100
0010
1000
0001
0100
0010
1000
,
0100
0010
0001
1000
0100
0010
0100
1000
0002
0000
0000
0000
0000
0000
0000
0000
,
1003
0100
0010
0001
1000
0100
1000
0001
0010
0001
1000
0100
0010
0100
1000
0001
,
0100
0001
0010
0100
1000
0001
0100
0010
1000
0001
1000
0010
0100
0001
0010
0100
,
0010
0001
1000
0100
1000
0001
0010
0001
0100
0010
0100
0001
1000
0010
0100
0001
,
0010
0100
1000
0001
0010
0100
0010
0001
1000
0010
0100
0001
1000
0100
1000
0001
,
0010
0001
1000
0010
1000
0001
0100
0001
1000
0010
0100
0001
0010
0100
1000
0001
,
0100
0001
0010
0100
1000
0010
0100
0010
1000
0100
1000
0001
0010
0001
1000
0100
,
0010
0001
1000
0010
0100
0001
0010
0100
0010
0001
1000
0010
1000
0001
0010
0100
,
1000
0001
0100
0010
1000
0100
1000
0001
0100
0001
1000
0001
,
0200
0320
2030
3200
,
0320
0032
2003
0000
,
3002
0000
0003
0000
0000
0000
0000
0000
0000
0000
0000
0000
1000
0001
1000
0000
,
0010
0100
0001
0010
0100
1000
0001
0010
,
0001
1000
0100
1000
0001
0010
0100
0010
,
0001
1000
0010
1000
0100
0010
0001
1000
,
0010
0100
0001
1000
0001
0010
0100
1000
,
0001
0100
0010
1000
0100
0010
0100
1000
,
0001
0100
0010
1000
0002
0000
2003
0000
,
3004
0100
0000
1000
0000
0100
0000
1000
,
0000
0100
0000
1000
0000
0100
0000
1000
,
0003
0100
0010
1000
0100
0010
0001
1000
,
0010
0100
0001
0010
0001
1000
0100
1000
,
0001
0010
0100
0010
0001
1000
0100
1000
,
0001
0000
0100
0000
0010
1000
0001
0010
0100
1000
0001
0010
0001
1000
0010
0100
,
0010
1000
0100
0010
0001
1000
0100
1000
0001
0100
0001
0010
0100
1000
0010
0100
,
0010
1000
0100
1000
0001
0010
0001
1000
0100
0010
0100
1000
0001
0100
0001
0010
,
0100
1000
0010
0100
0010
1000
0100
1000
0001
0010
0001
1000
0100
0010
0001
1000
,
0010
0100
0001
0010
0100
1000
0001
0100
0010
1000
0100
0010
0001
1000
0010
0100
,
0001
1000
0001
0010
0100
1000
0010
0100
0010
1000
0100
1000
0001
0010
0001
1000
,
0100
0010
0001
1000
0010
0100
0001
0010
0100
0010
0001
1000
0010
1000
0001
0010
,
0100
1000
0001
0010
0001
1000
0010
0100
0010
1000
0100
0010
0001
1000
0100
1000
,
0001
0100
0001
0010
0100
1000
0010
0100
0020
0000
0000
0000
0000
0000
0000
0000
,
1030
0100
0010
0001
1000
0010
1000
0100
0010
0001
0100
0010
0100
0001
0010
0001
,
1000
0100
1000
0001
0010
0100
1000
0001
0100
0010
1000
0100
0010
0001
1000
0010
,
0100
0001
0010
0100
1000
0001
0100
0010
1000
0001
1000
0100
0010
0001
0100
0010
,
0100
0001
0010
0001
1000
0100
1000
0001
0200
0000
0000
0000
0000
0000
0000
0000
,
0301
0100
0010
1000
0100
1000
0001
0010
0100
1000
0001
0010
0001
1000
0010
0100
,
0010
1000
0100
0010
0001
1000
0100
1000
0001
0100
0001
0010
0100
1000
0010
0100
,
0010
1000
0100
1000
0001
0010
0001
1000
0100
0010
0100
1000
0001
0100
0001
0010
,
0100
1000
0010
0100
0010
1000
0100
1000
0002
0000
0000
0000
0000
0000
0000
0000
,
1003
0010
1000
0100
0010
0001
1000
0010
0100
0001
0010
0100
1000
0001
0100
0010
,
1000
0001
1000
0100
0010
0001
0100
0010
0100
0001
0010
0001
1000
0100
1000
0001
,
0010
0100
1000
0001
0100
0010
1000
0100
0010
0100
1000
0001
0100
0001
1000
0100
,
0010
0001
1000
0100
1000
0001
0100
0010
0100
0001
0010
0100
1000
0001
0010
0001
,
1000
0010
1000
0100
0010
0001
0100
0010
0100
0001
0010
0001
1000
0100
1000
0001
,
0010
0100
0010
0001
1000
0010
1000
0100
0010
0001
0100
0010
0100
0001
0010
0001
,
1000
0010
0100
0001
0010
0100
1000
0001
0010
0100
0010
0001
1000
0100
1000
0001
,
0100
0010
1000
0100
0010
0001
1000
0010
0100
0001
1000
0001
,
0200
0302
0023
0230
,
2300
3002
0203
0000
,
0320
0000
0000
0000
0030
0000
0000
0000
0000
0000
0000
0000
0000
0000
0000
2000
0000
0000
0000
0000
0000
0000
0000
0000
0000
0000
0000
0000
0000
0000
0000
0000
,
3002
0000
0000
2003
,
3001
0010
0100
1000
0001
0100
0010
1000
0001
0010
0100
0010
0001
1000
0100
1000
,
0001
0100
0010
1000
0100
0010
0100
1000
0001
0010
0001
1000
0010
1000
0100
0010
,
0001
1000
0100
1000
0001
0010
0100
1000
0001
0100
0001
1000
0100
0010
0001
1000
,
0010
0100
0001
0010
0100
1000
0001
0010
0001
1000
0010
1000
0100
0010
0001
1000
,
0100
0010
0100
1000
0001
0100
0001
0010
0100
1000
0010
0100
0010
1000
0100
1000
,
0001
0010
0001
1000
0010
1000
0100
0010
0001
1000
0010
0100
0001
0010
0100
0010
,
0001
1000
0100
1000
0001
0100
0010
1000
0100
0010
0001
0100
0010
1000
0001
0100
,
0001
0010
0100
1000
0001
0100
0010
1000
0100
0010
0001
1000
0010
0100
0001
1000
,
0001
0010
0100
1000
0010
0100
0010
1000
0100
1000
0001
0010
0001
1000
0100
0010
,
0001
1000
0010
0100
0001
0010
0100
0010
0001
1000
0010
1000
0001
0010
0100
1000
,
0001
0010
0001
1000
0010
0100
0010
1000
0100
0010
0001
1000
0100
1000
0001
0100
,
0001
0010
0100
1000
0010
0100
0010
1000
0100
1000
0001
0010
0001
1000
0100
0010
,
0100
1000
0001
0100
0001
0010
0100
1000
0010
0100
0010
1000
0100
1000
0001
0100
,
0010
1000
0100
0010
0001
1000
0100
0010
0100
1000
0001
0010
0001
1000
0100
0010
,
0001
1000
0010
0100
0001
0010
0100
0010
0001
1000
0100
1000
0010
0100
0010
1000
,
0001
0010
0100
1000
0001
0010
0001
1000
0010
0100
0001
1000
0001
0100
0010
1000
,
0001
0010
0001
1000
0010
1000
0100
0010
,
0001
1000
0100
0010
0100
1000
0001
0100
,
0001
0010
0100
1000
0010
0100
0010
1000
,
0001
0010
0100
1000
0001
0100
0010
1000
0100
0010
0001
1000
0010
0100
0001
1000
,
0001
0010
0100
1000
0010
0100
0010
1000
0100
1000
0001
0010
0001
1000
0100
0010
,
0001
1000
0010
0100
0001
0010
0100
0010
0001
1000
0010
1000
0001
0010
0100
1000
,
0001
0010
0001
1000
0010
0100
0010
1000
0100
0010
0001
1000
0100
1000
0001
0100
,
0001
0010
0100
1000
0010
0100
0010
1000
0100
1000
0001
0010
0001
1000
0100
0010
,
0100
1000
0001
0100
0001
0010
0100
1000
0010
0100
0010
1000
0100
1000
0001
0100
,
0010
1000
0100
0010
0001
1000
0100
0010
0100
1000
0001
0010
0100
1000
0001
0100
,
0010
1000
0001
0010
0001
1000
0010
0100
0010
1000
0100
0010
0001
1000
0100
1000
,
0001
0100
0001
0010
0100
1000
0010
0100
0010
1000
0100
1000
0001
0010
0001
1000
,
0100
0010
0100
1000
0001
0100
0001
0010
0100
1000
0010
0100
0010
1000
0100
1000
,
0001
0010
0001
1000
0100
0010
0001
1000
0010
0100
0001
0010
0100
1000
0001
0100
,
0010
1000
0100
0010
0001
1000
0010
0100
0001
1000
0001
0010
0100
1000
0010
0100
,
0010
1000
0100
1000
0001
0010
0001
1000
0100
0010
0001
1000
0010
0100
0001
0010
,
0100
0010
0001
1000
0010
1000
0001
0010
0100
1000
0001
0010
0001
1000
0010
0100
,
0010
1000
0100
0010
0001
1000
0100
1000
0001
0100
0001
0010
0100
1000
0010
0100
,
0001
0010
0100
1000
0001
0010
0001
1000
0010
0100
0010
1000
0100
0010
0001
1000
,
0100
1000
0001
0100
0001
0010
0100
1000
0010
0100
0010
1000
0100
1000
0001
0010
,
0001
1000
0010
0100
0001
1000
0100
0010
,
0001
1000
0100
1000
0001
0100
0001
0010
,
0100
1000
0001
0100
0010
1000
0100
0010
,
0001
1000
0010
0100
0001
1000
0001
0100
0010
1000
0100
0010
0001
1000
0100
1000
,
0002
0000
0000
0003
0000
0000
0000
0000
0000
0000
0000
0000
1000
0000
0100
0000
0010
0000
0001
0000
1000
0000
0010
0000
0100
0000
0000
0000
0000
0000
0000
0000
0000
0000
0000
0000
0001
0000
1000
0000
0001
0000
0100
0000
0010
0000
1000
0000
,
0001
0000
0000
0000
0000
0000
1000
0010
0100
0001
0010
0100
1000
0000
0000
0000
0000
0000
0001
0010
0001
1000
0010
0100
,
0001
0000
0000
0000
0000
0000
1000
0100
1000
0001
0100
0010
1000
0000
0000
0000
0000
0000
0001
1000
0001
0100
0010
1000
,
0001
0000
0000
0000
0000
0000
1000
0100
0010
0001
1000
0010
0100
0000
0000
0000
0000
0000
0001
1000
0001
0010
0100
1000
,
0001
0000
0000
0000
0000
0000
1000
0010
0100
0001
0010
0001
1000
0000
0000
0000
0000
0000
0001
1000
0100
0010
0001
1000
,
0010
0000
0000
0000
0000
0000
1000
0010
1000
0100
0010
0001
1000
0000
0000
0000
0000
0000
0001
0010
0100
1000
0001
0100
,
0010
1000
0100
0010
0001
1000
0010
0100
0001
0010
0001
1000
,
0100
0010
0100
1000
0001
0100
0001
0010
0100
1000
0010
0100
,
0002
0000
0000
0003
0000
0000
0000
0000
0000
0000
0000
0000
1000
0000
0100
0000
1000
0000
0001
0000
0100
0000
0001
0000
1000
0000
0000
0000
0000
0000
0000
0000
0000
0000
0000
0000
0001
0000
0010
0000
0100
0000
1000
0000
0010
0000
0100
0000
,
0001
0000
0000
0000
0000
0000
1000
0100
0010
0001
1000
0010
0100
0000
0000
0000
0000
0000
0001
0100
0001
0010
0100
1000
,
0001
0000
0000
0000
0000
0000
1000
0010
0100
0001
1000
0001
0100
0000
0000
0000
0000
0000
0001
1000
0010
0100
0001
1000
,
0001
0000
0000
0000
0000
0000
1000
0100
0010
0001
1000
0010
0100
0000
0000
0000
0000
0000
0001
0100
0001
1000
0010
0100
,
0001
0000
0000
0000
0000
0000
1000
0100
0010
0001
1000
0010
1000
0000
0000
0000
0000
0000
0001
0100
0001
0010
0100
1000
,
0001
0000
0000
0000
0000
0000
1000
0100
0010
0001
1000
0100
1000
0000
0000
0000
0000
0000
0001
0100
0001
0010
0100
1000
,
0001
0100
0010
1000
0001
1000
0100
0010
0001
1000
0010
0100
,
0001
0010
0001
1000
0100
1000
0001
0100
0010
1000
0100
0010
,
0002
0000
0000
0000
1003
0010
0100
0001
,
1000
0100
0010
0001
1000
0010
0100
0000
0001
0000
1000
0000
0001
0000
0100
0000
0010
0000
1000
0000
0100
0000
1000
0000
,
0001
0100
0001
0010
0100
1000
0010
0100
0010
1000
0100
1000
,
0001
0010
0001
1000
0100
0010
0001
1000
0010
0100
0001
1000
,
0001
0100
0010
1000
0001
0100
0010
0000
1000
0000
0100
0000
0010
0000
0100
0000
1000
0000
0001
0000
0100
0000
0001
0000
,
0010
0100
1000
0010
0100
0010
1000
0100
1000
0001
0010
0001
,
1000
0010
1000
0100
0010
0001
1000
0010
0100
0001
1000
0001
,
0010
0100
1000
0010
0100
0010
1000
0100
1000
0001
0100
0001
,
0010
0100
1000
0010
0100
0010
1000
0001
0010
0100
1000
0001
,
4000
0000
0000
0001
0000
0010
0000
3001
,
0100
0010
1000
0100
0010
0100
1000
0001
0010
0001
1000
0100
1000
0001
0100
0010
,
1000
0100
0010
0001
1000
0100
1000
0001
0100
0001
0010
0100
1000
0010
0100
0010
,
1000
0100
1000
0001
0100
0010
1000
0100
0010
0001
1000
0100
1000
0001
0010
0001
,
1000
0010
1000
0100
0010
0001
1000
0010
0100
0001
1000
0001
0010
0100
1000
0001
,
0100
0010
1000
0100
1000
0001
0010
0001
1000
0010
0100
0001
,
1000
0100
0010
0001
1000
0100
0010
0100
1000
0001
0100
0001
1000
0100
0010
0100
,
1000
0001
0010
0001
1000
0100
1000
0010
0100
0010
1000
0001
0010
0100
1000
0001
,
0010
0100
0010
0001
1000
0100
1000
0001
0100
0010
1000
0100
0010
0100
1000
0001
,
0010
0001
1000
0010
1000
0100
0010
0001
1000
0010
1000
0001
0010
0100
1000
0001
,
0010
0001
1000
0100
0010
0001
1000
0010
0100
0001
0010
0100
1000
0001
0010
0001
,
1000
0010
1000
0100
0010
0001
1000
0100
0010
0100
1000
0001
0100
0001
0010
0100
,
1000
0010
0100
0010
1000
0100
1000
0001
0010
0001
1000
0010
1000
0100
0010
0001
,
1000
0100
1000
0001
0100
0001
0010
0100
1000
0010
0100
0010
,
2000
3200
0320
0032
,
2003
3020
0230
0000
,
0302
0000
0000
0000
0003
0000
0000
0000
0000
0000
0000
0000
0000
0000
0000
2000
0000
0000
0000
0000
0000
0000
0000
0000
0000
0000
0000
0000
0000
0000
0000
0000
,
3020
0000
0000
0230
,
0301
0010
0100
1000
0001
0100
0010
1000
0001
0010
0100
0010
0001
1000
0100
1000
,
0001
0100
0010
1000
0100
0010
0100
1000
0001
0010
0001
1000
0010
1000
0100
0010
,
0001
1000
0100
1000
0001
0010
0100
1000
0001
0100
0001
1000
0100
0010
0001
1000
,
0010
0100
0001
0010
0100
1000
0001
0010
0001
1000
0010
1000
0100
0010
0001
1000
,
0100
0010
0100
1000
0001
0100
0001
0010
0100
1000
0010
0100
0010
1000
0100
1000
,
0001
0010
0001
1000
0010
1000
0100
0010
0001
1000
0010
0100
0001
0010
0100
0010
,
0001
1000
0100
1000
0001
0100
0010
1000
0100
0010
0001
0100
0010
1000
0001
0100
,
0001
0010
0100
1000
0001
0100
0010
1000
0100
0010
0001
1000
0010
0100
0001
1000
,
0001
0010
0100
1000
0010
0100
0010
1000
0100
1000
0001
0010
0001
1000
0100
0010
,
0001
1000
0010
0100
0001
0010
0100
0010
0001
1000
0010
1000
0001
0010
0100
1000
,
0001
0010
0001
1000
0010
0100
0010
1000
0100
0010
0001
1000
0100
1000
0001
0100
,
0001
0010
0100
1000
0010
0100
0010
1000
0100
1000
0001
0010
0001
1000
0100
0010
,
0100
1000
0001
0100
0001
0010
0100
1000
0010
0100
0010
1000
0100
1000
0001
0100
,
0010
1000
0100
0010
0001
1000
0100
0010
0100
1000
0001
0010
0001
1000
0100
0010
,
0001
1000
0010
0100
0001
0010
0100
0010
0001
1000
0100
1000
0010
0100
0010
1000
,
0001
0010
0100
1000
0001
0010
0001
1000
0010
0100
0001
1000
0001
0100
0010
1000
,
0001
0010
0001
1000
0010
1000
0100
0010
,
0001
1000
0100
0010
0100
1000
0001
0100
,
0001
0010
0100
1000
0010
0100
0010
1000
,
0001
0010
0100
1000
0001
0100
0010
1000
0100
0010
0001
1000
0010
0100
0001
1000
,
0001
0010
0100
1000
0010
0100
0010
1000
0100
1000
0001
0010
0001
1000
0100
0010
,
0001
1000
0010
0100
0001
0010
0100
0010
0001
1000
0010
1000
0001
0010
0100
1000
,
0001
0010
0001
1000
0010
0100
0010
1000
0100
0010
0001
1000
0100
1000
0001
0100
,
0001
0010
0100
1000
0010
0100
0010
1000
0100
1000
0001
0010
0001
1000
0100
0010
,
0100
1000
0001
0100
0001
0010
0100
1000
0010
0100
0010
1000
0100
1000
0001
0100
,
0010
1000
0100
0010
0001
1000
0100
0010
0100
1000
0001
0010
0100
1000
0001
0100
,
0010
1000
0001
0010
0001
1000
0010
0100
0010
1000
0100
0010
0001
1000
0100
1000
,
0001
0100
0001
0010
0100
1000
0010
0100
0010
1000
0100
1000
0001
0010
0001
1000
,
0100
0010
0100
1000
0001
0100
0001
0010
0100
1000
0010
0100
0010
1000
0100
1000
,
0001
0010
0001
1000
0100
0010
0001
1000
0010
0100
0001
0010
0100
1000
0001
0100
,
0010
1000
0100
0010
0001
1000
0010
0100
0001
1000
0001
0010
0100
1000
0010
0100
,
0010
1000
0100
1000
0001
0010
0001
1000
0100
0010
0001
1000
0010
0100
0001
0010
,
0100
0010
0001
1000
0010
1000
0001
0010
0100
1000
0001
0010
0001
1000
0010
0100
,
0010
1000
0100
0010
0001
1000
0100
1000
0001
0100
0001
0010
0100
1000
0010
0100
,
0001
0010
0100
1000
0001
0010
0001
1000
0010
0100
0010
1000
0100
0010
0001
1000
,
0100
1000
0001
0100
0001
0010
0100
1000
0010
0100
0010
1000
0100
1000
0001
0010
,
0001
0000
0000
0000
1000
0010
0100
0010
1000
0000
0000
0000
0001
0100
0001
1000
,
0010
0000
0000
0000
1000
0100
0010
0001
1000
0000
0000
0000
0001
0010
0001
1000
,
0010
0000
0000
0000
1000
0001
0010
0001
1000
0000
0000
0000
0001
0100
0010
1000
,
0001
0000
0000
0000
1000
0100
0010
0001
1000
0000
0000
0000
0002
0000
0000
0000
,
2003
3100
0010
0001
1000
0010
0100
0001
,
1000
0001
0010
0100
1000
0001
0010
0001
,
1000
0000
0010
0000
,
0100
0000
0001
0010
,
0100
1000
0001
0100
,
0010
0100
0001
1000
0001
0010
0100
1000
0001
0010
0100
0010
0001
1000
0100
1000
,
0002
0000
0000
0000
0000
0000
0000
0000
0000
0000
0000
0000
0000
0000
0000
0003
2004
0000
0000
0000
0000
0000
0000
0000
0000
0000
0000
0000
0000
0000
0000
0000
,
0000
0000
0000
3003
,
0100
0000
0001
1000
0001
0000
1000
0000
,
0001
0000
1000
0010
1000
0000
0001
0000
,
0200
0000
0000
0000
0000
0000
0000
0300
0420
0000
0000
0000
0000
0000
0000
0000
,
0000
0000
0330
0000
,
1000
0000
0001
0010
0001
0000
1000
0000
,
0010
0000
1000
0001
1000
0000
0001
0000
,
1000
0000
0001
0100
0010
0000
1000
0000
,
0001
0000
1000
0001
1000
0000
0001
0000
,
0022
0033
0000
0000
1000
0000
0010
0000
1000
0000
0000
0000
0001
0000
0000
0000
,
1000
0000
0010
0100
0010
0000
0100
0000
,
0220
0000
0000
0000
0000
0000
0000
0330
2222
0000
0000
0000
0000
0000
0000
0000
3333
0000
0000
0000
0000
0000
0000
0000
0000
0000
0000
0000
0000
0000
0000
0000
,
0000
0000
0000
0000
,
0000
0000
0000
0000
,
0000
0000
0000
0000
;
