#TITLE:Gate Openerz;
#SUBTITLE:Beastiality Violation;
#ARTIST:DJ Sharpnel;
#TITLETRANSLIT:;
#SUBTITLETRANSLIT:;
#ARTISTTRANSLIT:;
#CREDIT:;
#BANNER:../BV - ban.png;
#BACKGROUND:../BV - bg.png;
#LYRICSPATH:;
#CDTITLE:;
#MUSIC:Gate Openerz.ogg;
#OFFSET:0.010;
#SAMPLESTART:67.551;
#SAMPLELENGTH:27.440;
#SELECTABLE:YES;
#BPMS:0.000=198.650;
#STOPS:;
#BGCHANGES:;
// cache tags:
#FIRSTBEAT:0.000;
#LASTBEAT:1217.000;
#SONGFILENAME:Songs/Beastiality Violation Expansion pack 1/Gate Openerz - [Aoreo]/Gate Openerz.sm;
#HASMUSIC:1;
#HASBANNER:0;
#MUSICLENGTH:368.185;
// end cache tags

//---------------dance-single - I. Pyles vs. J. Negr----------------
#NOTES:
     dance-single:
     I. Pyles vs. J. Negr:
     Challenge:
     18:
     1.000,1.000,0.071,0.462,1.000,4306.000,26.000,170.000,7.000,0.000:
2002
0000
0000
0000
,
0000
0000
0000
0000
,
0000
0000
0000
0000
,
3003
0000
0000
0000
,
0000
0000
0000
0000
,
0000
0000
0000
0000
,
0000
0000
0000
0000
,
0000
0000
0000
0000
,
0000
1000
0000
0001
0000
1000
0000
0001
,
0000
1000
0000
0001
0000
1000
0000
0001
,
0000
1000
0000
0001
0000
1000
0000
0001
,
0000
1000
0000
0001
0000
1000
0000
0001
,
0000
1000
0000
0001
0000
1000
0000
0001
,
0000
1000
0000
0001
0000
1000
0000
0001
,
1000
0100
1000
0001
0010
0100
1000
0001
1000
0010
0100
0001
1000
0100
0010
0001
,
1000
0000
0000
0000
0000
0000
0000
0000
0000
0000
0000
0000
0100
0000
0000
0000
0000
0000
0000
0000
0000
0000
0000
0000
1000
0000
0000
0000
0000
0000
0000
0000
0000
0000
0000
0000
0001
0000
0000
0000
0000
0000
0000
0000
0000
0000
0000
0000
0010
0000
0000
0000
0000
0000
0000
0000
0000
0000
0000
0000
0100
0000
0000
0000
0000
0000
0000
0000
0000
0000
0000
0000
1000
0000
0000
0000
0000
0000
0000
0000
0000
0000
0000
0000
0001
0000
0000
0000
0000
0000
0000
0000
0000
0000
0000
0000
1000
0000
0000
0000
0000
0000
0000
0000
0000
0000
0010
0000
0000
0000
0000
0000
0000
0000
0000
1000
0000
0000
0000
0000
0000
0000
0000
0000
0000
0001
0000
0000
0000
0000
0000
0000
0000
0000
0100
0000
0000
0000
0000
0000
0000
0000
0000
0000
0001
0000
0000
0000
0000
0000
0000
0000
0000
0000
1000
0000
0000
0000
0000
0000
0000
0000
0000
0100
0000
0000
0000
0000
0000
0000
0000
0000
0000
0010
0000
0000
0000
0000
0000
0000
0000
0000
0001
0000
0000
0000
0000
0000
0000
0000
0000
0000
,
1000
0100
0010
0100
1000
0001
0100
0001
1000
0100
0010
0100
1000
0001
0100
0010
,
1000
0001
0100
0010
0100
0001
1000
0100
1000
0001
0100
0010
1000
0001
0010
0100
,
1000
0001
0100
0010
0100
0001
1000
0010
1000
0001
0010
0100
1000
0001
0100
0010
,
1000
0001
0100
0010
0100
0001
1000
0010
1000
0001
0010
0100
1000
0001
0010
0100
,
1000
0001
1000
0010
0100
0001
1000
0100
1000
0001
0010
0001
1000
0001
0100
0010
,
1000
0001
1000
0100
1000
0001
0100
0010
0100
0001
1000
0001
1000
0001
0010
0100
,
1000
0001
1000
0010
1000
0001
0100
0010
0100
0001
1000
0100
0010
0001
1000
0010
,
1000
0001
0100
0010
1000
0001
0100
0010
0100
0001
1000
0100
0010
0001
1000
0100
,
1000
0001
0100
0010
0100
0001
1000
0010
1000
0001
0100
0010
0100
0001
1000
0100
,
0010
0001
1000
0100
1000
0010
1000
0001
1000
0010
0100
0001
1000
0001
0100
0010
,
1000
0001
0100
0010
0100
0001
1000
0100
1000
0001
0100
0001
1000
0010
1000
0001
,
0100
0001
1000
0100
0010
0001
1000
0001
0100
0010
0100
0001
1000
0100
1000
0001
,
0100
0001
1000
0010
1000
0001
0100
0010
0100
0001
1000
0001
1000
0010
0100
0001
,
0100
0001
1000
0010
1000
0001
0010
0100
1000
0001
1000
0010
0100
0010
1000
0001
,
0100
0001
1000
0100
1000
0001
0100
0010
1000
0100
1000
0001
1000
0010
0100
0001
,
1000
0001
0100
0001
1000
0100
0010
0001
2000
3200
0320
0032
2003
3020
0230
0302
,
2003
3010
0100
0010
1000
0001
1000
0001
0100
0010
0100
0001
1000
0001
0010
0100
,
1000
0001
0100
0010
0100
0001
1000
0001
1000
0010
0100
0001
1000
0001
0100
0010
,
1000
0001
0010
0100
0010
0001
1000
0100
1000
0001
0100
0001
1000
0001
0010
0100
,
1000
0001
0100
0010
0100
0001
1000
0100
1000
0001
0100
0010
0100
0001
1000
0100
,
0010
0001
1000
0010
1000
0001
0100
0001
1000
0010
1000
0001
1000
0001
0010
0100
,
1000
0001
1000
0100
1000
0001
0100
0010
0100
0001
1000
0100
0010
0001
1000
0100
,
1000
0001
0100
0010
0100
0001
1000
0010
1000
0001
0010
0100
1000
0001
1000
0010
,
0100
0001
1000
0100
1000
0001
0100
0001
1000
0010
1000
0100
0010
0001
1000
0100
,
1000
0001
0100
0010
0100
0001
1000
0100
1000
0001
0010
0100
1000
0001
0100
0010
,
0100
0001
1000
0001
0100
0010
1000
0100
1000
0001
0010
0100
1000
0001
1000
0010
,
0100
0001
1000
0100
0010
0001
1000
0100
1000
0001
0100
0010
0100
0001
1000
0100
,
0010
0001
1000
0010
0100
0010
1000
0001
0100
0001
1000
0100
0010
0001
1000
0010
,
1000
0001
0010
0100
1000
0001
1000
0100
1000
0001
0010
0001
1000
0001
0100
0010
,
1000
0001
0100
0010
1000
0001
0100
0001
1000
0010
1000
0001
1000
0001
0010
0100
,
1000
0001
0100
0001
1000
0010
0100
0010
1000
0001
1000
0100
1000
0001
0100
0010
,
1000
0001
0100
0010
1000
0001
0100
0001
1000
0100
0010
0001
1000
0100
1000
0001
,
0100
0010
1000
0010
0100
0001
1000
0001
1000
0010
0100
0001
1000
0100
1000
0001
,
0010
0100
1000
0001
0100
0001
1000
0100
1000
0001
0100
0010
0100
0001
1000
0100
,
0010
0001
0100
0010
1000
0001
1000
0010
1000
0001
0100
0010
0100
0001
1000
0100
,
0010
0001
0010
0100
1000
0001
0100
0001
1000
0010
1000
0001
0010
0100
1000
0001
,
1000
0001
0100
0010
1000
0001
0100
0001
1000
0010
1000
0001
1000
0001
0010
0100
,
1000
0001
0100
0001
1000
0001
0100
0010
0100
0001
1000
0100
0010
0001
1000
0100
,
1000
0001
0100
0010
0100
0001
1000
0100
0010
0001
1000
0100
1000
0001
0010
0100
,
1000
0001
0100
0001
1000
0010
1000
0001
0010
0100
1000
0001
0100
0001
1000
0001
,
2000
3000
0001
0200
0300
0200
0300
0020
,
0030
2000
3000
0200
0300
0000
0000
0000
,
2000
3000
0001
0020
0030
0020
0030
0100
,
1000
0010
0100
0002
0003
0000
0000
0000
,
0100
0000
0M10
0000
0100
0100
0M10
0000
,
0100
0000
0M10
0000
0100
0100
0M10
0000
,
1001
0000
0100
1010
0000
0010
0101
0101
,
0000
0000
0000
0000
0000
0000
1000
0001
1000
0001
0010
0001
1000
0100
0010
0001
,
1000
0000
0001
0000
0100
0000
0101
0000
0001
0000
1000
0010
1000
0000
0001
0000
,
1000
0000
0001
0000
1000
0000
1100
0000
0100
0000
1000
0001
1000
0000
0001
0000
,
0100
0000
0010
0000
0100
0000
0101
0000
0001
0000
1000
0010
1000
0000
0001
0000
,
0100
0000
0001
0000
1000
0000
1100
0000
0100
0000
1000
0001
1000
0000
0001
0000
,
0100
0000
0001
0000
1000
0000
1010
0000
0010
0000
1000
0100
0010
0000
0001
0000
,
1000
0000
0001
0000
1000
0000
1100
0000
0100
0000
0010
0001
0010
0000
0001
0000
,
1000
0000
0100
0000
1000
0000
1001
0000
0001
0000
1000
0100
1000
0000
0001
0000
,
1000
0000
0001
0000
1000
0000
1010
0000
0010
0000
0100
0001
0100
0000
0001
0000
,
1001
0000
1000
0000
0001
0000
0101
0000
0100
0000
0010
1000
0010
0000
1000
0000
,
1001
0000
0001
0000
1000
0000
1100
0000
0100
0000
1000
0100
1000
0000
0001
0000
,
1001
0000
1000
0000
0001
0000
0101
0000
0100
0000
0010
1000
0010
0000
1000
0000
,
1001
0000
0001
0000
1000
0000
1100
0000
0100
0000
1000
0100
1000
0000
0001
0000
,
1001
0000
1000
0000
0001
0000
0101
0000
0100
0000
0001
1000
0001
0000
1000
0000
,
1001
0000
0001
0000
1000
0000
1100
0000
0100
0000
1000
0100
1000
0000
0001
0000
,
1001
0000
1000
0000
0100
0000
0010
0000
0001
0000
1000
0010
1000
0000
0001
0000
,
0010
0000
0100
0000
1000
0000
0001
0000
0100
0000
0001
0100
0001
0000
1000
0000
,
0002
0003
0020
0030
0200
0300
2000
3000
0002
0003
0200
0300
0020
0030
2000
3000
0002
0003
0020
0030
0200
0300
2000
3000
0002
0003
0200
0300
0020
0030
2000
3000
,
0001
1000
0100
1000
0001
1000
0010
1000
0001
1000
0100
1000
0001
1000
0010
0100
,
0001
1000
0010
1000
0001
1000
0100
1000
0001
1000
0010
1000
0001
1000
0100
0010
,
0001
1000
0010
0100
0010
1000
0001
1000
0100
0010
0100
1000
0001
0010
0100
1000
,
0001
1000
0010
0100
0010
1000
0001
1000
0100
0010
0100
1000
0001
0100
0010
1000
,
0001
0010
0001
1000
0010
0100
0010
1000
0001
0010
0001
1000
0010
0100
0001
1000
,
0001
0100
0001
1000
0100
0010
0100
1000
0001
0100
0001
1000
0100
0010
0001
1000
,
0010
0100
0001
1000
0100
0010
0001
0100
0010
0100
0001
1000
0100
0010
0001
1000
,
0002
0003
0200
0300
0020
0030
2000
3000
0002
0003
0020
0030
0200
0300
2000
3000
0002
0003
0200
0300
0020
0030
2000
3000
0002
0003
0020
0030
0200
0300
2000
3000
,
0001
1000
0010
1000
0001
1000
0100
1000
0001
1000
0010
1000
0001
1000
0100
0010
,
0001
1000
0100
1000
0001
1000
0010
1000
0001
1000
0100
1000
0001
1000
0010
0100
,
0001
1000
0100
0010
0100
1000
0001
1000
0010
0100
0010
1000
0001
0100
0010
1000
,
0001
1000
0100
0010
0100
1000
0001
1000
0010
0100
0010
1000
0001
0010
0100
1000
,
0001
0100
0001
1000
0100
0010
0100
1000
0001
0100
0001
1000
0100
0010
0001
1000
,
0001
0010
0001
1000
0010
0100
0010
1000
0001
0010
0001
1000
0010
0100
0001
1000
,
0100
0010
0001
1000
0010
0100
0001
0010
0100
0010
0001
1000
0010
0100
0001
1000
,
0010
0100
0001
1000
0100
0010
0001
0100
0010
0100
0001
1000
0100
0010
0001
1000
,
0001
1000
0100
1000
0001
1000
0010
1000
0001
1000
0100
1000
0001
1000
0010
0100
,
0001
1000
0010
1000
0001
1000
0100
1000
0001
1000
0010
1000
0001
1000
0100
0010
,
0001
1000
0010
0100
0010
1000
0001
1000
0100
0010
0100
1000
0001
0010
0100
1000
,
0001
1000
0010
0100
0010
1000
0001
1000
0100
0010
0100
1000
0001
0100
0010
1000
,
0001
0010
0001
1000
0010
0100
0010
1000
0001
0010
0001
1000
0010
0100
0001
1000
,
0001
0100
0001
1000
0100
0010
0100
1000
0001
0100
0001
1000
0100
0010
0001
1000
,
0010
0100
0001
1000
0100
0010
0001
0100
0010
0100
0001
1000
0100
0010
0001
1000
,
0002
0003
0200
0300
0020
0030
2000
3000
0002
0003
0020
0030
0200
0300
2000
3000
0002
0003
0200
0300
0020
0030
2000
3000
0002
0003
0020
0030
0200
0300
2000
3000
,
0001
1000
0010
1000
0001
1000
0100
1000
0001
1000
0010
1000
0001
1000
0100
0010
,
0001
1000
0100
1000
0001
1000
0010
1000
0001
1000
0100
1000
0001
1000
0010
0100
,
0001
1000
0100
0010
0100
1000
0001
1000
0010
0100
0010
1000
0001
0100
0010
1000
,
0001
1000
0100
0010
0100
1000
0001
1000
0010
0100
0010
1000
0001
0010
0100
1000
,
0001
0100
0001
1000
0100
0010
0100
1000
0001
0100
0001
1000
0100
0010
0001
1000
,
0001
0010
0001
1000
0010
0100
0010
1000
0001
0010
0001
1000
0010
0100
0001
1000
,
0100
0010
0001
1000
0010
0100
0001
0010
0100
0010
0001
1000
0010
0100
0001
1000
,
0010
0100
0001
1000
0100
0010
0001
0100
0010
0100
0001
1000
0100
0010
0001
1000
,
0001
0100
0010
1000
0100
0010
0001
1000
0001
0100
0010
1000
0100
0010
0001
1000
,
0001
0010
0100
1000
0010
0100
0001
1000
0001
0010
0100
1000
0010
0100
0001
1000
,
0100
0010
0100
1000
0010
0100
0001
1000
0100
0010
0100
1000
0010
0100
0001
1000
,
0010
0100
0010
1000
0100
0010
0001
1000
0010
0100
0010
1000
0100
0010
0001
1000
,
0001
0100
0001
1000
0100
0010
0001
1000
0001
0100
0001
1000
0100
0010
0001
1000
,
0001
0010
0001
1000
0010
0100
0001
1000
0001
0010
0001
1000
0010
0100
0001
1000
,
0001
0010
0001
0100
0010
1000
0001
1000
0001
0010
0001
0100
0010
1000
0001
1000
,
0001
0010
0001
0100
0010
1000
0010
0100
0001
0010
0001
0100
0010
1000
0010
0100
,
0002
0000
0000
0000
,
0000
0000
0000
M000
0000
0000
0000
0000
,
0000
0M00
0000
0000
0000
00M0
0000
0003
,
1000
0000
0000
0000
0000
0000
0000
0000
0000
0000
0000
0000
0100
0000
0000
0000
0000
0000
0000
0000
0000
0000
0000
0000
0010
0000
0000
0000
0000
0000
0000
0000
0000
0000
0000
0000
0100
0000
0000
0000
0000
0000
0000
0000
0000
0000
0000
0000
1000
0000
0000
0000
0000
0000
0000
0000
0000
0000
0000
0000
0001
0000
0000
0000
0000
0000
0000
0000
0000
0000
0000
0000
1000
0000
0000
0000
0000
0000
0000
0000
0000
0000
0000
0000
0001
0000
0000
0000
0000
0000
0000
0000
0000
0000
0000
0000
0100
0000
0000
0000
0000
0000
0000
0000
0000
0000
0001
0000
0000
0000
0000
0000
0000
0000
0000
1000
0000
0000
0000
0000
0000
0000
0000
0000
0000
0010
0000
0000
0000
0000
0000
0000
0000
0000
1000
0000
0000
0000
0000
0000
0000
0000
0000
0000
0001
0000
0000
0000
0000
0000
0000
0000
0000
0000
0010
0000
0000
0000
0000
0000
0000
0000
0000
0100
0000
0000
0000
0000
0000
0000
0000
0000
0000
1000
0000
0000
0000
0000
0000
0000
0000
0000
0001
0000
0000
0000
0000
0000
0000
0000
0000
0000
,
1000
0001
0100
0010
0100
0001
1000
0001
1000
0100
0010
0001
1000
0001
0100
0010
,
1000
0001
0100
0010
0100
0010
1000
0001
1000
0010
0100
0001
1000
0001
0010
0100
,
1000
0010
0100
0001
1000
0010
1000
0001
1000
0100
0010
0001
1000
0001
0100
0010
,
1000
0001
0100
0010
0100
0001
1000
0001
1000
0010
0100
0001
1000
0001
0010
0100
,
1000
0001
0100
0010
0100
0001
1000
0100
1000
0001
0010
0001
1000
0001
0100
0010
,
1000
0001
0100
0010
0100
0001
1000
0010
1000
0001
0100
0001
1000
0001
0010
0100
,
1000
0001
1000
0010
0100
0001
1000
0100
1000
0001
0010
0001
1000
0001
0100
0010
,
1000
0001
0100
0010
0100
0001
1000
0010
1000
0001
0100
0001
1000
0001
0010
0100
,
1000
0001
0100
0010
0100
0001
1000
0001
1000
0010
0100
0001
1000
0001
0010
0100
,
1000
0001
0100
0010
0100
0001
1000
0001
1000
0100
0010
0001
1000
0001
0100
0010
,
1000
0001
0100
0010
0100
0010
1000
0001
1000
0010
0100
0001
1000
0001
0010
0100
,
1000
0001
0100
0010
0100
0001
1000
0001
1000
0100
0010
0001
1000
0001
0100
0010
,
1000
0001
0100
0010
0100
0001
1000
0010
1000
0001
0100
0001
1000
0001
0010
0100
,
1000
0001
1000
0100
0010
0001
1000
0100
1000
0001
0010
0001
1000
0001
0100
0010
,
1000
0100
1000
0001
0100
0010
1000
0010
1000
0001
0100
0001
1000
0001
0010
0100
,
1000
0001
0100
0010
0100
0001
1000
0100
1000
0001
0010
0001
1000
0001
0100
0010
,
1000
0001
0010
0100
0010
0001
1000
0001
1000
0100
0010
0001
1000
0001
0100
0010
,
1000
0001
0100
0010
0100
0001
1000
0001
1000
0010
0100
0001
1000
0001
0010
0100
,
1000
0001
0010
0100
0010
0001
1000
0100
1000
0100
0010
0001
1000
0001
0100
0010
,
1000
0001
0100
0010
0100
0001
1000
0001
1000
0010
0100
0001
1000
0001
0010
0100
,
1000
0001
0100
0010
0100
0001
1000
0100
1000
0001
0010
0001
1000
0001
0100
0010
,
1000
0001
0100
0010
0100
0001
1000
0010
1000
0001
0100
0001
1000
0001
0010
0100
,
1000
0001
0100
0010
0100
0001
1000
0100
1000
0001
0010
0001
1000
0001
0100
0010
,
1000
0001
0100
0010
0100
0001
1000
0010
1000
0001
0100
0001
1000
0001
0010
0100
,
1000
0100
0010
0001
1000
0010
1000
0001
1000
0010
0100
0001
1000
0001
0010
0100
,
1000
0001
0100
0010
0100
0001
1000
0001
1000
0100
0010
0001
1000
0001
0100
0010
,
1000
0001
0100
0010
0100
0001
1000
0001
1000
0010
0100
0001
1000
0001
0010
0100
,
1000
0001
0100
0010
0100
0001
1000
0001
1000
0100
0010
0001
1000
0001
0100
0010
,
1000
0001
0100
0010
0100
0001
1000
0010
1000
0001
0100
0001
1000
0001
0010
0100
,
1000
0001
0100
0010
0100
0001
1000
0100
1000
0001
0010
0001
1000
0001
0100
0010
,
1000
0001
0100
0001
1000
0010
0100
0010
1000
0100
0010
0001
1000
0100
0010
0100
,
1000
0001
0010
0001
1000
0100
0010
0100
1000
0010
0100
0001
0010
0100
1000
0001
,
0200
0000
0000
0000
,
0301
0010
0001
0010
0100
1000
0001
0100
0001
0100
0001
1000
0010
1000
0001
0100
,
0010
1000
0010
0100
0001
0100
0010
1000
0001
0100
0001
1000
0100
0010
0001
1000
,
0001
0100
0001
0100
0010
1000
0010
1000
0001
0010
0001
1000
0100
0010
0001
1000
,
0100
1000
0001
1000
0010
0100
0010
1000
0001
0010
0001
1000
0010
1000
0001
0100
,
0001
1000
0010
0100
0001
0100
0010
1000
0001
1000
0001
0010
0100
1000
0001
0100
,
0010
1000
0010
0100
0001
1000
0100
0010
0001
1000
0001
0100
0010
0100
0010
1000
,
0001
0100
0001
1000
0100
0010
0001
1000
0001
0100
0001
1000
0010
0100
0010
1000
,
0001
0010
0001
1000
0010
1000
0001
0010
0100
1000
0001
0100
0001
1000
0010
0100
,
0010
1000
0001
0010
0100
1000
0001
0100
0001
0010
0001
1000
0100
0010
0001
1000
,
0001
1000
0100
1000
0001
0100
0010
1000
0001
0010
0001
1000
0100
1000
0001
0100
,
0010
0100
0001
1000
0010
0100
0010
1000
0001
0100
0001
1000
0010
0100
0010
1000
,
0001
1000
0010
0100
0010
0100
0001
1000
0001
0100
0001
1000
0100
0010
0100
1000
,
0001
0100
0001
1000
0100
0010
0100
1000
0001
0010
0001
1000
0100
0010
0001
1000
,
0100
1000
0001
0100
0010
0100
0010
1000
0001
0010
0001
1000
0100
1000
0001
0100
,
0001
1000
0010
0100
0001
1000
0100
0010
0001
1000
0001
0100
0010
0100
0010
1000
,
0001
0000
0000
0000
0000
0000
0000
0000
0000
0000
0000
0000
0010
0000
0000
0000
0000
0000
0000
0000
0000
0000
0000
0000
0100
0000
0000
0000
0000
0000
0000
0000
0000
0000
0000
0000
0010
0000
0000
0000
0000
0000
0000
0000
0000
0000
0000
0000
0100
0000
0000
0000
0000
0000
0000
0000
0000
0000
0000
0000
1000
0000
0000
0000
0000
0000
0000
0000
0000
0000
0000
0000
0001
0000
0000
0000
0000
0000
0000
0000
0000
0000
0000
0000
1000
0000
0000
0000
0000
0000
0000
0000
0000
0000
0000
0000
0001
0000
0000
0000
0000
0000
0000
0000
0000
0000
0010
0000
0000
0000
0000
0000
0000
0000
0000
0100
0000
0000
0000
0000
0000
0000
0000
0000
0000
1000
0000
0000
0000
0000
0000
0000
0000
0000
0001
0000
0000
0000
0000
0000
0000
0000
0000
0000
0100
0000
0000
0000
0000
0000
0000
0000
0000
0000
0001
0000
0000
0000
0000
0000
0000
0000
0000
1000
0000
0000
0000
0000
0000
0000
0000
0000
0000
0010
0000
0000
0000
0000
0000
0000
0000
0000
0100
0000
0000
0000
0000
0000
0000
0000
0000
0000
,
0002
0003
0020
0030
0200
0300
2000
3000
0002
0003
0200
0300
0020
0030
2000
3000
0002
0003
0020
0030
0200
0300
2000
3000
0002
0003
0200
0300
0020
0030
2000
3000
,
0001
1000
0100
1000
0001
1000
0010
1000
0001
1000
0100
1000
0001
1000
0010
0100
,
0001
1000
0010
1000
0001
1000
0100
1000
0001
1000
0010
1000
0001
1000
0100
0010
,
0001
1000
0010
0100
0010
1000
0001
1000
0100
0010
0100
1000
0001
0010
0100
1000
,
0001
1000
0010
0100
0010
1000
0001
1000
0100
0010
0100
1000
0001
0100
0010
1000
,
0001
0010
0001
1000
0010
0100
0010
1000
0001
0010
0001
1000
0010
0100
0001
1000
,
0001
0100
0001
1000
0100
0010
0100
1000
0001
0100
0001
1000
0100
0010
0001
1000
,
0010
0100
0001
1000
0100
0010
0001
0100
0010
0100
0001
1000
0100
0010
0001
1000
,
0002
0003
0200
0300
0020
0030
2000
3000
0002
0003
0020
0030
0200
0300
2000
3000
0002
0003
0200
0300
0020
0030
2000
3000
0002
0003
0020
0030
0200
0300
2000
3000
,
0001
1000
0010
1000
0001
1000
0100
1000
0001
1000
0010
1000
0001
1000
0100
0010
,
0001
1000
0100
1000
0001
1000
0010
1000
0001
1000
0100
1000
0001
1000
0010
0100
,
0001
1000
0100
0010
0100
1000
0001
1000
0010
0100
0010
1000
0001
0100
0010
1000
,
0001
1000
0100
0010
0100
1000
0001
1000
0010
0100
0010
1000
0001
0010
0100
1000
,
0001
0100
0001
1000
0100
0010
0100
1000
0001
0100
0001
1000
0100
0010
0001
1000
,
0001
0010
0001
1000
0010
0100
0010
1000
0001
0010
0001
1000
0010
0100
0001
1000
,
0100
0010
0001
1000
0010
0100
0001
0010
0100
0010
0001
1000
0010
0100
0001
1000
,
0010
0100
0001
1000
0100
0010
0001
0100
0010
0100
0001
1000
0100
0010
0001
1000
,
0001
1000
0100
1000
0001
1000
0010
1000
0001
1000
0100
1000
0001
1000
0010
0100
,
0001
1000
0010
1000
0001
1000
0100
1000
0001
1000
0010
1000
0001
1000
0100
0010
,
0001
1000
0010
0100
0010
1000
0001
1000
0100
0010
0100
1000
0001
0010
0100
1000
,
0001
1000
0010
0100
0010
1000
0001
1000
0100
0010
0100
1000
0001
0100
0010
1000
,
0001
0010
0001
1000
0010
0100
0010
1000
0001
0010
0001
1000
0010
0100
0001
1000
,
0001
0100
0001
1000
0100
0010
0100
1000
0001
0100
0001
1000
0100
0010
0001
1000
,
0010
0100
0001
1000
0100
0010
0001
0100
0010
0100
0001
1000
0100
0010
0001
1000
,
0002
0003
0200
0300
0020
0030
2000
3000
0002
0003
0020
0030
0200
0300
2000
3000
0002
0003
0200
0300
0020
0030
2000
3000
0002
0003
0020
0030
0200
0300
2000
3000
,
0001
1000
0010
1000
0001
1000
0100
1000
0001
1000
0010
1000
0001
1000
0100
0010
,
0001
1000
0100
1000
0001
1000
0010
1000
0001
1000
0100
1000
0001
1000
0010
0100
,
0001
1000
0100
0010
0100
1000
0001
1000
0010
0100
0010
1000
0001
0100
0010
1000
,
0001
1000
0100
0010
0100
1000
0001
1000
0010
0100
0010
1000
0001
0010
0100
1000
,
0001
0100
0001
1000
0100
0010
0100
1000
0001
0100
0001
1000
0100
0010
0001
1000
,
0001
0010
0001
1000
0010
0100
0010
1000
0001
0010
0001
1000
0010
0100
0001
1000
,
0100
0010
0001
1000
0010
0100
0001
0010
0100
0010
0001
1000
0010
0100
0001
1000
,
0010
0100
0001
1000
0100
0010
0001
0100
0010
0100
0001
1000
0100
0010
0001
1000
,
0001
0100
0010
1000
0100
0010
0001
1000
0001
0100
0010
1000
0100
0010
0001
1000
,
0001
0010
0100
1000
0010
0100
0001
1000
0001
0010
0100
1000
0010
0100
0001
1000
,
0001
0010
0001
0100
0010
1000
0001
1000
0001
0010
0001
0100
0010
1000
0001
1000
,
0001
0010
0001
0100
0010
1000
0010
0100
0001
0010
0001
0100
0010
1000
0010
0100
,
0002
0000
0000
0000
,
0000
0000
0000
0000
,
0000
0000
0000
0000
,
1003
0000
0000
0000
0000
0000
0000
0000
0000
0000
0000
0000
0100
0000
0000
0000
0000
0000
0000
0000
0000
0000
0000
0000
0010
0000
0000
0000
0000
0000
0000
0000
0000
0000
0000
0000
0100
0000
0000
0000
0000
0000
0000
0000
0000
0000
0000
0000
1000
0000
0000
0000
0000
0000
0000
0000
0000
0000
0000
0000
0001
0000
0000
0000
0000
0000
0000
0000
0000
0000
0000
0000
1000
0000
0000
0000
0000
0000
0000
0000
0000
0000
0000
0000
0001
0000
0000
0000
0000
0000
0000
0000
0000
0000
0000
0000
0100
0000
0000
0000
0000
0000
0000
0000
0000
0000
0001
0000
0000
0000
0000
0000
0000
0000
0000
1000
0000
0000
0000
0000
0000
0000
0000
0000
0000
0010
0000
0000
0000
0000
0000
0000
0000
0000
1000
0000
0000
0000
0000
0000
0000
0000
0000
0000
0001
0000
0000
0000
0000
0000
0000
0000
0000
0000
0010
0000
0000
0000
0000
0000
0000
0000
0000
0100
0000
0000
0000
0000
0000
0000
0000
0000
0000
1000
0000
0000
0000
0000
0000
0000
0000
0000
0001
0000
0000
0000
0000
0000
0000
0000
0000
0000
,
1000
0001
0100
0010
0100
0001
1000
0001
1000
0100
0010
0001
1000
0001
0100
0010
,
1000
0001
0100
0010
0100
0010
1000
0001
1000
0010
0100
0001
1000
0001
0010
0100
,
1000
0010
0100
0001
1000
0010
1000
0001
1000
0100
0010
0001
1000
0001
0100
0010
,
1000
0001
0100
0010
0100
0001
1000
0001
1000
0010
0100
0001
1000
0001
0010
0100
,
1000
0001
0100
0010
0100
0001
1000
0100
1000
0001
0010
0001
1000
0001
0100
0010
,
1000
0001
0100
0010
0100
0001
1000
0010
1000
0001
0100
0001
1000
0001
0010
0100
,
1000
0001
1000
0010
0100
0001
1000
0100
1000
0001
0010
0001
1000
0001
0100
0010
,
1000
0001
0100
0010
0100
0001
1000
0010
1000
0001
0100
0001
1000
0001
0010
0100
,
1000
0001
0100
0010
0100
0001
1000
0001
1000
0010
0100
0001
1000
0001
0010
0100
,
1000
0001
0100
0010
0100
0001
1000
0001
1000
0100
0010
0001
1000
0001
0100
0010
,
1000
0001
0100
0010
0100
0010
1000
0001
1000
0010
0100
0001
1000
0001
0010
0100
,
1000
0001
0100
0010
0100
0001
1000
0001
1000
0100
0010
0001
1000
0001
0100
0010
,
1000
0001
0100
0010
0100
0001
1000
0010
1000
0001
0100
0001
1000
0001
0010
0100
,
1000
0001
1000
0100
0010
0001
1000
0100
1000
0001
0010
0001
1000
0001
0100
0010
,
1000
0100
1000
0001
0100
0010
1000
0010
1000
0001
0100
0001
1000
0001
0010
0100
,
1000
0001
0100
0010
0100
0001
1000
0100
1000
0001
0010
0001
1000
0001
0100
0010
,
1000
0001
0010
0100
0010
0001
1000
0001
1000
0100
0010
0001
1000
0001
0100
0010
,
1000
0001
0100
0010
0100
0001
1000
0001
1000
0010
0100
0001
1000
0001
0010
0100
,
1000
0001
0010
0100
0010
0001
1000
0100
1000
0100
0010
0001
1000
0001
0100
0010
,
1000
0001
0100
0010
0100
0001
1000
0001
1000
0010
0100
0001
1000
0001
0010
0100
,
1000
0001
0100
0010
0100
0001
1000
0100
1000
0001
0010
0001
1000
0001
0100
0010
,
1000
0001
0100
0010
0100
0001
1000
0010
1000
0001
0100
0001
1000
0001
0010
0100
,
1000
0001
0100
0010
0100
0001
1000
0100
1000
0001
0010
0001
1000
0001
0100
0010
,
1000
0001
0100
0010
0100
0001
1000
0010
1000
0001
0100
0001
1000
0001
0010
0100
,
1000
0100
0010
0001
1000
0010
1000
0001
1000
0010
0100
0001
1000
0001
0010
0100
,
1000
0001
0100
0010
0100
0001
1000
0001
1000
0100
0010
0001
1000
0001
0100
0010
,
1000
0001
0100
0010
0100
0001
1000
0001
1000
0010
0100
0001
1000
0001
0010
0100
,
1000
0001
0100
0010
0100
0001
1000
0001
1000
0100
0010
0001
1000
0001
0100
0010
,
1000
0001
0100
0010
0100
0001
1000
0010
1000
0001
0100
0001
1000
0001
0010
0100
,
1000
0001
0100
0010
0100
0001
1000
0100
1000
0001
0010
0001
1000
0001
0100
0010
,
1000
0001
0100
0001
1000
0010
0100
0010
1000
0100
0010
0001
1000
0100
0010
0100
,
1000
0001
0010
0001
1000
0100
0010
0100
1000
0010
0100
0001
0010
0100
1000
0001
,
0200
0000
0000
0000
,
0301
0010
0001
0010
0100
1000
0001
0100
0001
0100
0001
1000
0010
1000
0001
0100
,
0010
1000
0010
0100
0001
0100
0010
1000
0001
0100
0001
1000
0100
0010
0001
1000
,
0001
0100
0001
0100
0010
1000
0010
1000
0001
0010
0001
1000
0100
0010
0001
1000
,
0100
1000
0001
1000
0010
0100
0010
1000
0001
0010
0001
1000
0010
1000
0001
0100
,
0001
1000
0010
0100
0001
0100
0010
1000
0001
1000
0001
0010
0100
1000
0001
0100
,
0010
1000
0010
0100
0001
1000
0100
0010
0001
1000
0001
0100
0010
0100
0010
1000
,
0001
0100
0001
1000
0100
0010
0001
1000
0001
0100
0001
1000
0010
0100
0010
1000
,
0001
0010
0001
1000
0010
1000
0001
0010
0100
1000
0001
0100
0001
1000
0010
0100
,
0010
1000
0001
0010
0100
1000
0001
0100
0001
0010
0001
1000
0100
0010
0001
1000
,
0001
1000
0100
1000
0001
0100
0010
1000
0001
0010
0001
1000
0100
1000
0001
0100
,
0010
0100
0001
1000
0010
0100
0010
1000
0001
0100
0001
1000
0010
0100
0010
1000
,
0001
1000
0010
0100
0010
0100
0001
1000
0001
0100
0001
1000
0100
0010
0100
1000
,
0001
0100
0001
1000
0100
0010
0100
1000
0001
0010
0001
1000
0100
0010
0001
1000
,
0100
1000
0001
0100
0010
0100
0010
1000
0001
0010
0001
1000
0100
1000
0001
0100
,
0001
1000
0010
0100
0001
1000
0100
0010
0001
1000
0001
0100
0010
0100
0010
1000
,
0001
0000
0000
0000
0000
0000
0000
0000
0000
0000
0000
0000
0010
0000
0000
0000
0000
0000
0000
0000
0000
0000
0000
0000
0100
0000
0000
0000
0000
0000
0000
0000
0000
0000
0000
0000
0010
0000
0000
0000
0000
0000
0000
0000
0000
0000
0000
0000
0100
0000
0000
0000
0000
0000
0000
0000
0000
0000
0000
0000
1000
0000
0000
0000
0000
0000
0000
0000
0000
0000
0000
0000
0001
0000
0000
0000
0000
0000
0000
0000
0000
0000
0000
0000
1000
0000
0000
0000
0000
0000
0000
0000
0000
0000
0000
0000
0001
0000
0000
0000
0000
0000
0000
0000
0000
0000
0010
0000
0000
0000
0000
0000
0000
0000
0000
0100
0000
0000
0000
0000
0000
0000
0000
0000
0000
1000
0000
0000
0000
0000
0000
0000
0000
0000
0001
0000
0000
0000
0000
0000
0000
0000
0000
0000
0100
0000
0000
0000
0000
0000
0000
0000
0000
0000
0001
0000
0000
0000
0000
0000
0000
0000
0000
1000
0000
0000
0000
0000
0000
0000
0000
0000
0000
0010
0000
0000
0000
0000
0000
0000
0000
0000
0100
0000
0000
0000
0000
0000
0000
0000
0000
0000
,
0002
0003
0020
0030
0200
0300
2000
3000
0002
0003
0200
0300
0020
0030
2000
3000
0002
0003
0020
0030
0200
0300
2000
3000
0002
0003
0200
0300
0020
0030
2000
3000
,
0001
1000
0100
1000
0001
1000
0010
1000
0001
1000
0100
1000
0001
1000
0010
0100
,
0001
1000
0010
1000
0001
1000
0100
1000
0001
1000
0010
1000
0001
1000
0100
0010
,
0001
1000
0010
0100
0010
1000
0001
1000
0100
0010
0100
1000
0001
0010
0100
1000
,
0001
1000
0010
0100
0010
1000
0001
1000
0100
0010
0100
1000
0001
0100
0010
1000
,
0001
0010
0001
1000
0010
0100
0010
1000
0001
0010
0001
1000
0010
0100
0001
1000
,
0001
0100
0001
1000
0100
0010
0100
1000
0001
0100
0001
1000
0100
0010
0001
1000
,
0010
0100
0001
1000
0100
0010
0001
0100
0010
0100
0001
1000
0100
0010
0001
1000
,
0002
0003
0200
0300
0020
0030
2000
3000
0002
0003
0020
0030
0200
0300
2000
3000
0002
0003
0200
0300
0020
0030
2000
3000
0002
0003
0020
0030
0200
0300
2000
3000
,
0001
1000
0010
1000
0001
1000
0100
1000
0001
1000
0010
1000
0001
1000
0100
0010
,
0001
1000
0100
1000
0001
1000
0010
1000
0001
1000
0100
1000
0001
1000
0010
0100
,
0001
1000
0100
0010
0100
1000
0001
1000
0010
0100
0010
1000
0001
0100
0010
1000
,
0001
1000
0100
0010
0100
1000
0001
1000
0010
0100
0010
1000
0001
0010
0100
1000
,
0001
0100
0001
1000
0100
0010
0100
1000
0001
0100
0001
1000
0100
0010
0001
1000
,
0001
0010
0001
1000
0010
0100
0010
1000
0001
0010
0001
1000
0010
0100
0001
1000
,
0100
0010
0001
1000
0010
0100
0001
0010
0100
0010
0001
1000
0010
0100
0001
1000
,
0010
0100
0001
1000
0100
0010
0001
0100
0010
0100
0001
1000
0100
0010
0001
1000
,
0001
1000
0100
1000
0001
1000
0010
1000
0001
1000
0100
1000
0001
1000
0010
0100
,
0001
1000
0010
1000
0001
1000
0100
1000
0001
1000
0010
1000
0001
1000
0100
0010
,
0001
1000
0010
0100
0010
1000
0001
1000
0100
0010
0100
1000
0001
0010
0100
1000
,
0001
1000
0010
0100
0010
1000
0001
1000
0100
0010
0100
1000
0001
0100
0010
1000
,
0001
0010
0001
1000
0010
0100
0010
1000
0001
0010
0001
1000
0010
0100
0001
1000
,
0001
0100
0001
1000
0100
0010
0100
1000
0001
0100
0001
1000
0100
0010
0001
1000
,
0010
0100
0001
1000
0100
0010
0001
0100
0010
0100
0001
1000
0100
0010
0001
1000
,
0002
0003
0200
0300
0020
0030
2000
3000
0002
0003
0020
0030
0200
0300
2000
3000
0002
0003
0200
0300
0020
0030
2000
3000
0002
0003
0020
0030
0200
0300
2000
3000
,
0001
1000
0010
1000
0001
1000
0100
1000
0001
1000
0010
1000
0001
1000
0100
0010
,
0001
1000
0100
1000
0001
1000
0010
1000
0001
1000
0100
1000
0001
1000
0010
0100
,
0001
1000
0100
0010
0100
1000
0001
1000
0010
0100
0010
1000
0001
0100
0010
1000
,
0001
1000
0100
0010
0100
1000
0001
1000
0010
0100
0010
1000
0001
0010
0100
1000
,
0001
0100
0001
1000
0100
0010
0100
1000
0001
0100
0001
1000
0100
0010
0001
1000
,
0001
0010
0001
1000
0010
0100
0010
1000
0001
0010
0001
1000
0010
0100
0001
1000
,
0100
0010
0001
1000
0010
0100
0001
0010
0100
0010
0001
1000
0010
0100
0001
1000
,
0010
0100
0001
1000
0100
0010
0001
0100
0010
0100
0001
1000
0100
0010
0001
1000
,
0001
0100
0010
1000
0100
0010
0001
1000
0001
0100
0010
1000
0100
0010
0001
1000
,
0001
0010
0100
1000
0010
0100
0001
1000
0001
0010
0100
1000
0010
0100
0001
1000
,
0001
0010
0001
0100
0010
1000
0001
1000
0001
0010
0001
0100
0010
1000
0001
1000
,
0001
0010
0001
0100
0010
1000
0010
0100
0001
0010
0001
0100
0010
1000
0010
0100
,
0002
0000
0000
0000
,
0000
0000
0000
0000
,
0000
0000
0000
0000
,
0000
0003
0000
0000
;

//---------------dance-single - I. Pyles vs. J. Negr----------------
#NOTES:
     dance-single:
     I. Pyles vs. J. Negr:
     Hard:
     17:
     1.000,1.000,0.071,0.527,1.000,3942.000,26.000,194.000,20.000,0.000:
2002
0000
0000
0000
,
0000
0000
0000
0000
,
0000
0000
0000
0000
,
3003
0000
0000
000M
0000
0000
0000
0000
,
0000
0000
0000
00M0
0000
0000
0000
0000
,
0000
0000
0000
0M00
0000
0000
0000
0000
,
0000
0000
0000
M000
0000
0000
0000
0000
,
0000
0000
0000
000M
0000
0000
0000
0000
,
0000
1000
0000
0001
0000
1000
0000
0001
,
0000
1000
0000
0001
0000
1000
0000
0001
,
0000
1000
0000
0001
0000
1000
0000
0001
,
0000
1000
0000
0001
0000
1000
0000
0001
,
0000
1000
0000
0001
0000
1000
0000
0001
,
0000
1000
0000
0001
0000
1000
0000
0001
,
0000
1000
0000
0001
0000
1000
0000
0001
,
1000
0100
0000
0100
0010
0000
0001
1000
0002
0023
0230
2300
3002
0203
0320
2030
,
3001
0000
0010
0100
0010
0000
0001
1000
0001
0100
0010
1000
0001
1000
0100
0010
,
0001
0000
0100
0010
0100
0000
0001
1000
0001
0010
0100
1000
0001
1000
0010
0100
,
0001
0000
0010
0100
0010
0000
0001
1000
0001
0100
0010
1000
0001
1000
0100
0010
,
0001
0000
0100
0010
0100
0000
0001
1000
0001
0010
0100
1000
0001
1000
0010
0100
,
0001
0000
1000
0010
1000
0000
0001
0100
0001
1000
0010
1000
0001
1000
0100
0010
,
0001
0000
1000
0100
1000
0000
0001
0010
0001
1000
0100
1000
0001
1000
0010
0100
,
0001
0000
1000
0010
1000
0000
0001
0100
0001
1000
0010
1000
0001
1000
0100
0010
,
0001
0000
1000
0100
1000
0000
0001
0010
0001
1000
0100
1000
0001
1000
0010
0100
,
0001
0000
0100
0010
0100
0000
0001
1000
0001
0010
0100
1000
0001
1000
0010
0100
,
0001
0000
0010
0100
0010
0000
0001
1000
0001
0100
0010
1000
0001
1000
0100
0010
,
0001
0000
0100
0010
0100
0000
0001
1000
0001
0010
0100
1000
0001
1000
0010
0100
,
0001
0000
0010
0100
0010
0000
0001
1000
0001
0100
0010
1000
0001
1000
0100
0010
,
0001
0000
1000
0100
1000
0000
0001
0010
0001
1000
0100
1000
0001
1000
0010
0100
,
0001
0000
1000
0010
1000
0000
0001
0100
0001
1000
0010
1000
0001
1000
0100
0010
,
0001
0000
1000
0100
1000
0000
0001
0010
0001
1000
0100
1000
0001
1000
0010
0100
,
0001
0000
1000
0010
1000
0000
0001
1000
0002
0023
0230
2300
3002
0203
0320
2030
,
3001
0000
0010
0100
0010
0000
0001
1000
0001
0100
0010
1000
0001
1000
0100
0010
,
0001
0000
0100
0010
0100
0000
0001
1000
0001
0010
0100
1000
0001
1000
0010
0100
,
0001
0000
0010
0100
0010
0000
0001
1000
0001
0100
0010
1000
0001
1000
0100
0010
,
0001
0000
0100
0010
0100
0000
0001
1000
0001
0010
0100
1000
0001
1000
0010
0100
,
0001
0000
1000
0010
1000
0000
0001
0100
0001
1000
0010
1000
0001
1000
0100
0010
,
0001
0000
1000
0100
1000
0000
0001
0010
0001
1000
0100
1000
0001
1000
0010
0100
,
0001
0000
1000
0010
1000
0000
0001
0100
0001
1000
0010
1000
0001
1000
0100
0010
,
0001
0000
1000
0100
1000
0000
0001
0010
0001
1000
0100
1000
0001
1000
0010
0100
,
0001
0000
0100
0010
0100
0000
0001
1000
0001
0010
0100
1000
0001
1000
0010
0100
,
0001
0000
0010
0100
0010
0000
0001
1000
0001
0100
0010
1000
0001
1000
0100
0010
,
0001
0000
1000
0100
0010
0000
0001
1000
0001
0010
0100
1000
0001
1000
0010
0100
,
0001
0000
1000
0010
0100
0000
0001
1000
0001
0100
0010
1000
0001
1000
0100
0010
,
0001
0000
0010
0100
1000
0000
0001
0010
0001
1000
0100
1000
0001
1000
0010
0100
,
0001
0000
0100
0010
1000
0000
0001
0100
0001
1000
0010
1000
0001
1000
0100
0010
,
0001
0000
0010
0100
1000
0000
0001
0010
0001
1000
0100
1000
0001
1000
0010
0100
,
0001
0000
0100
0010
1000
0000
0001
0100
0001
1000
0010
1000
0001
1000
0100
0010
,
0001
0000
1000
0010
0100
0000
0001
1000
0001
0100
0010
1000
0001
1000
0100
0010
,
0001
0000
1000
0100
0010
0000
0001
1000
0001
0010
0100
1000
0001
1000
0010
0100
,
0001
0000
0100
0010
1000
0000
0001
0100
0001
1000
0010
1000
0001
1000
0100
0010
,
0001
0000
0010
0100
1000
0000
0001
0010
0001
1000
0100
1000
0001
1000
0010
0100
,
0001
0000
0100
0010
1000
0000
0001
0100
0001
1000
0010
1000
0001
1000
0100
0010
,
0001
0000
0010
0100
1000
0000
0001
0010
0001
1000
0100
1000
0001
1000
0010
0100
,
0001
1000
0100
1000
0001
0010
0100
0010
0001
0100
0010
1000
0001
0100
0010
0100
,
0001
1000
0010
1000
0001
0100
0010
0100
0001
0010
0100
1000
0010
0100
0001
1000
,
0002
0003
1000
0200
0300
0200
0300
2000
,
3000
0002
0003
0200
0300
0000
0000
0000
,
0002
0003
0100
0020
0030
0200
0300
0001
,
0020
0130
1000
0002
0003
0000
0000
0000
,
0100
0000
0M10
0000
0100
0100
0M10
0000
,
0100
0000
0M10
0000
0100
0100
0M10
0000
,
1001
0000
0100
1010
0000
0010
0101
0101
,
0000
0000
0000
0000
0000
0000
1000
0001
1000
0001
0010
0001
1000
0100
0010
0001
,
1000
0000
0001
0000
0100
0000
0101
0000
0001
0000
1000
0010
1000
0000
0001
0000
,
1000
0000
0001
0000
1000
0000
1100
0000
0100
0000
1000
0010
1000
0000
0001
0000
,
1000
0000
0001
0000
0100
0000
0101
0000
0001
0000
1000
0010
1000
0000
0001
0000
,
1000
0000
0001
0000
1000
0000
1100
0000
0100
0000
1000
0010
1000
0000
0001
0000
,
1000
0000
0001
0000
1000
0000
1100
0000
0100
0000
1000
0100
1000
0000
0001
0000
,
1000
0000
0001
0000
1000
0000
1010
0000
0010
0000
0100
0001
0100
0000
0001
0000
,
1000
0000
0001
0000
1000
0000
1100
0000
0100
0000
1000
0100
1000
0000
0001
0000
,
1000
0000
0001
0000
1000
0000
1010
0000
0010
0000
0100
0001
0100
0000
0001
0000
,
1001
0000
1000
0000
0001
0000
0101
0000
0100
0000
0010
1000
0010
0000
1000
0000
,
1001
0000
0001
0000
1000
0000
1100
0000
0100
0000
1000
0010
1000
0000
0001
0000
,
1001
0000
1000
0000
0100
0000
1100
0000
1000
0000
0001
0100
0001
0000
1000
0000
,
1001
0000
0001
0000
1000
0000
1100
0000
0100
0000
1000
0100
1000
0000
0001
0000
,
1001
0000
1000
0000
0001
0000
0101
0000
0100
0000
0010
1000
0010
0000
1000
0000
,
1001
0000
0001
0000
0100
0000
0101
0000
0001
0000
1000
0010
1000
0000
0001
0000
,
1001
0000
1000
0000
0100
0000
0010
0000
0100
0000
1000
0001
1000
0000
0001
0000
,
0100
0000
0010
0000
0100
0000
0001
0000
1000
0000
0010
0100
0010
0000
1000
0000
,
0002
0003
0020
0030
0200
0300
2000
3000
0002
0003
0200
0300
0020
0030
2000
3000
0002
0003
0020
0030
0200
0300
2000
3000
0002
0003
0200
0300
0020
0030
2000
3000
,
0001
1000
0100
1000
0001
1000
0010
1000
0001
1000
0100
1000
0001
1000
0010
0100
,
0001
1000
0010
1000
0001
1000
0100
1000
0001
1000
0010
1000
0001
1000
0100
0010
,
0001
1000
0010
0100
0010
1000
0001
1000
0100
0010
0100
1000
0001
0010
0100
1000
,
0001
1000
0010
0100
0010
1000
0001
1000
0100
0010
0100
1000
0001
0100
0010
1000
,
0001
0010
0001
1000
0010
0100
0010
1000
0001
0010
0001
1000
0010
0100
0001
1000
,
0001
0100
0001
1000
0100
0010
0100
1000
0001
0100
0001
1000
0100
0010
0001
1000
,
0010
0100
0001
1000
0100
0010
0001
0100
0010
0100
0001
1000
0100
0010
0001
1000
,
0002
0003
0200
0300
0020
0030
2000
3000
0002
0003
0020
0030
0200
0300
2000
3000
0002
0003
0200
0300
0020
0030
2000
3000
0002
0003
0020
0030
0200
0300
2000
3000
,
0001
1000
0010
1000
0001
1000
0100
1000
0001
1000
0010
1000
0001
1000
0100
0010
,
0001
1000
0100
1000
0001
1000
0010
1000
0001
1000
0100
1000
0001
1000
0010
0100
,
0001
1000
0100
0010
0100
1000
0001
1000
0010
0100
0010
1000
0001
0100
0010
1000
,
0001
1000
0100
0010
0100
1000
0001
1000
0010
0100
0010
1000
0001
0010
0100
1000
,
0001
0100
0001
1000
0100
0010
0100
1000
0001
0100
0001
1000
0100
0010
0001
1000
,
0001
0010
0001
1000
0010
0100
0010
1000
0001
0010
0001
1000
0010
0100
0001
1000
,
0100
0010
0001
1000
0010
0100
0001
0010
0100
0010
0001
1000
0010
0100
0001
1000
,
0010
0100
0001
1000
0100
0010
0001
0100
0010
0100
0001
1000
0100
0010
0001
1000
,
0001
1000
0100
1000
0001
1000
0010
1000
0001
1000
0100
1000
0001
1000
0010
0100
,
0001
1000
0010
1000
0001
1000
0100
1000
0001
1000
0010
1000
0001
1000
0100
0010
,
0001
1000
0010
0100
0010
1000
0001
1000
0100
0010
0100
1000
0001
0010
0100
1000
,
0001
1000
0010
0100
0010
1000
0001
1000
0100
0010
0100
1000
0001
0100
0010
1000
,
0001
0010
0001
1000
0010
0100
0010
1000
0001
0010
0001
1000
0010
0100
0001
1000
,
0001
0100
0001
1000
0100
0010
0100
1000
0001
0100
0001
1000
0100
0010
0001
1000
,
0010
0100
0001
1000
0100
0010
0001
0100
0010
0100
0001
1000
0100
0010
0001
1000
,
0002
0003
0200
0300
0020
0030
2000
3000
0002
0003
0020
0030
0200
0300
2000
3000
0002
0003
0200
0300
0020
0030
2000
3000
0002
0003
0020
0030
0200
0300
2000
3000
,
0001
1000
0010
1000
0001
1000
0100
1000
0001
1000
0010
1000
0001
1000
0100
0010
,
0001
1000
0100
1000
0001
1000
0010
1000
0001
1000
0100
1000
0001
1000
0010
0100
,
0001
1000
0100
0010
0100
1000
0001
1000
0010
0100
0010
1000
0001
0100
0010
1000
,
0001
1000
0100
0010
0100
1000
0001
1000
0010
0100
0010
1000
0001
0010
0100
1000
,
0001
0100
0001
1000
0100
0010
0100
1000
0001
0100
0001
1000
0100
0010
0001
1000
,
0001
0010
0001
1000
0010
0100
0010
1000
0001
0010
0001
1000
0010
0100
0001
1000
,
0100
0010
0001
1000
0010
0100
0001
0010
0100
0010
0001
1000
0010
0100
0001
1000
,
0010
0100
0001
1000
0100
0010
0001
0100
0010
0100
0001
1000
0100
0010
0001
1000
,
0001
0100
0010
1000
0100
0010
0001
1000
0001
0100
0010
1000
0100
0010
0001
1000
,
0001
0010
0100
1000
0010
0100
0001
1000
0001
0010
0100
1000
0010
0100
0001
1000
,
0100
0010
0100
1000
0010
0100
0001
1000
0100
0010
0100
1000
0010
0100
0001
1000
,
0010
0100
0010
1000
0100
0010
0001
1000
0010
0100
0010
1000
0100
0010
0001
1000
,
0001
0100
0001
1000
0100
0010
0001
1000
0001
0100
0001
1000
0100
0010
0001
1000
,
0001
0010
0001
1000
0010
0100
0001
1000
0001
0010
0001
1000
0010
0100
0001
1000
,
0001
0010
0001
0100
0010
1000
0001
1000
0001
0010
0001
0100
0010
1000
0001
1000
,
0001
0010
0001
0100
0010
1000
0010
0100
0001
0010
0001
0100
0010
1000
0010
0100
,
0002
0000
0000
0000
,
0000
0000
0000
M000
0000
0000
0000
0000
,
0000
0M00
0000
0000
0000
00M0
0000
0003
,
1000
0100
0000
0100
0010
0000
0001
1000
0002
0023
0230
2300
3002
0203
0320
2030
,
3001
0000
0100
0010
0100
0000
0001
1000
0001
0010
0100
1000
0001
1000
0010
0100
,
0001
0000
0010
0100
0010
0000
0001
1000
0001
0100
0010
1000
0001
1000
0100
0010
,
0001
0000
0100
0010
0100
0000
0001
1000
0001
0010
0100
1000
0001
1000
0010
0100
,
0001
0000
0010
0100
0010
0000
0001
1000
0001
0100
0010
1000
0001
1000
0100
0010
,
0001
0000
1000
0100
1000
0000
0001
0010
0001
1000
0100
1000
0001
1000
0010
0100
,
0001
0000
1000
0010
1000
0000
0001
0100
0001
1000
0010
1000
0001
1000
0100
0010
,
0001
0000
1000
0100
1000
0000
0001
0010
0001
1000
0100
1000
0001
1000
0010
0100
,
0001
0000
1000
0010
1000
0000
0001
0100
0001
1000
0010
1000
0001
1000
0100
0010
,
0001
0000
0010
0100
0010
0000
0001
1000
0001
0100
0010
1000
0001
1000
0100
0010
,
0001
0000
0100
0010
0100
0000
0001
1000
0001
0010
0100
1000
0001
1000
0010
0100
,
0001
0000
0010
0100
0010
0000
0001
1000
0001
0100
0010
1000
0001
1000
0100
0010
,
0001
0000
0100
0010
0100
0000
0001
1000
0001
0010
0100
1000
0001
1000
0010
0100
,
0001
0000
1000
0010
1000
0000
0001
0100
0001
1000
0010
1000
0001
1000
0100
0010
,
0001
0000
1000
0100
1000
0000
0001
0010
0001
1000
0100
1000
0001
1000
0010
0100
,
0001
0000
1000
0010
1000
0000
0001
0100
0001
1000
0010
1000
0001
1000
0100
0010
,
0001
0000
1000
0100
1000
0000
0001
0010
0001
1000
0100
1000
0001
1000
0010
0100
,
0001
0000
0100
0010
0100
0000
0001
1000
0001
0010
0100
1000
0001
1000
0010
0100
,
0001
0000
0010
0100
0010
0000
0001
1000
0001
0100
0010
1000
0001
1000
0100
0010
,
0001
0000
0100
0010
0100
0000
0001
1000
0001
0010
0100
1000
0001
1000
0010
0100
,
0001
0000
0010
0100
0010
0000
0001
1000
0001
0100
0010
1000
0001
1000
0100
0010
,
0001
0000
1000
0100
1000
0000
0001
0010
0001
1000
0100
1000
0001
1000
0010
0100
,
0001
0000
1000
0010
1000
0000
0001
0100
0001
1000
0010
1000
0001
1000
0100
0010
,
0001
0000
1000
0100
1000
0000
0001
0010
0001
1000
0100
1000
0001
1000
0010
0100
,
0001
0000
1000
0010
1000
0000
0001
0100
0001
1000
0010
1000
0001
1000
0100
0010
,
0001
0000
0010
0100
0010
0000
0001
1000
0001
0100
0010
1000
0001
1000
0100
0010
,
0001
0000
0100
0010
0100
0000
0001
1000
0001
0010
0100
1000
0001
1000
0010
0100
,
0001
0000
0010
0100
0010
0000
0001
1000
0001
0100
0010
1000
0001
1000
0100
0010
,
0001
0000
0100
0010
0100
0000
0001
1000
0001
0010
0100
1000
0001
1000
0010
0100
,
0001
0000
1000
0010
1000
0000
0001
0100
0001
1000
0010
1000
0001
1000
0100
0010
,
0001
0000
1000
0100
1000
0000
0001
0010
0001
1000
0100
1000
0001
1000
0010
0100
,
0001
1000
0010
1000
0001
0100
0010
0100
0001
0010
0100
1000
0001
0010
0100
0010
,
0001
1000
0100
1000
0001
0010
0100
0010
0001
0100
0010
1000
0100
0010
0001
1000
,
0020
0000
0030
MMMM
,
0001
0010
0001
0000
0010
0100
0010
0000
0001
0100
0001
0000
1000
0010
0100
0000
,
0010
1000
0010
0000
0100
0010
0100
0000
0001
0100
0001
0000
1000
0100
0010
0000
,
0001
0100
0001
0000
0100
0010
0100
0000
0001
0010
0001
0000
1000
0100
0010
0000
,
0100
1000
0100
0000
0010
0100
0010
0000
0001
0010
0001
0000
1000
0010
0100
0000
,
0001
0010
0001
0000
0010
0100
0010
0000
0001
0100
0001
0000
1000
0010
0100
0000
,
0010
1000
0010
0000
0100
0010
0100
0000
0001
0100
0001
0000
1000
0100
0010
0000
,
0001
0100
0001
0000
1000
0100
1000
0000
0001
0100
0001
0000
1000
0010
0100
0000
,
0001
0010
0001
0000
1000
0010
1000
0000
0001
0010
0001
0000
1000
0100
0010
0000
,
0001
0100
0001
0000
0100
0010
0100
0000
0001
0010
0001
0000
1000
0100
0010
0000
,
0100
1000
0100
0000
0010
0100
0010
0000
0001
0010
0001
0000
1000
0010
0100
0000
,
0001
0010
0001
0000
0010
0100
0010
0000
0001
0100
0001
0000
1000
0010
0100
0000
,
0010
1000
0010
0000
0100
0010
0100
0000
0001
0100
0001
0000
1000
0100
0010
0000
,
0001
0100
0001
0000
0100
0010
0100
0000
0001
0010
0001
0000
1000
0100
0010
0000
,
0100
1000
0100
0000
0010
0100
0010
0000
0001
0010
0001
0000
1000
0010
0100
0000
,
0001
0010
0001
0000
1000
0010
1000
0000
0001
0010
0001
0000
1000
0100
0010
0000
,
0001
0000
0000
0010
0000
0000
0000
0000
0000
0010
0000
0000
0100
0000
0000
0000
0000
0000
1000
0000
0000
0010
0000
0000
0400
0000
0004
0000
0000
0000
0000
0000
0000
0000
0000
0000
0000
0000
0000
0000
0000
0000
0300
0000
0003
0000
0000
0000
,
2000
3000
0200
0300
0020
0030
0002
0003
2000
3000
0020
0030
0200
0300
0002
0003
2000
3000
0200
0300
0020
0030
0002
0003
2000
3000
0020
0030
0200
0300
0002
0003
,
1000
0001
0010
0001
1000
0001
0100
0001
1000
0001
0010
0001
1000
0001
0100
0010
,
1000
0001
0100
0001
1000
0001
0010
0001
1000
0001
0100
0001
1000
0001
0010
0100
,
1000
0001
0100
0010
0100
0001
1000
0001
0010
0100
0010
0001
1000
0100
0010
0001
,
1000
0001
0100
0010
0100
0001
1000
0001
0010
0100
0010
0001
1000
0010
0100
0001
,
1000
0100
1000
0001
0100
0010
0100
0001
1000
0100
1000
0001
0100
0010
1000
0001
,
1000
0010
1000
0001
0010
0100
0010
0001
1000
0010
1000
0001
0010
0100
1000
0001
,
0100
0010
1000
0001
0010
0100
1000
0010
0100
0010
1000
0001
0010
0100
1000
0001
,
2000
3000
0020
0030
0200
0300
0002
0003
2000
3000
0200
0300
0020
0030
0002
0003
2000
3000
0020
0030
0200
0300
0002
0003
2000
3000
0200
0300
0020
0030
0002
0003
,
1000
0001
0100
0001
1000
0001
0010
0001
1000
0001
0100
0001
1000
0001
0010
0100
,
1000
0001
0010
0001
1000
0001
0100
0001
1000
0001
0010
0001
1000
0001
0100
0010
,
1000
0001
0010
0100
0010
0001
1000
0001
0100
0010
0100
0001
1000
0010
0100
0001
,
1000
0001
0010
0100
0010
0001
1000
0001
0100
0010
0100
0001
1000
0100
0010
0001
,
1000
0010
1000
0001
0010
0100
0010
0001
1000
0010
1000
0001
0010
0100
1000
0001
,
1000
0100
1000
0001
0100
0010
0100
0001
1000
0100
1000
0001
0100
0010
1000
0001
,
0010
0100
1000
0001
0100
0010
1000
0100
0010
0100
1000
0001
0100
0010
1000
0001
,
0100
0010
1000
0001
0010
0100
1000
0010
0100
0010
1000
0001
0010
0100
1000
0001
,
1000
0001
0010
0001
1000
0001
0100
0001
1000
0001
0010
0001
1000
0001
0100
0010
,
1000
0001
0100
0001
1000
0001
0010
0001
1000
0001
0100
0001
1000
0001
0010
0100
,
1000
0001
0100
0010
0100
0001
1000
0001
0010
0100
0010
0001
1000
0100
0010
0001
,
1000
0001
0100
0010
0100
0001
1000
0001
0010
0100
0010
0001
1000
0010
0100
0001
,
1000
0100
1000
0001
0100
0010
0100
0001
1000
0100
1000
0001
0100
0010
1000
0001
,
1000
0010
1000
0001
0010
0100
0010
0001
1000
0010
1000
0001
0010
0100
1000
0001
,
0100
0010
1000
0001
0010
0100
1000
0010
0100
0010
1000
0001
0010
0100
1000
0001
,
2000
3000
0020
0030
0200
0300
0002
0003
2000
3000
0200
0300
0020
0030
0002
0003
2000
3000
0020
0030
0200
0300
0002
0003
2000
3000
0200
0300
0020
0030
0002
0003
,
1000
0001
0100
0001
1000
0001
0010
0001
1000
0001
0100
0001
1000
0001
0010
0100
,
1000
0001
0010
0001
1000
0001
0100
0001
1000
0001
0010
0001
1000
0001
0100
0010
,
1000
0001
0010
0100
0010
0001
1000
0001
0100
0010
0100
0001
1000
0010
0100
0001
,
1000
0001
0010
0100
0010
0001
1000
0001
0100
0010
0100
0001
1000
0100
0010
0001
,
1000
0010
1000
0001
0010
0100
0010
0001
1000
0010
1000
0001
0010
0100
1000
0001
,
1000
0100
1000
0001
0100
0010
0100
0001
1000
0100
1000
0001
0100
0010
1000
0001
,
0010
0100
1000
0001
0100
0010
1000
0100
0010
0100
1000
0001
0100
0010
1000
0001
,
0100
0010
1000
0001
0010
0100
1000
0010
0100
0010
1000
0001
0010
0100
1000
0001
,
1000
0010
0100
0001
0010
0100
1000
0001
1000
0010
0100
0001
0010
0100
1000
0001
,
1000
0100
0010
0001
0100
0010
1000
0001
1000
0100
0010
0001
0100
0010
1000
0001
,
1000
0100
1000
0010
0100
0001
1000
0001
1000
0100
1000
0010
0100
0001
1000
0001
,
1000
0100
1000
0010
0100
0001
0100
0010
1000
0100
1000
0010
0100
0001
0100
0010
,
2000
0000
0000
0000
,
0000
0000
0000
0000
,
0000
0000
0000
0000
,
3001
0010
0000
0010
0100
0000
1000
0001
2000
3200
0320
0032
2003
3020
0230
0302
,
1003
0000
0010
0100
0010
0000
1000
0001
1000
0100
0010
0001
1000
0001
0100
0010
,
1000
0000
0100
0010
0100
0000
1000
0001
1000
0010
0100
0001
1000
0001
0010
0100
,
1000
0000
0010
0100
0010
0000
1000
0001
1000
0100
0010
0001
1000
0001
0100
0010
,
1000
0000
0100
0010
0100
0000
1000
0001
1000
0010
0100
0001
1000
0001
0010
0100
,
1000
0000
0001
0010
0001
0000
1000
0100
1000
0001
0010
0001
1000
0001
0100
0010
,
1000
0000
0001
0100
0001
0000
1000
0010
1000
0001
0100
0001
1000
0001
0010
0100
,
1000
0000
0001
0010
0001
0000
1000
0100
1000
0001
0010
0001
1000
0001
0100
0010
,
1000
0000
0001
0100
0001
0000
1000
0010
1000
0001
0100
0001
1000
0001
0010
0100
,
1000
0000
0100
0010
0100
0000
1000
0001
1000
0010
0100
0001
1000
0001
0010
0100
,
1000
0000
0010
0100
0010
0000
1000
0001
1000
0100
0010
0001
1000
0001
0100
0010
,
1000
0000
0100
0010
0100
0000
1000
0001
1000
0010
0100
0001
1000
0001
0010
0100
,
1000
0000
0010
0100
0010
0000
1000
0001
1000
0100
0010
0001
1000
0001
0100
0010
,
1000
0000
0001
0100
0001
0000
1000
0010
1000
0001
0100
0001
1000
0001
0010
0100
,
1000
0000
0001
0010
0001
0000
1000
0100
1000
0001
0010
0001
1000
0001
0100
0010
,
1000
0000
0001
0100
0001
0000
1000
0010
1000
0001
0100
0001
1000
0001
0010
0100
,
1000
0000
0001
0010
0001
0000
1000
0100
1000
0001
0010
0001
1000
0001
0100
0010
,
1000
0000
0010
0100
0010
0000
1000
0001
1000
0100
0010
0001
1000
0001
0100
0010
,
1000
0000
0100
0010
0100
0000
1000
0001
1000
0010
0100
0001
1000
0001
0010
0100
,
1000
0000
0010
0100
0010
0000
1000
0001
1000
0100
0010
0001
1000
0001
0100
0010
,
1000
0000
0100
0010
0100
0000
1000
0001
1000
0010
0100
0001
1000
0001
0010
0100
,
1000
0000
0001
0010
0001
0000
1000
0100
1000
0001
0010
0001
1000
0001
0100
0010
,
1000
0000
0001
0100
0001
0000
1000
0010
1000
0001
0100
0001
1000
0001
0010
0100
,
1000
0000
0001
0010
0001
0000
1000
0100
1000
0001
0010
0001
1000
0001
0100
0010
,
1000
0000
0001
0100
0001
0000
1000
0010
1000
0001
0100
0001
1000
0001
0010
0100
,
1000
0000
0100
0010
0100
0000
1000
0001
1000
0010
0100
0001
1000
0001
0010
0100
,
1000
0000
0010
0100
0010
0000
1000
0001
1000
0100
0010
0001
1000
0001
0100
0010
,
1000
0000
0100
0010
0100
0000
1000
0001
1000
0010
0100
0001
1000
0001
0010
0100
,
1000
0000
0010
0100
0010
0000
1000
0001
1000
0100
0010
0001
1000
0001
0100
0010
,
1000
0000
0001
0100
0001
0000
1000
0010
1000
0001
0100
0001
1000
0001
0010
0100
,
1000
0000
0001
0010
0001
0000
1000
0100
1000
0001
0010
0001
1000
0001
0100
0010
,
1000
0001
0100
0001
1000
0010
0100
0010
1000
0100
0010
0001
1000
0100
0010
0100
,
1000
0001
0010
0001
1000
0100
0010
0100
1000
0010
0100
0001
0010
0100
1000
0001
,
0200
0000
0300
MMMM
,
1000
0100
1000
0000
0100
0010
0100
0000
1000
0010
1000
0000
0001
0100
0010
0000
,
0100
0001
0100
0000
0010
0100
0010
0000
1000
0010
1000
0000
0001
0010
0100
0000
,
1000
0010
1000
0000
0010
0100
0010
0000
1000
0100
1000
0000
0001
0010
0100
0000
,
0010
0001
0010
0000
0100
0010
0100
0000
1000
0100
1000
0000
0001
0100
0010
0000
,
1000
0100
1000
0000
0100
0010
0100
0000
1000
0010
1000
0000
0001
0100
0010
0000
,
0100
0001
0100
0000
0010
0100
0010
0000
1000
0010
1000
0000
0001
0010
0100
0000
,
1000
0010
1000
0000
0001
0010
0001
0000
1000
0010
1000
0000
0001
0100
0010
0000
,
1000
0100
1000
0000
0001
0100
0001
0000
1000
0100
1000
0000
0001
0010
0100
0000
,
1000
0010
1000
0000
0010
0100
0010
0000
1000
0100
1000
0000
0001
0010
0100
0000
,
0010
0001
0010
0000
0100
0010
0100
0000
1000
0100
1000
0000
0001
0100
0010
0000
,
1000
0100
1000
0000
0100
0010
0100
0000
1000
0010
1000
0000
0001
0100
0010
0000
,
0100
0001
0100
0000
0010
0100
0010
0000
1000
0010
1000
0000
0001
0010
0100
0000
,
1000
0010
1000
0000
0010
0100
0010
0000
1000
0100
1000
0000
0001
0010
0100
0000
,
0010
0001
0010
0000
0100
0010
0100
0000
1000
0100
1000
0000
0001
0100
0010
0000
,
1000
0100
1000
0000
0001
0100
0001
0000
1000
0100
1000
0000
0001
0010
0100
0000
,
1000
0000
0000
0100
0000
0000
0000
0000
0000
0100
0000
0000
0010
0000
0000
0000
0000
0000
0001
0000
0000
0100
0000
0000
0040
0000
4000
0000
0000
0000
0000
0000
0000
0000
0000
0000
0000
0000
0000
0000
0000
0000
0030
0000
3000
0000
0000
0000
,
0002
0003
0020
0030
0200
0300
2000
3000
0002
0003
0200
0300
0020
0030
2000
3000
0002
0003
0020
0030
0200
0300
2000
3000
0002
0003
0200
0300
0020
0030
2000
3000
,
0001
1000
0100
1000
0001
1000
0010
1000
0001
1000
0100
1000
0001
1000
0010
0100
,
0001
1000
0010
1000
0001
1000
0100
1000
0001
1000
0010
1000
0001
1000
0100
0010
,
0001
1000
0010
0100
0010
1000
0001
1000
0100
0010
0100
1000
0001
0010
0100
1000
,
0001
1000
0010
0100
0010
1000
0001
1000
0100
0010
0100
1000
0001
0100
0010
1000
,
0001
0010
0001
1000
0010
0100
0010
1000
0001
0010
0001
1000
0010
0100
0001
1000
,
0001
0100
0001
1000
0100
0010
0100
1000
0001
0100
0001
1000
0100
0010
0001
1000
,
0010
0100
0001
1000
0100
0010
0001
0100
0010
0100
0001
1000
0100
0010
0001
1000
,
0002
0003
0200
0300
0020
0030
2000
3000
0002
0003
0020
0030
0200
0300
2000
3000
0002
0003
0200
0300
0020
0030
2000
3000
0002
0003
0020
0030
0200
0300
2000
3000
,
0001
1000
0010
1000
0001
1000
0100
1000
0001
1000
0010
1000
0001
1000
0100
0010
,
0001
1000
0100
1000
0001
1000
0010
1000
0001
1000
0100
1000
0001
1000
0010
0100
,
0001
1000
0100
0010
0100
1000
0001
1000
0010
0100
0010
1000
0001
0100
0010
1000
,
0001
1000
0100
0010
0100
1000
0001
1000
0010
0100
0010
1000
0001
0010
0100
1000
,
0001
0100
0001
1000
0100
0010
0100
1000
0001
0100
0001
1000
0100
0010
0001
1000
,
0001
0010
0001
1000
0010
0100
0010
1000
0001
0010
0001
1000
0010
0100
0001
1000
,
0100
0010
0001
1000
0010
0100
0001
0010
0100
0010
0001
1000
0010
0100
0001
1000
,
0010
0100
0001
1000
0100
0010
0001
0100
0010
0100
0001
1000
0100
0010
0001
1000
,
0001
1000
0100
1000
0001
1000
0010
1000
0001
1000
0100
1000
0001
1000
0010
0100
,
0001
1000
0010
1000
0001
1000
0100
1000
0001
1000
0010
1000
0001
1000
0100
0010
,
0001
1000
0010
0100
0010
1000
0001
1000
0100
0010
0100
1000
0001
0010
0100
1000
,
0001
1000
0010
0100
0010
1000
0001
1000
0100
0010
0100
1000
0001
0100
0010
1000
,
0001
0010
0001
1000
0010
0100
0010
1000
0001
0010
0001
1000
0010
0100
0001
1000
,
0001
0100
0001
1000
0100
0010
0100
1000
0001
0100
0001
1000
0100
0010
0001
1000
,
0010
0100
0001
1000
0100
0010
0001
0100
0010
0100
0001
1000
0100
0010
0001
1000
,
0002
0003
0200
0300
0020
0030
2000
3000
0002
0003
0020
0030
0200
0300
2000
3000
0002
0003
0200
0300
0020
0030
2000
3000
0002
0003
0020
0030
0200
0300
2000
3000
,
0001
1000
0010
1000
0001
1000
0100
1000
0001
1000
0010
1000
0001
1000
0100
0010
,
0001
1000
0100
1000
0001
1000
0010
1000
0001
1000
0100
1000
0001
1000
0010
0100
,
0001
1000
0100
0010
0100
1000
0001
1000
0010
0100
0010
1000
0001
0100
0010
1000
,
0001
1000
0100
0010
0100
1000
0001
1000
0010
0100
0010
1000
0001
0010
0100
1000
,
0001
0100
0001
1000
0100
0010
0100
1000
0001
0100
0001
1000
0100
0010
0001
1000
,
0001
0010
0001
1000
0010
0100
0010
1000
0001
0010
0001
1000
0010
0100
0001
1000
,
0100
0010
0001
1000
0010
0100
0001
0010
0100
0010
0001
1000
0010
0100
0001
1000
,
0010
0100
0001
1000
0100
0010
0001
0100
0010
0100
0001
1000
0100
0010
0001
1000
,
0001
0100
0010
1000
0100
0010
0001
1000
0001
0100
0010
1000
0100
0010
0001
1000
,
0001
0010
0100
1000
0010
0100
0001
1000
0001
0010
0100
1000
0010
0100
0001
1000
,
0001
0010
0001
0100
0010
1000
0001
1000
0001
0010
0001
0100
0010
1000
0001
1000
,
0001
0010
0001
0100
0010
1000
0010
0100
0001
0010
0001
0100
0010
1000
0010
0100
,
0002
0000
0000
0000
,
0000
0000
0000
0000
,
0000
0000
0000
0000
0000
0000
0000
0003
;
