#TITLE:Circle Pit;
#SUBTITLE:;
#ARTIST:Venetian Snares;
#TITLETRANSLIT:;
#SUBTITLETRANSLIT:;
#ARTISTTRANSLIT:;
#CREDIT:;
#BANNER:../fthescorept1bn.png;
#BACKGROUND:../fthescorept1bg.png;
#LYRICSPATH:;
#CDTITLE:;
#MUSIC:Circle Pit.ogg;
#OFFSET:-0.027;
#SAMPLESTART:0.020;
#SAMPLELENGTH:10.970;
#SELECTABLE:YES;
#BPMS:0.000=261.000;
#STOPS:;
#BGCHANGES:;
// cache tags:
#FIRSTBEAT:0.000;
#LASTBEAT:97.750;
#SONGFILENAME:Songs/Fuck The Score Part I/Circle Pit [Dossar]/Circle Pit.sm;
#HASMUSIC:1;
#HASBANNER:1;
#MUSICLENGTH:22.909;
// end cache tags

//---------------dance-single - ----------------
#NOTES:
     dance-single:
     :
     Challenge:
     17:
     1.000,1.000,0.044,0.000,1.000,289.000,1.000,0.000,0.000,0.000:
1000
0010
1000
0010
0100
0001
1000
0010
,
1000
0010
0100
0001
1000
0010
1000
0010
,
0100
0000
0001
0000
1000
0000
0001
0000
1000
0100
0010
0001
1000
0100
0010
0001
,
1000
0010
1000
0010
0100
0001
1000
0010
,
1000
0010
0100
0001
1000
0010
1000
0010
,
0100
0000
0001
0000
1000
0000
0001
0000
1000
0100
0010
0001
1000
0100
0010
0001
,
1000
0010
1000
0010
0100
0001
1000
0010
,
1000
0010
0100
0001
1000
0010
1000
0010
,
0100
0000
0001
0000
1000
0000
0001
0000
1000
0100
0010
0001
1000
0100
0010
0001
,
1000
0010
1000
0010
0100
0001
1000
0010
,
1000
0010
0100
0001
1000
0010
1000
0010
,
0100
0001
1000
0001
0000
0000
0000
0000
,
1000
0010
0100
0001
1000
0001
0100
0010
1000
0001
1000
0010
0100
0001
1000
0001
,
0100
0010
1000
0001
0100
0010
0100
0010
1000
0001
0010
0100
1000
0001
0010
0001
,
1000
0100
0010
0001
1000
0100
1000
0001
0010
0001
1000
0100
0010
0001
0010
0001
,
1000
0010
0100
0001
1000
0001
0100
0010
1000
0001
1000
0010
0100
0001
1000
0001
,
0100
0010
1000
0001
0100
0010
0100
0010
1000
0001
0010
0100
1000
0001
0010
0001
,
1000
0100
0010
0001
1000
0100
1000
0001
0010
0100
0010
0001
0000
0000
0000
0000
,
1000
0010
0100
0001
1000
0001
0100
0010
1000
0001
1000
0010
0100
0001
1000
0001
,
0100
0010
1000
0001
0100
0010
0100
0010
1000
0001
0010
0100
1000
0001
0010
0001
,
1000
0100
0010
0001
1000
0100
1000
0001
0010
0001
1000
0100
0010
0001
0010
0001
,
1000
0010
0100
0001
1000
0001
0100
0010
1000
0001
1000
0010
0100
0001
1000
0001
,
0100
0010
1000
0001
0100
0010
0100
0010
1000
0001
0010
0100
1000
0001
0010
0001
,
1000
0100
0010
0001
1000
0100
1000
0001
0010
0100
0010
0001
0000
0000
0000
0000
,
0000
0000
0000
0000
0000
0000
0000
1001
0000
0000
0000
0000
0000
0000
0000
0000
;
