#TITLE:Quadra Girlz;
#SUBTITLE:;
#ARTIST:DJ Sharpnel;
#TITLETRANSLIT:;
#SUBTITLETRANSLIT:;
#ARTISTTRANSLIT:;
#CREDIT:;
#BANNER:quadra bnz.png;
#BACKGROUND:quadra bgz.png;
#LYRICSPATH:;
#CDTITLE:;
#MUSIC:Quadra Girlz.ogg;
#OFFSET:-0.047;
#SAMPLESTART:113.847;
#SAMPLELENGTH:20.688;
#SELECTABLE:YES;
#DISPLAYBPM:186.000;
#BPMS:0.000=185.604,288.000=92.802,320.000=185.604;
#STOPS:;
#BGCHANGES:;
// cache tags:
#FIRSTBEAT:32.000;
#LASTBEAT:800.000;
#SONGFILENAME:Songs/SHARPNELSTREAMZ v2/Quadra Girlz/Quadra Girlz.sm;
#HASMUSIC:1;
#HASBANNER:1;
#MUSICLENGTH:269.688;
// end cache tags

//---------------dance-single - 15 (TYLR)----------------
#NOTES:
     dance-single:
     15 (TYLR):
     Challenge:
     15:
     1.000,1.000,0.044,0.434,1.000,2534.000,12.000,117.000,59.000,0.000:
0000
0000
0000
0000
,
0000
0000
0000
0000
,
0000
0000
0000
0000
,
0000
0000
0000
0000
,
0000
0000
0000
0000
,
0000
0000
0000
0000
,
0000
0000
0000
0000
,
0000
0000
0000
0000
,
1001
0000
1000
0000
0010
0000
0100
0001
0100
0001
1000
0100
0010
0000
0100
1000
,
0001
0000
0001
0000
0100
0000
0010
1000
0010
1000
0001
0010
0100
0000
0010
0001
,
1000
0000
1000
0000
0010
0000
0100
0001
0100
0001
1000
0100
0010
0000
0100
1000
,
00M0
0000
0000
0000
,
1001
0000
0001
0000
0010
0000
0100
1000
0100
1000
0001
0100
0010
0000
0100
0001
,
1000
0000
1000
0000
0100
0000
0010
0001
0010
0001
1000
0010
0100
0000
0010
1000
,
0001
0000
0001
0000
0010
0000
0100
1000
0100
1000
0001
0100
0010
0000
0100
0001
,
10M0
0001
1000
0001
1000
0001
1000
0001
,
0100
0001
0100
0001
0010
0100
1000
0001
1000
0010
0100
0001
0010
0100
1000
0001
,
0100
0001
1000
0100
0010
0100
1000
0001
1000
0010
0100
0001
0010
0100
1000
0001
,
0010
0001
0010
0001
0100
0010
1000
0001
1000
0100
0010
0001
0100
0010
1000
0001
,
0010
0001
1000
0010
0100
0010
1000
0001
1000
0100
0010
0001
0100
0010
1000
0001
,
0100
0001
0100
0001
0010
0100
1000
0001
1000
0010
0100
0001
0010
0100
1000
0001
,
0100
0001
1000
0100
0010
0100
1000
0001
1000
0010
0100
0001
0010
0100
1000
0001
,
0010
0001
0010
0001
0100
0010
1000
0001
1000
0100
0010
0001
0100
0010
1000
0001
,
0010
0001
1000
0010
0100
0010
1000
0001
1000
0100
0010
0001
0100
0000
0000
0000
,
0010
1000
0010
1000
0100
0010
0001
1000
0001
0100
0010
1000
0100
0010
0001
1000
,
0010
1000
0001
0010
0100
0010
0001
1000
0001
0100
0010
1000
0100
0010
0001
1000
,
0100
1000
0100
1000
0010
0100
0001
1000
0001
0010
0100
1000
0010
0100
0001
1000
,
0100
1000
0001
0100
0010
0100
0001
1000
0001
0010
0100
1000
0010
0100
0001
1000
,
0010
1000
0010
1000
0100
0010
0001
1000
0001
0100
0010
1000
0100
0010
0001
1000
,
0010
1000
0001
0010
0100
0010
0001
1000
0001
0100
0010
1000
0100
0010
0001
1000
,
0100
1000
0100
1000
0010
0100
0001
1000
0001
0010
0100
1000
0010
0100
0010
1000
,
0001
1000
0001
1000
0001
1000
0001
1000
0001
1000
0001
1000
0001
0000
0000
0000
,
1000
0010
1000
0010
0100
0001
0010
0100
1000
0010
1000
0010
0100
0001
0010
0100
,
1000
0001
1000
0001
1000
0100
0010
0001
1000
0001
0010
0100
1000
0001
0100
0001
,
1000
0010
1000
0010
0100
0001
0010
0100
1000
0010
1000
0010
0100
0001
0010
0100
,
1000
0001
1000
0001
1000
0100
0010
0001
1000
0001
0010
0100
1000
0001
0100
0001
,
0010
0100
0010
0100
1000
0001
0100
0001
0010
0100
0010
0100
1000
0001
0100
0001
,
1000
0100
1000
0100
0010
0001
1000
0001
1000
0010
0100
0001
1000
0001
0100
0001
,
0010
0100
0010
0100
1000
0001
0100
0001
0010
0100
0010
0100
1000
0001
0100
0001
,
1000
0100
1000
0100
0010
0001
1000
0001
0100
0010
0100
0001
0010
0100
1000
0010
,
0100
0001
0100
0001
1000
0100
0010
0001
0100
0001
0100
0001
1000
0100
0010
0001
,
1000
0010
1000
0010
0100
0001
1000
0001
0010
0100
1000
0100
0010
0001
1000
0010
,
0100
0001
0100
0001
1000
0100
0010
0001
0100
0001
0100
0001
1000
0100
0010
0001
,
1000
0010
1000
0010
0100
0001
1000
0001
0010
0100
0010
0001
1000
0001
0100
0010
,
1000
0100
1000
0100
0010
0001
0100
0010
1000
0100
1000
0100
0010
0001
0100
0010
,
1000
0001
1000
0001
0010
0100
1000
0001
0100
0010
1000
0001
1000
0010
0100
0001
,
1000
0100
1000
0100
0010
0001
0100
0010
1000
0100
1000
0100
0010
0001
0100
0010
,
1000
0001
1000
0001
1000
0100
0010
0001
1000
0001
0010
0100
1000
0001
0100
0010
,
1000
0001
0010
0001
0010
0100
1000
0001
0100
0001
1000
0100
0010
0100
1000
0001
,
0100
0001
1000
0100
0010
0001
0100
0010
1000
0010
0100
0001
0010
0100
0010
0100
,
1000
0001
0010
0001
0010
0100
1000
0001
0100
0001
1000
0100
0010
0100
1000
0001
,
0100
0001
1000
0100
0010
0001
0100
0010
1000
0010
0100
0001
0010
0100
0010
0001
,
1000
0001
0010
0001
0010
0100
1000
0001
0100
0001
1000
0100
0010
0100
1000
0001
,
0100
0001
0010
0001
0010
0100
1000
0001
0100
0001
1000
0100
0010
0100
1000
0001
,
0100
0001
0010
0001
0010
0100
1000
0001
0100
0001
1000
0100
0010
0100
1000
0001
,
0100
0001
1000
0100
0010
0001
0100
0001
1000
0010
0100
0001
0010
0001
0010
0001
,
1000
0001
0100
0001
0100
0010
1000
0001
0010
0001
1000
0010
0100
0010
1000
0001
,
0010
0001
1000
0010
0100
0001
0010
0100
1000
0100
0010
0001
0100
0010
0100
0010
,
1000
0001
0100
0001
0100
0010
1000
0001
0010
0001
1000
0010
0100
0010
1000
0001
,
0010
0001
1000
0010
0100
0001
0010
0100
1000
0100
0010
0001
0100
0010
0100
0001
,
1000
0001
0100
0001
0100
0010
1000
0001
0010
0001
1000
0010
0100
0010
1000
0001
,
0010
0001
0100
0001
0100
0010
1000
0001
0010
0001
1000
0010
0100
0010
1000
0001
,
0010
0001
0100
0001
0100
0010
1000
0001
0010
0001
1000
0010
0100
0010
1000
0001
,
0010
0001
1000
0010
0100
0001
0010
0001
1000
0100
0010
0001
0100
0001
0100
0001
,
1000
0100
0010
0001
0100
0001
0010
0100
1000
0010
0100
0001
0010
0001
0100
0010
,
1000
0100
0010
0001
0100
0001
0010
0100
1000
0010
0100
0001
0010
0001
0100
0010
,
1000
0100
0010
0001
0100
0001
0010
0100
1000
0010
0100
0001
0010
0001
0100
0010
,
1000
0100
0010
0001
0100
0001
0010
0100
1000
0010
0100
0001
0010
0001
0100
0010
,
1000
0100
0010
0001
0100
0001
0010
0100
1000
0010
0100
0001
0010
0001
0100
0010
,
1000
0100
0010
0001
0100
0001
0010
0100
1000
0010
0100
0001
0010
0001
0100
0010
,
1000
0100
0010
0001
0010
0001
0100
0010
1000
0001
1000
0001
0010
0100
1000
0001
,
0100
0100
0100
0100
0001
0001
1000
0000
,
10M2
0000
0M00
0000
00M0
0000
M000
0000
0000
0M00
0000
0000
M000
0000
0000
00M0
0000
0000
0000
0000
0M00
0000
0000
0000
00M0
0000
0000
0000
M000
0000
0000
0000
0000
00M0
0000
0000
0203
0000
0000
0000
M000
0000
0000
0000
0000
0000
0000
0000
,
0302
0000
0000
0000
0000
0000
0000
0000
0000
0000
0000
0000
0000
0000
0000
0000
0000
0000
0000
0000
0000
0000
0000
0000
0000
0000
0000
0000
0000
0000
0000
0000
2003
0000
0000
0000
0000
0000
0000
0000
0000
0000
0000
0000
0000
0000
0000
0000
3200
M000
0000
0000
0000
0000
0000
0000
0000
0000
0000
0000
0000
0000
0000
0000
,
0320
0000
0000
0032
,
2003
0000
0000
0000
0000
0000
0000
0000
0000
0000
0000
0000
0000
0000
0000
0000
0000
0000
0000
0000
0000
0000
0000
0000
0000
0000
0000
0000
0000
0000
0000
0000
3020
0000
0000
0000
0000
0000
0000
0000
0000
0000
0000
0000
0000
0000
0000
0000
0230
00M0
0000
0000
0000
0000
0000
0000
0000
0000
0000
0000
0000
0000
0000
0000
,
0310
1000
0001
1000
0010
0100
0001
1000
0001
0100
0010
1000
0001
0010
0100
1000
,
0001
0100
0001
1000
0010
0100
0001
1000
0100
0010
0100
1000
0010
0100
0001
1000
,
0001
0000
1000
0010
1000
0000
0001
0100
0001
0000
1000
0100
1000
0000
0001
0010
0100
0000
1000
0001
1000
0000
0001
0100
0001
0000
1000
0010
1000
0000
0100
1000
,
0001
0100
0010
1000
0010
1000
0100
0010
0001
1000
0001
1000
0010
0100
0001
1000
0010
0000
0010
0000
0010
0000
0010
0000
0100
0000
0100
0000
0001
0000
0000
0000
,
1000
0100
1000
0100
0010
0001
0100
0010
1000
0010
0100
0001
1000
0001
0010
0100
,
1000
0001
0100
0010
0100
0001
1000
0001
0010
0100
1000
0100
0010
0001
1000
0001
,
1000
0010
1000
0010
0100
0001
0010
0100
1000
0100
0010
0001
1000
0001
0100
0010
,
1000
0001
0010
0100
0010
0001
1000
0001
0100
0010
1000
0001
0010
0100
0010
0001
,
1000
0100
1000
0100
0010
0001
0100
0010
1000
0010
0100
0001
1000
0001
0010
0100
,
1000
0001
0100
0010
0100
0001
1000
0001
0010
0100
1000
0100
0010
0001
1000
0001
,
1000
0010
1000
0010
0100
0001
0010
0100
1000
0100
0010
0001
1000
0001
0100
0010
,
1000
0001
0010
0100
0010
0001
1000
0001
0100
0010
1000
0001
0010
0001
0100
0010
,
1000
0100
1000
0100
0010
0001
0100
0010
1000
0010
0100
0001
1000
0001
0010
0100
,
1000
0001
0100
0010
0100
0001
1000
0001
0010
0100
1000
0100
0010
0001
1000
0001
,
1000
0010
1000
0010
0100
0001
0010
0100
1000
0100
0010
0001
1000
0001
0100
0010
,
1000
0001
0010
0100
0010
0001
1000
0001
0100
0010
1000
0001
0010
0100
0010
0001
,
1000
0100
1000
0100
0010
0001
0100
0010
1000
0010
0100
0001
1000
0001
0010
0100
,
1000
0001
0100
0010
0100
0001
1000
0100
0010
0001
0100
0010
1000
0010
0100
0001
,
0010
0000
0001
1001
0000
0100
1010
0010
,
0110
0000
0000
0000
0001
0000
0011
0000
1000
0000
1000
0000
0010
1000
0100
0000
,
1000
0001
0100
0001
0100
0010
1000
0001
0010
0001
1000
0010
0100
0010
1000
0001
,
0010
0001
1000
0010
0100
0001
0010
0100
1000
0100
0010
0001
0100
0010
0100
0010
,
1000
0001
0100
0001
0100
0010
1000
0001
0010
0001
1000
0010
0100
0010
1000
0001
,
0010
0001
1000
0010
0100
0001
0010
0100
1000
0100
0010
0001
0100
0010
0100
0001
,
1000
0001
0100
0001
0100
0010
1000
0001
0010
0001
1000
0010
0100
0010
1000
0001
,
0010
0001
0100
0001
0100
0010
1000
0001
0010
0001
1000
0010
0100
0010
1000
0001
,
0010
0001
0100
0001
0100
0010
1000
0001
0010
0001
1000
0010
0100
0010
1000
0001
,
0010
0001
1000
0010
0100
0001
0010
0001
1000
0100
0010
0001
0100
0001
0100
0001
,
1000
0001
0010
0001
0010
0100
1000
0001
0100
0001
1000
0100
0010
0100
1000
0001
,
0100
0001
1000
0100
0010
0001
0100
0010
1000
0010
0100
0001
0010
0100
0010
0100
,
1000
0001
0010
0001
0010
0100
1000
0001
0100
0001
1000
0100
0010
0100
1000
0001
,
0100
0001
1000
0100
0010
0001
0100
0010
1000
0010
0100
0001
0010
0100
0010
0001
,
1000
0010
1000
0001
0010
0100
1000
0001
,
0100
0010
0100
0001
0010
0100
1000
0001
,
1000
0010
1000
0001
0100
0010
1000
0001
0010
0100
1000
0001
0100
0010
1000
0100
,
0010
0000
0010
0000
0010
0000
0010
0000
0100
0000
0100
0000
1000
0010
0100
0000
,
0210
0000
0000
0000
0001
0000
0300
0100
0020
0000
1030
0000
0001
1000
0001
0000
,
2000
3000
0000
0000
0200
0300
0000
0010
0002
0000
2003
0000
3002
0013
0100
0000
,
2000
0000
0000
0000
0001
0000
3000
1000
0020
0000
0130
0000
0001
0100
0001
0000
,
2MM0
3000
0000
0000
0002
0003
0000
0010
0200
0000
2300
0000
3002
0103
0010
0000
,
2000
0000
0000
0000
0001
0000
3000
1000
0200
0000
0310
0000
0001
0010
0001
0000
,
2000
3000
0000
0000
0020
0030
0000
0100
0002
0000
2003
0000
3002
0103
0010
0000
,
2000
0000
0000
3000
0000
0000
0000
0000
0001
0000
0000
0000
0010
0000
0000
0000
0100
0000
0000
0000
1000
0000
0000
0000
0001
0000
0000
0000
0000
0000
0000
0000
1000
0000
0000
0000
0010
0000
0000
0000
0100
0000
0000
0000
0001
0000
0000
0000
,
0010
0001
1000
0010
0100
0001
1000
0000
1000
0200
0000
1300
,
10M2
0000
0000
0000
0000
0000
M000
0000
0000
0000
0000
0000
1M00
0000
0000
0000
0000
0000
0003
0000
00M0
0001
0000
0000
0200
0000
0000
0000
M000
0000
0310
0000
0000
0000
0000
0000
100M
0000
0000
0010
0000
0000
1000
0000
0000
0000
0000
0000
,
0M02
0000
0000
0003
0000
0000
0000
0000
0000
0000
0000
0000
M020
0000
0000
0030
0000
0000
0000
0000
000M
0100
0000
0000
2000
0000
0000
0000
0000
0000
3002
0000
00M0
0000
0000
0000
2003
0000
0000
3100
0000
0000
0010
0000
0000
0000
0000
0000
,
0002
0000
0000
0000
1000
0000
0003
0001
0200
0000
0310
0000
1000
0010
1000
0000
,
0002
0003
0000
0000
2000
3000
0000
0100
0020
0000
0032
0000
2003
3010
0100
0000
,
0002
0000
0000
0000
1000
0000
0003
0001
0020
0000
0130
0000
1000
0100
1000
0000
,
0002
0003
0000
0000
0200
0300
0000
0010
2000
0000
3002
0000
2003
3010
0100
0000
,
0002
0000
0000
0000
1000
0000
0003
0001
0020
0000
0130
0000
1000
0100
1000
0000
,
0002
0003
0000
0000
2000
3000
0000
0010
0200
0000
0302
0000
2003
3001
1000
0000
,
2M01
0000
0000
0000
0000
0000
000M
0000
0000
0000
0000
0000
00M1
0000
0000
0000
0000
0000
3000
0000
0M00
1000
0000
0000
0020
0000
0000
0000
000M
0000
0130
0000
0000
0000
0000
0000
M001
0000
0000
0100
0000
0000
0001
0000
0000
0000
0000
0000
,
20M0
0000
0000
3000
0000
0000
0000
0000
0000
0000
0000
0000
020M
0000
0000
0300
0000
0000
0000
0000
M000
0010
0000
0000
0002
0000
0000
0000
0000
0000
2003
0000
0M00
0000
0000
0000
3002
0000
0000
0013
0000
0000
0100
0000
0000
0000
0000
0000
,
2000
0000
0000
0000
0001
0000
3000
1000
0020
0000
0130
0000
0001
0100
0001
0000
,
2000
3000
0000
0000
0002
0003
0000
0010
0200
0000
2300
0000
3002
0103
0010
0000
,
2000
0000
0000
0000
0001
0000
3000
1000
0200
0000
0310
0000
0001
0010
0001
0000
,
2000
3000
0000
0000
0020
0030
0000
0100
0002
0000
2003
0000
3002
0103
0010
0000
,
2000
0000
0000
0000
0001
0000
3000
1000
0200
0000
0310
0000
0001
0010
0001
0000
,
2000
3000
0000
0000
0002
0003
0000
0100
0020
0000
2030
0000
3002
1003
0001
0000
,
10M1
0000
0000
1M00
0000
0000
001M
0000
0000
1000
00M0
0000
0100
0000
M000
0010
0000
0000
010M
0000
0000
1000
0000
0000
,
0M01
0000
0000
0100
0000
0000
M010
0000
0000
0100
00M0
0000
0001
0000
0000
0010
0M00
0000
0100
0000
0000
1000
0000
0000
,
0001
0100
0001
0010
0100
0010
0001
1000
,
0010
0100
0001
0100
0010
1000
0100
0010
,
0001
0100
0001
1000
0100
0010
0100
1000
,
0010
0100
0001
1000
0100
1000
0001
0100
,
0001
0010
0100
1000
0100
1000
0001
0010
0100
1000
0100
1000
0001
0010
0100
1000
,
0001
0001
0001
0001
1000
1000
0010
0000
,
1000
0100
1000
0100
0010
0001
0100
0010
1000
0010
0100
0001
1000
0001
0010
0100
,
1000
0001
0100
0010
0100
0001
1000
0001
0010
0100
1000
0100
0010
0001
1000
0001
,
1000
0010
1000
0010
0100
0001
0010
0100
1000
0100
0010
0001
1000
0001
0100
0010
,
1000
0001
0010
0100
0010
0001
1000
0001
0100
0010
1000
0001
0010
0100
0010
0001
,
1000
0100
1000
0100
0010
0001
0100
0010
1000
0010
0100
0001
1000
0001
0010
0100
,
1000
0001
0100
0010
0100
0001
1000
0001
0010
0100
1000
0100
0010
0001
1000
0001
,
1000
0010
1000
0010
0100
0001
0010
0100
1000
0100
0010
0001
1000
0001
0100
0010
,
1000
0001
0010
0100
0010
0001
1000
0001
0100
0010
1000
0001
0010
0001
0100
0010
,
1000
0100
1000
0100
0010
0001
0100
0010
1000
0010
0100
0001
1000
0001
0010
0100
,
1000
0001
0100
0010
0100
0001
1000
0001
0010
0100
1000
0100
0010
0001
1000
0001
,
1000
0010
1000
0010
0100
0001
0010
0100
1000
0100
0010
0001
1000
0001
0100
0010
,
1000
0001
0010
0100
0010
0001
1000
0001
0100
0010
1000
0001
0010
0100
0010
0001
,
1000
0100
1000
0100
0010
0001
0100
0010
1000
0010
0100
0001
1000
0001
0010
0100
,
1000
0001
0100
0010
0100
0001
1000
0100
0010
0001
0100
0010
1000
0010
0100
0001
,
1000
0010
1000
0010
0100
0001
0010
0100
1000
0100
0010
0001
1000
0001
0100
0010
,
1000
0001
0010
0100
0010
0001
1000
0001
0100
0010
1000
0001
0010
0001
0100
0010
,
1000
0001
0100
0001
0100
0010
1000
0001
0010
0001
1000
0010
0100
0010
1000
0001
,
0010
0001
1000
0010
0100
0001
0010
0100
1000
0100
0010
0001
0100
0010
0100
0010
,
1000
0001
0100
0001
0100
0010
1000
0001
0010
0001
1000
0010
0100
0010
1000
0001
,
0010
0001
1000
0010
0100
0001
0010
0100
1000
0100
0010
0001
0100
0010
0100
0001
,
1000
0001
0100
0001
0100
0010
1000
0001
0010
0001
1000
0010
0100
0010
1000
0001
,
0010
0001
0100
0001
0100
0010
1000
0001
0010
0001
1000
0010
0100
0010
1000
0001
,
0010
0001
0100
0001
0100
0010
1000
0001
0010
0001
1000
0010
0100
0010
1000
0001
,
0010
0001
1000
0010
0100
0001
0010
0001
1000
0100
0010
0001
0100
0001
0100
0001
,
1000
0001
0010
0001
0010
0100
1000
0001
0100
0001
1000
0100
0010
0100
1000
0001
,
0100
0001
1000
0100
0010
0001
0100
0010
1000
0010
0100
0001
0010
0100
0010
0100
,
1000
0001
0010
0001
0010
0100
1000
0001
0100
0001
1000
0100
0010
0100
1000
0001
,
0100
0001
1000
0100
0010
0001
0100
0010
1000
0010
0100
0001
0010
0100
0010
0001
,
1000
0010
1000
0001
0010
0100
1000
0001
,
0100
0010
0100
0001
0010
0100
1000
0001
,
1000
0010
1000
0001
0100
0010
1000
0001
0010
0100
1000
0001
0100
0010
1000
0100
,
0010
0010
0010
0010
0001
0001
0100
0000
,
0001
0100
0001
0100
0010
1000
0100
0010
0001
0100
0001
0100
0010
1000
0100
0010
,
0001
1000
0001
1000
0001
0010
0100
1000
0001
1000
0100
0010
0001
1000
0010
1000
,
0001
0100
0001
0100
0010
1000
0100
0010
0001
0100
0001
0100
0010
1000
0100
0010
,
0001
1000
0001
1000
0001
0010
0100
1000
0001
1000
0100
0010
0001
1000
0010
1000
,
0100
0010
0100
0010
0001
1000
0010
1000
0100
0010
0100
0010
0001
1000
0010
1000
,
0001
0010
0001
0010
0100
1000
0001
1000
0001
0100
0010
1000
0001
1000
0010
1000
,
0100
0010
0100
0010
0001
1000
0010
1000
0100
0010
0100
0010
0001
1000
0010
1000
,
0001
0010
0001
0010
0100
1000
0001
1000
0010
0100
0010
1000
0100
0010
0001
0100
,
0010
1000
0010
1000
0001
0010
0100
1000
0010
1000
0010
1000
0001
0010
0100
1000
,
0001
0100
0001
0100
0010
1000
0001
1000
0100
0010
0001
0010
0100
1000
0001
0100
,
0010
1000
0010
1000
0001
0010
0100
1000
0010
1000
0010
1000
0001
0010
0100
1000
,
0001
0100
0001
0100
0010
1000
0001
1000
0100
0010
0100
1000
0001
0100
0010
1000
,
0100
0100
0010
0001
0100
0100
0010
1000
,
0001
1000
0010
0100
0001
0010
0100
1000
,
0010
0100
0010
0100
0001
0010
0100
1000
0010
0100
0010
0100
0001
0010
0100
1000
,
0001
0001
0001
0001
0100
0100
0010
0000
,
20M1
0000
0000
0000
0M00
0000
0000
0000
0000
000M
0000
0000
00M0
0000
0000
0000
0000
0000
0000
0000
000M
0000
0000
0000
3002
0000
0000
0000
00M0
0000
0000
0000
0000
0000
0000
0000
M023
0000
0000
0000
0000
0000
0000
0000
000M
0000
0000
0000
,
0230
0000
0000
0000
00M0
0000
0000
0000
0000
000M
0000
0000
2300
0000
0000
302M
0000
0000
0230
0000
0000
0000
0000
0000
,
0302
0000
2003
3200
,
0320
0000
0000
0000
0032
2003
3020
0000
,
0230
0000
0302
0023
,
0230
0000
0000
0000
2300
3020
0230
0000
,
0302
0000
2003
3200
,
0320
0000
0000
0000
0032
0203
0320
0000
,
0030
0000
0000
0000
;
