#TITLE:That Was Too Slow;
#SUBTITLE:;
#ARTIST:Ranzor;
#TITLETRANSLIT:;
#SUBTITLETRANSLIT:;
#ARTISTTRANSLIT:;
#CREDIT:Aoreo;
#BANNER:that was too slow bn.png;
#BACKGROUND:that was too slow bg.png;
#LYRICSPATH:;
#CDTITLE:;
#MUSIC:That Was Too Slow.ogg;
#OFFSET:0.005;
#SAMPLESTART:56.378;
#SAMPLELENGTH:12.000;
#SELECTABLE:YES;
#DISPLAYBPM:230.000;
#BPMS:0.000=230.000,284.000=220.000,285.000=190.000,286.000=167.000,287.000=140.000,288.000=110.000,289.000=105.000,289.500=95.000,290.000=90.000,292.000=60.850,296.000=230.000,404.000=232.000,412.000=234.000,424.000=245.000,427.000=250.000,435.000=252.000,438.000=255.000,444.000=260.000,446.000=265.000,448.000=270.000,450.000=280.000,452.000=290.000,454.000=300.000,456.000=350.000,459.000=209.850,472.000=230.000,528.000=220.000,529.000=200.000,530.000=180.000,531.000=160.000,532.000=155.000,532.500=145.000,533.000=135.000,533.500=115.000,534.000=106.000,535.000=103.000,535.500=88.000;
#STOPS:;
#BGCHANGES:;
// cache tags:
#FIRSTBEAT:32.000;
#LASTBEAT:538.750;
#SONGFILENAME:Songs/SPEEEDCOOOORE 2/That Was Too Slow -[Aoreo]/That Was Too Slow.sm;
#HASMUSIC:1;
#HASBANNER:1;
#MUSICLENGTH:150.791;
// end cache tags

//---------------dance-single - J. Nero----------------
#NOTES:
     dance-single:
     J. Nero:
     Challenge:
     14:
     0.990,1.000,0.385,0.232,0.620,949.000,58.000,35.000,0.000,0.000:

0000
0000
0000
0000
,
0000
0000
0000
0000
,
0000
0000
0000
0000
,
0000
0000
0000
0000
,
0000
0000
0000
0000
,
0000
0000
0000
0000
,
0000
0000
0000
0000
,
0000
0000
0000
0000
,
1001
0000
0001
0000
0100
0001
0000
1000
0100
0000
1000
0000
0010
0000
0100
0000
,
0000
0000
0001
0000
0100
0010
0000
1000
0010
0000
0100
0000
0001
0000
1000
0000
,
0000
0000
0100
0000
1000
0100
0000
1000
0010
0000
0100
0000
0001
0000
1000
0000
,
0000
0001
0100
0000
0010
0100
0000
0001
1000
0000
0001
0000
0100
0000
0001
0000
,
1001
0000
0000
0000
,
1010
0000
0000
0000
,
0101
0000
1001
0000
,
1000
0100
1000
0001
0100
0000
0001
0000
4000
0000
0000
0000
3001
0000
0000
0000
,
0000
0000
0000
0000
0000
0000
0000
0000
0000
0000
0000
0000
0000
0000
0000
0000
0000
0000
1000
0001
1000
0001
1000
0001
,
1000
0100
0010
0100
1000
0001
1000
0010
,
0100
0000
0010
0000
1000
0000
0001
0000
0100
0000
0010
0000
0100
0000
0001
1000
,
0100
0000
0000
1000
0000
0000
0001
0000
0000
0100
0000
0000
0010
0000
0000
0100
0000
0000
0001
0000
0000
1000
0001
1000
,
0001
0000
1000
0000
0010
0000
0100
0000
0001
0100
0001
0100
0010
1000
0001
1000
,
0100
0010
0100
1000
0001
0100
0010
0100
,
0001
0000
1000
0000
0100
0000
1000
0000
0001
0000
0100
0000
0001
0000
1000
0001
,
0100
0000
0000
0010
0000
0000
0100
0000
0000
0001
0000
0000
1000
0000
0000
0010
0000
0000
1000
0000
0000
0001
0100
0001
,
0200
0000
0000
0000
0300
0000
0000
0000
0101
0000
0000
0000
0001
0100
0010
1000
,
0100
0010
0100
1000
0001
1000
0100
0010
,
0001
0000
1000
0000
0100
0000
1000
0000
0001
0000
0100
0000
0010
0000
1000
0100
,
0010
0000
0000
0100
0000
0000
1000
0000
0000
0001
0000
0000
0100
0000
0000
0010
0000
0000
1000
0000
0000
0001
0100
0001
,
0100
0000
0010
0000
1000
0000
0100
0000
1000
0001
0100
0010
0100
0001
0010
0100
,
1000
0010
0100
0001
1000
0100
1000
0010
,
0100
0000
0001
0000
1000
0000
0001
0000
1001
0000
0000
0000
1000
0000
0001
0100
,
0001
0000
0000
0000
0000
0000
0100
0000
0001
0000
0100
0000
0001
0000
0000
0000
0000
0000
1000
0000
0010
0000
1000
0000
0010
0000
0000
0000
0000
0000
0100
0000
0001
0000
0100
0000
0004
0000
0000
0003
0000
0000
4000
0000
0000
3000
0000
0000
,
0001
0000
0100
0000
0010
0000
1000
0000
0100
1000
0001
0100
0001
1000
0010
0100
,
0001
0100
0010
0100
0001
1000
0001
0010
,
0100
0000
1000
0000
0001
0000
1000
0000
0010
0000
0100
0000
0001
0000
0100
0001
,
1000
0000
0000
0100
0000
0000
0010
0000
0000
0100
0000
0000
1000
0000
0000
0001
0000
0000
0100
0000
0000
0001
1000
0001
,
1000
0100
1000
0010
0100
0000
0001
1000
,
0100
1000
0001
1000
0001
0100
0010
0100
0001
1000
0001
0010
0100
1000
0001
1000
,
0010
0100
0001
1000
0001
0010
0100
1000
0002
0000
0000
0003
1000
0000
0001
0100
,
0001
0000
0000
0100
0001
0100
0001
0000
0000
1000
0010
1000
0010
0000
0000
0100
0001
0100
0001
0000
0000
0000
0000
0000
,
0100
0001
1001
0000
2002
0000
3003
0000
,
1100
0100
0010
0100
,
1000
0100
0010
0100
,
1000
0001
0010
0001
,
1000
0001
0010
0001
,
1000
0010
0100
0010
,
1000
0010
0100
0010
,
0100
0001
0010
0001
,
1001
0000
0000
1000
0000
0000
0100
0000
0000
1000
0001
1000
0001
0000
0000
1000
0000
0000
0010
0000
0000
0100
0000
0000
,
2001
3001
0100
0000
2000
3001
0100
0000
,
2000
3001
0100
0000
2000
0000
0000
0000
,
3002
0013
0100
0000
0002
0013
0100
0000
,
0002
0013
0100
0000
0002
0000
0000
0000
,
2003
3010
0100
0000
2000
3010
0100
0000
,
2000
3010
0100
0000
2000
3010
0100
0000
,
0002
0013
0100
0000
0002
0013
0100
0000
,
2000
3001
0100
0000
2000
3001
0100
0000
,
1000
0100
0010
0001
1000
0100
0010
0001
,
1000
0100
0010
0001
2000
0000
0000
0000
,
3001
0100
0010
1000
0001
0100
0010
1000
,
0001
0100
0010
1000
0002
0000
0000
0000
,
1003
0010
0100
0001
1000
0010
0100
0001
,
1000
0010
0100
0001
1000
0010
0100
0001
,
1000
0100
0010
0001
1000
0100
0010
0001
,
1000
0010
0100
0001
1000
0010
0100
0001
,
1000
0100
0010
0001
0100
0010
1000
0100
,
0010
0001
0100
0010
2000
0000
0000
0000
,
3001
0010
0100
1000
0010
0100
0001
0010
,
0100
1000
0010
0100
0002
0000
0000
0000
,
1003
0010
0100
0001
0010
0100
1000
0010
,
0100
0001
0010
0100
1000
0010
0100
0001
,
1001
1010
0110
0101
,
1001
0001
0010
0100
1000
0010
0100
0001
,
2000
0000
0000
3000
,
1001
0000
0001
0000
0100
0001
0000
1000
0001
0000
1000
0000
0100
0000
1000
0000
,
0000
0000
0001
0000
0100
0001
0000
1000
0010
0000
1000
0000
0001
0000
0010
0000
,
0000
0000
0100
0000
1000
0001
0000
0100
0010
0000
1000
0000
0001
0000
1000
0000
,
0000
0001
0100
0000
0010
0100
0000
0001
1000
0000
0100
0000
0010
0000
0001
0000
,
1001
0000
1000
0000
0001
0100
0000
0010
0100
0000
0001
0000
1000
0000
0100
0000
,
0000
0000
1000
0000
0001
0100
0000
0010
1000
0000
0001
0000
0010
0000
0001
0000
,
0000
0000
1000
0000
0001
0100
0000
0001
0010
0000
0001
0000
1000
0000
0100
0000
,
0000
0010
0001
0000
1000
0001
0000
0100
0010
0000
1000
0000
0001
0000
1000
0000
,
1010
0000
0010
0000
0100
0001
0000
1000
0001
0000
0010
0000
0100
0000
0010
0000
,
0000
0001
1000
0000
0010
0100
0000
0010
1000
0000
0001
0000
0010
0000
0001
0000
,
0000
0000
1000
0000
0010
0100
0000
0010
1000
0000
0100
0000
0010
0000
0001
0000
,
0000
1000
0010
0000
1000
0001
0000
0010
0001
0000
1000
0000
0010
0000
0100
0000
,
0101
0000
0000
0000
,
1001
0000
0000
0000
,
1010
0000
0110
0000
,
0100
0000
0000
0001
0000
0000
0100
0000
0000
0010
0000
0000
1000
0000
0000
0000
0000
0000
0001
0000
0000
0000
0000
0000
0100
0000
0001
0000
0100
0000
0001
0000
0400
0000
0004
0000
0000
0000
0000
0000
0000
0000
0000
0000
0000
0000
0000
0000
,
0303
0000
0000
0000
0000
0000
0000
0000
0000
0000
0000
0000
0001
0100
0010
1000
,
0010
0000
0100
0000
0001
1000
0001
1000
0100
0000
1000
0000
0010
0000
1000
0000
,
0001
0000
0100
0000
0001
1000
0100
1000
0001
0000
1000
0000
0010
0000
0100
0001
,
1000
0000
0000
0000
0000
0000
0100
0000
0000
0000
0000
0000
1000
0000
0000
0001
0000
0000
1000
0000
0000
0001
0000
0000
0100
0000
0000
0000
0000
0000
0010
0000
0000
0000
0000
0000
0100
0000
0000
0000
0000
0000
0001
0000
1000
0000
0001
0000
,
1000
0000
0001
1000
0001
0100
0010
0100
0010
1000
0001
0010
0100
1000
0001
1000
,
0001
0000
0100
0000
0001
1000
0001
1000
0010
0000
0100
0000
0001
0000
0010
0000
,
0100
0000
1000
0000
0001
0100
0001
0100
0010
0000
1000
0000
0001
0000
1000
0010
,
0100
0000
0000
0000
0000
0000
0001
0000
0000
0000
0000
0000
0100
0000
0000
0001
0000
0000
0100
0000
0000
0010
0000
0000
1000
0000
0000
0000
0000
0000
0001
0000
0000
0000
0000
0000
0010
0000
0000
0000
0000
0000
0100
0000
1000
0000
0100
0000
,
2000
0000
0000
0000
0000
0000
3000
0000
1001
0000
0000
0000
0001
1000
0001
0100
,
0010
0000
0100
0000
0001
0100
0001
0100
0010
0000
1000
0000
0100
0000
0010
0000
,
0100
0000
1000
0000
0001
0100
0010
0100
0001
0000
0100
0000
0010
0000
1000
0010
,
0100
0000
0000
0000
0000
0000
0001
0000
0000
0000
0000
0000
1000
0000
0000
0100
0000
0000
1000
0000
0000
0100
0000
0000
0010
0000
0000
0000
0000
0000
0001
0000
0000
0000
0000
0000
0100
0000
0000
0000
0000
0000
0001
0000
1000
0000
0001
0000
,
1000
0000
0001
1000
0001
1000
0100
0010
0100
0010
0001
1000
0001
1000
0010
0100
,
0001
0000
0100
0000
0001
0100
0001
1000
0100
0000
1000
0000
0001
0000
0100
0000
,
0010
0000
0100
0000
0001
1000
0100
0010
0001
0000
0100
0000
0010
0000
1000
0001
,
0100
0000
0000
0000
0000
0000
0001
0000
0000
0000
0000
0000
1000
0000
0000
0100
0000
0000
1000
0000
0000
0001
0000
0000
0100
0000
0000
0000
0000
0000
0001
0000
0000
0000
0000
0000
1000
0000
0000
0000
0000
0000
0001
0000
0100
0000
0001
0000
,
0200
0000
0000
0000
0300
0000
0000
0000
0001
0100
0001
1000
0010
0100
0001
1000
,
0001
0000
1000
0000
0100
1000
0001
1000
0001
0000
0100
0000
0001
0000
0010
0000
,
0100
0000
1000
0000
0010
0100
0010
1000
0001
0000
1000
0000
0010
0000
1000
0001
,
0100
0000
0000
0000
0000
0000
0010
0000
0000
0000
0000
0000
0100
0000
0000
0001
0000
0000
0100
0000
0000
0010
0000
0000
1000
0000
0000
0000
0000
0000
0001
0000
0000
0000
0000
0000
1000
0000
0000
0000
0000
0000
0001
0000
1000
0000
0001
0000
,
1000
0000
0001
0100
0010
1000
0001
0100
0010
1000
0001
1000
0010
0100
0001
1000
,
0001
0000
1000
0000
0001
0100
0001
0100
0010
0000
1000
0000
0100
0000
1000
0000
,
0001
0000
0100
0000
0001
0010
0100
1000
0001
0000
1000
0000
0100
0000
1000
0000
,
0004
0013
0400
1300
0004
1003
0040
0130
,
0001
0100
0010
1000
0001
0100
0010
1000
0001
2000
0000
0000
,
0000
0000
0000
0000
,
0000
0000
0000
0000
0000
0000
0000
0000
0000
3000
0000
0000
0000
0000
0000
0000
,
0000
0000
0000
0000
,
0001
0010
0100
1000
0001
0010
0100
1000
,
0001
0010
0100
1000
0002
0000
0000
0000
,
1003
0010
0100
0001
1000
0010
0100
0001
,
1000
0010
0100
0001
2000
0000
0000
0000
,
3100
0010
0001
1000
0100
0010
0001
1000
,
0100
0010
0001
1000
0100
0010
0001
1000
,
0010
0100
0001
1000
0010
0100
0001
1000
,
0001
0010
0100
1000
0001
0010
0100
1000
,
1001
0101
0110
1010
,
1001
0000
0011
0000
0220
0000
0000
0330
,
1100
1001
0101
0110
,
1010
0000
1100
0000
2002
0000
0000
3003
,
0101
0110
1010
1001
,
0011
0110
1100
1001
,
0101
0110
1010
1001
,
1001
1000
0001
0010
0100
1000
0001
0100
,
0002
0000
0000
0000
0000
0000
0000
0000
0000
0000
0000
0003
0000
0000
0000
0000
;
