#TITLE:PHYNN LUCID;
#SUBTITLE:Trance Trance Trance Trance Trance Trance Trance Trance Trance Trance;
#ARTIST:SPREAD159 YEAH1 XDXD;
#TITLETRANSLIT:;
#SUBTITLETRANSLIT:;
#ARTISTTRANSLIT:;
#CREDIT:;
#BANNER:Trance Energy - PHYNN LUCID..JPG;
#BACKGROUND:Trance Energy - PHYNN LUCID.jpg;
#LYRICSPATH:;
#CDTITLE:cdtitle.PNG;
#MUSIC:Phynn Lucid.mp3;
#OFFSET:-0.040;
#SAMPLESTART:33.786;
#SAMPLELENGTH:12.000;
#SELECTABLE:YES;
#BPMS:0.000=175.000;
#STOPS:;
#BGCHANGES:;
// cache tags:
#FIRSTBEAT:0.000;
#LASTBEAT:582.167;
#SONGFILENAME:Songs/Definitive Keyboard Megapack/PHYNN LUCID(Disregard159)/Trance Energy - PHYNN LUCID.sm;
#HASMUSIC:1;
#HASBANNER:1;
#MUSICLENGTH:201.900;
// end cache tags

//---------------dance-single - ----------------
#NOTES:
     dance-single:
     :
     Easy:
     15:
     1.000,1.000,1.000,1.000,1.000,2233.000,767.000,621.000,28.000,174.000:

0120
1001
0030
2010
0101
0000
3120
1001
0000
1230
0011
0000
1010
0000
1012
0300
,
0113
2001
0000
3021
1100
0000
0231
1010
0000
2301
0110
0000
0011
0000
0011
3000
,
2100
0011
0000
3210
1001
0000
0321
1100
0000
1031
0210
0000
0011
0000
0011
0000
,
1310
0101
0000
1001
0120
0000
0231
1010
0000
0321
1100
0000
1001
0000
1001
0000
,
2130
0011
0000
3120
1001
0030
0011
1100
0000
0101
1020
0000
0101
0000
0101
0000
,
1130
0011
0000
0210
1001
0000
0311
1100
0000
0102
1010
0000
2110
0000
0110
0003
,
3012
1100
0000
1013
0101
0000
0210
1001
0000
0321
1100
0000
1001
0000
1201
0000
,
1331
0110
0000
0102
1010
0000
1203
0011
0000
1310
0101
0000
1010
0200
1010
0000
,
2010
0001
0000
0301
0020
3000
0201
1000
0000
2000
0031
3300
1002
0000
1020
0033
,
0120
1002
0003
1002
0103
0030
0201
1000
0000
1020
0032
0300
2010
0003
0020
3000
,
0230
0000
0000
0001
0000
0000
0300
0000
0000
0001
0000
0000
2222
3333
0000
1000
0000
0000
0100
0000
0000
0010
0000
0000
0001
0000
0000
0010
0000
0000
0100
0000
0000
1000
0000
0000
0100
0000
0000
0010
0000
0000
0001
0000
0000
0010
0000
0000
,
0100
1000
0100
0010
0001
0010
0100
1000
0100
0010
0001
0010
0100
1000
0100
0010
,
0001
0010
0100
1000
0100
0010
0001
0010
0100
1000
0100
0010
0001
0010
0100
1000
,
0100
0010
0001
0010
0100
1000
0100
0010
0001
0010
0100
1000
0100
0010
0001
0010
,
0100
1000
0100
0010
0001
0010
0100
1000
0100
0010
0001
0010
0100
1000
0100
0010
,
0001
0010
0100
1000
0100
0010
0001
0010
0100
1000
0100
0010
0001
0010
0100
1000
,
0100
0010
0001
0010
0100
1000
0100
0010
0001
0010
0100
1000
0100
0010
0001
0010
,
0100
1000
0100
0010
0001
0010
0100
1000
0100
0010
0001
0010
0100
1000
0100
0010
,
0001
0010
0100
1000
0100
0010
0001
0010
0100
1000
0100
0010
0001
0010
0100
1000
,
0100
0000
0000
0010
0000
0000
0001
0000
0000
0010
0000
0000
0100
0000
0000
1000
0000
0000
0100
0000
0000
0010
0000
0000
0001
0000
0000
0010
0000
0000
0100
0000
0000
0010
0000
0000
0100
0000
0000
1000
0000
0000
2222
3333
0000
0020
0000
0000
,
0032
0023
0230
2300
3020
0032
0203
2300
3020
0230
2300
3020
0032
0023
0230
2300
,
3200
0320
0032
0203
0320
2030
3200
0320
0032
0023
0230
2300
3200
0320
0032
0023
,
0230
2300
3200
0320
0032
2003
3200
0320
0032
2003
3200
0320
0032
0023
0230
2300
,
3002
0023
0230
2300
3200
0320
0032
0023
0230
2300
3200
0320
0032
0203
2300
3200
,
2300
3200
0320
0032
0023
0032
0023
0230
0320
2030
3200
0320
0032
0023
0230
2300
,
3020
0230
0302
0023
2030
3200
0320
0230
2300
3200
0320
0032
0023
0230
2300
3200
,
0320
0032
0023
0230
2300
3200
0320
0032
0023
0230
2300
3200
0320
0032
0023
0230
,
2300
3200
0320
0032
0023
0230
2300
3200
0320
0032
0023
0230
2300
3200
0320
0032
,
0023
0230
2300
3200
0320
0032
0023
0230
2300
3200
0320
0032
0023
0230
2300
3200
,
0320
0000
0000
0032
0000
0000
0023
0000
0000
0230
0000
0000
2300
0000
0000
3200
0000
0000
0320
0000
0000
0030
0000
0000
2222
3333
0000
0010
0000
0000
1000
0000
0000
0001
0000
0000
0110
0000
0000
1000
0000
0000
0101
0000
0000
0010
0000
0000
,
1001
0010
0100
1001
0110
0001
1000
0100
0011
1000
0001
0100
1010
0100
0001
1000
,
0110
0001
0100
0010
1100
0001
0110
1000
0101
0010
0001
0110
1001
0000
0110
0000
,
1001
0100
0010
0100
0011
1000
0100
0010
1100
0010
0100
0001
1010
0100
0010
0100
,
1001
0010
0100
1010
0101
0010
1000
0001
0110
0001
1100
0001
1010
0100
1010
0100
,
1001
0100
0010
0100
0011
1000
0100
0010
0101
0010
0001
1000
0110
0001
0100
0010
,
1100
0010
0100
0001
1010
0100
0010
0100
0011
1000
0100
0010
0101
0010
1001
0010
,
0101
1000
0100
0010
0101
0010
0100
1000
0101
0010
1000
0001
0110
1000
0100
0010
,
0101
0010
0001
0010
1100
0001
0100
1000
0110
0001
1000
0010
1100
0001
1010
0001
,
0110
1000
0100
0001
0110
1000
0001
0010
0101
0010
1000
0100
1010
0100
0011
1100
,
0000
0000
0000
0000
0000
0000
0000
0000
0000
2222
3333
0000
2000
0000
0000
3200
0000
0000
0320
0000
0000
0032
0000
0000
0023
0000
0000
0230
0000
0000
2300
0000
0000
3200
0000
0000
0320
0000
0000
0032
0000
0000
0023
0000
0000
2030
0000
0000
,
3200
0320
0032
0023
0230
2300
3200
0320
0032
0023
0032
0023
0230
2300
3200
2300
,
3200
0320
0032
0023
0230
2300
3200
0320
0032
0023
0230
2300
3200
0320
0032
0023
,
0230
2300
3200
0320
0032
0023
0230
2300
3200
0320
0032
0023
0230
2300
3200
0320
,
0032
0023
0230
2300
3200
0320
0032
0023
0230
2300
3200
0320
0032
0023
0230
0300
,
2202
3323
0032
2003
3200
0320
0032
2003
3200
0320
0032
2003
3200
0320
0032
0023
,
0230
2300
3200
0320
2032
3023
0230
2300
3200
0320
0032
0023
0230
2300
3200
0320
,
0032
0023
0230
2300
3200
0320
2032
3023
0230
2300
3200
0320
0032
0023
0230
2300
,
3200
0320
0032
1023
0230
0302
0203
0320
2030
3020
0230
1302
0203
0320
0032
0023
,
0232
0000
0000
2303
0000
0000
3200
0000
0000
0320
0000
0000
0032
0000
0000
2023
0000
0000
3230
0000
0000
2302
0000
0000
3203
0000
0000
2320
0000
0000
3032
0000
0000
0023
0000
0000
0030
0000
0000
2222
3333
0000
0000
0000
0000
0001
0000
0000
,
1100
0010
0101
1010
0101
0010
1100
0001
1010
0100
0011
1000
0101
0010
1100
0010
,
0101
1000
0110
1000
0011
1100
0010
0100
1001
0010
1101
0010
0101
0010
1100
0001
,
0010
0100
1000
0010
0100
0001
0110
1000
0100
0001
0110
1000
0110
0001
1010
0100
,
1001
0010
1100
0010
0101
1010
0100
0010
1001
0100
1001
0010
0100
1000
0110
0001
,
0100
0010
1001
0100
0010
0001
1010
0100
0011
1000
0101
0010
1100
0010
0101
0010
,
1001
0100
0011
0100
1000
0010
0101
1010
0001
1010
0100
0011
1100
0010
1001
0100
,
0010
1001
0100
0010
1001
0010
1100
0001
1010
0101
1010
0101
1010
0101
1010
0101
,
1010
0001
1100
0010
0101
1000
0110
0001
1000
0001
0110
0001
1100
0001
0010
0100
,
1001
0100
0011
1000
0110
1000
0011
0100
1001
0100
0011
0100
1010
0100
0011
1000
,
0101
0010
1100
0001
1100
0010
1001
0010
0100
1000
0101
0010
1100
0010
0101
0010
,
1100
0010
1001
0100
1010
0100
0011
1000
0110
0001
0110
1000
0101
0010
1001
0100
,
0011
0100
1000
0101
1010
0001
0110
1000
0001
1000
0110
1000
0011
0100
0010
0100
,
1001
0010
0101
1000
0100
0010
0101
1000
0011
0100
1001
0100
1010
0001
0110
1000
,
0101
0010
1000
0010
0101
0010
1100
0010
0100
0001
1010
0100
0011
1000
0100
1010
,
0101
0010
1001
0100
0010
1100
0011
1000
0101
0010
1100
0011
1100
0001
1010
0100
,
1001
0010
0100
0011
1100
0001
1010
0100
1010
0100
0011
1000
0101
0010
1100
0010
,
1001
0100
1010
0001
0110
1000
0011
0100
1001
0010
0101
1000
0110
0001
1010
0100
,
0011
0100
1001
0100
1010
0100
0011
1000
0100
0001
0110
0001
1100
0010
1000
0010
,
1100
0001
1010
0100
0010
0100
0011
1000
2222
0000
0000
0000
0000
0000
0000
3333
,
1001
0110
0001
1000
0011
0100
1001
0010
0001
0010
1100
0001
1010
0100
0010
0001
,
1010
0001
0110
1000
0100
0010
1001
0100
1010
0001
1100
0001
1010
0100
0011
1000
,
0101
0010
0100
1000
0011
0100
1010
0001
0010
0001
1100
0010
0101
1000
0100
0010
,
1100
0010
0101
0010
1000
0010
0101
1000
0110
1001
0110
1001
0110
1001
0110
0000
,
1001
0110
1001
0010
1100
0010
0101
1000
0001
0010
1100
0001
0110
1000
0001
0010
,
1100
0011
1100
0001
1010
0001
0110
1000
0100
0010
1001
0010
0101
0010
1000
0100
,
1010
0101
1010
0001
1010
0001
1100
0010
0001
0100
1001
0010
1100
0001
0010
0100
,
0011
1100
0011
0100
1001
0100
1010
0001
0010
1000
0110
1000
0101
0010
1000
0010
,
0101
1010
0101
1010
0101
0010
1000
0001
0110
1000
0001
0010
1100
0001
0010
0100
,
1001
0110
1001
0110
1001
0010
1000
0001
0110
1000
0001
0100
1001
0100
0010
0101
,
1000
0110
1000
0100
1001
0110
1000
0101
0010
1100
0010
0101
0010
1000
0110
1000
,
0101
0010
1100
0010
0101
0010
1100
0010
0101
0010
1101
0010
0101
0010
1001
0010
,
0101
1010
0101
1000
0011
0100
1010
0100
0001
0100
0011
1000
0110
0001
0010
0100
,
0011
1100
0011
0100
1010
0001
0110
1000
0100
1000
0011
0100
1010
0001
0100
1000
,
0110
1001
0110
1000
0110
0001
1010
0100
0010
0100
1001
0100
0011
1000
0100
0010
,
1100
0011
1100
0010
0101
0010
1001
0100
0010
1001
0110
0001
1010
0100
0001
0100
,
1001
0110
1001
0110
1001
0010
0100
1000
0110
1001
0010
1100
0011
1000
0010
0100
,
0011
1100
0011
1100
0011
1000
0100
0001
0110
0001
0110
1000
0101
1010
0100
1001
,
0110
1001
0100
0011
1000
0100
0011
0100
1001
0010
1100
0010
1001
0100
1010
0001
,
1100
0010
1100
0011
1100
0000
1111
0000
1111
0000
0000
0000
0111
2000
3200
0320
,
0032
1113
0002
0023
0230
0302
1113
0002
0023
0230
2300
3111
2000
3200
0302
2003
,
3111
0000
0000
2000
0000
0000
3200
0000
0000
0320
0000
0000
0032
0000
0000
1113
0000
0000
0002
0000
0000
0023
0000
0000
2030
0000
0000
3020
0030
0000
1101
0000
0000
0020
0000
0000
0230
0000
0000
2300
0000
0000
3200
0000
0000
1311
0000
0000
,
0200
0320
0032
1113
0002
0023
0230
2300
3111
2000
3200
0320
0032
1113
0002
0023
,
0230
0320
1131
0020
0230
2300
3111
2000
3200
0302
2003
3111
2000
3200
0320
0032
,
1113
0002
0203
0320
2030
3111
2000
3200
0320
0032
1113
0002
2003
3020
0230
1311
,
0200
0320
2030
3002
1113
0002
0023
0230
1311
0200
0320
2030
3002
1113
0002
0023
,
2030
3200
1311
0200
2300
3020
0032
1113
0002
2003
3200
1311
0200
0320
0032
2003
,
3111
0000
0000
2000
0000
0000
3200
0000
0000
0320
0000
0000
0032
0000
0000
1113
0000
0000
0002
0000
0000
0023
0000
0000
0230
0000
0000
0302
0000
0000
1113
0000
0000
0002
0000
0000
0203
0000
0000
2300
0000
0000
3020
0030
0000
1101
0000
0000
,
0020
2030
3002
1113
0002
0023
0230
2300
3111
2000
3200
0320
0032
1113
0002
0023
,
0230
2300
3111
2000
3200
0302
0023
1131
0020
2030
3200
0302
1113
0002
0023
0230
,
0302
1113
0002
0023
0230
2300
3111
2000
3200
0320
1131
0020
0230
2300
3002
1113
,
0002
0023
0032
0023
1131
0020
0230
2300
3111
2000
3200
0320
0032
1113
0002
0023
,
2030
3002
1113
0002
0023
0230
0302
1113
0002
0023
0230
2300
3111
2000
3200
0320
,
2030
3111
2000
3200
2300
3002
1113
0002
0023
0230
0302
1113
0002
2003
3020
2030
,
3111
2000
3200
0320
1131
0020
0032
0203
2300
3111
2000
3200
0320
0032
1113
0002
,
0023
2030
3200
1311
0200
0320
2030
3002
1113
0002
2003
3200
0302
1113
0002
0023
,
0230
0302
1113
0002
0023
2030
3020
1131
0020
2030
3111
2000
3200
0320
2030
3002
,
1113
0002
0203
0300
1000
0010
0100
1000
0011
0100
2011
3200
0320
0032
0023
0230
,
2300
3200
0320
0032
0023
0230
2300
3020
0032
0003
1111
0000
1111
0000
0100
1000
,
0101
0010
0001
0010
0101
0010
0100
1000
0110
0001
0010
0100
1001
0010
1100
0010
,
0101
1000
0100
0010
1001
0010
0100
1000
0011
1000
0100
0001
1010
0100
0001
0010
,
0101
0010
0100
0010
0101
1000
0010
0001
1100
0010
0100
0010
0101
0010
1001
0100
,
1010
0001
0100
0010
0101
0010
0100
1000
0011
1000
0100
0010
0101
0010
1000
0100
,
0011
0100
1000
0100
1001
0010
0100
0010
0101
0010
0100
1001
0110
1000
0011
0000
,
0110
0001
1000
0001
1010
0100
0001
0100
0011
1000
0100
0010
1001
0010
0100
1000
,
0101
0010
0001
1000
0101
0010
0100
0001
1100
0010
0001
1000
0101
1000
0011
0100
,
1011
0100
0010
0001
1100
0010
0100
0010
0101
0010
1000
0001
1010
0100
0010
0001
,
0110
0001
1000
0010
0101
0010
0100
1000
0110
0001
0100
0010
0101
0010
1001
0100
,
0011
0100
1000
0100
0011
0100
0001
0100
2022
3133
0000
0110
1001
0100
0010
0001
,
1010
0100
0010
0100
0011
1000
0001
0100
1010
0100
0001
0010
0101
0010
1001
0100
,
1010
0100
0010
0001
1010
0100
0001
1000
0110
1000
0100
0010
1001
0100
0001
1000
,
0110
0001
0010
0100
1001
0100
0010
0001
0110
0001
0100
1001
0110
0001
1100
0000
,
0110
0001
1010
0001
0110
1000
0110
0001
1010
0100
1001
0010
0101
0010
1100
0001
,
0110
1000
0011
0100
1001
0010
0101
1000
0110
1000
0110
0001
1010
0100
1001
0010
,
1100
0001
1010
0100
0011
1000
0110
0001
1010
0100
1001
0010
0101
0010
1100
0001
,
0110
1000
0101
0010
1001
0100
0011
1000
0110
1000
0101
0010
1001
0100
0011
1000
,
0110
0001
1010
0100
0011
1000
0101
1000
0011
1000
0101
0010
1100
0010
0101
1000
,
0110
0001
1010
0100
0011
1000
0101
0010
1100
0010
0101
0010
1001
0100
0011
1000
,
0110
0000
0000
0001
0000
0000
2220
3330
0000
0001
0000
0000
1100
0000
0000
0001
0000
0000
0110
0000
0000
0001
0000
0000
1010
0000
0000
0100
0000
0000
1001
0000
0000
0010
0000
0000
1001
0000
0000
0100
0000
0000
1010
0000
0000
0100
0000
0000
,
0011
1000
0101
0010
1100
0001
0110
1000
0110
0001
1010
0001
0110
1000
0110
0001
,
1110
0001
1010
0001
0110
1000
0101
0010
1100
0001
0110
1001
0110
1000
0110
0001
,
1100
0010
1100
0001
0110
0001
0110
1000
0101
0010
1001
0100
0011
1000
0100
0011
,
1100
0001
1010
0001
0110
1000
0100
1010
0101
0010
1100
0010
1001
0010
1100
0010
,
0001
0100
1010
0100
0010
1000
0111
1000
0100
0011
1100
0001
1010
0001
0110
1000
,
0101
0010
1100
0001
1100
0001
1010
0001
0110
0001
1100
0010
1100
0011
0100
1010
,
0101
0010
1100
0010
0001
0100
1010
0001
0110
1000
0110
1000
0101
1000
0110
0001
,
0110
1000
0100
1010
0001
1100
0011
0100
0010
1100
0001
0100
1010
0101
1010
0100
,
0011
1000
0101
0010
1000
0100
0010
0101
1010
0101
1010
0101
1010
0101
1010
0101
,
0010
1100
0011
0100
1010
0101
0010
1101
0010
0100
1001
0010
0100
0011
1000
0110
,
1001
0100
0010
1001
0100
1010
0001
0110
1000
0101
0010
1000
0110
0001
1100
0010
,
0101
0010
1000
0110
0001
1100
0010
0101
0010
1100
0010
1001
0110
1001
0100
1010
,
0001
0110
1000
0100
0011
1100
0010
0101
1000
0110
1001
0100
1011
0100
0010
1100
,
0011
1100
0010
0101
1010
0100
0011
1100
0010
1100
0010
0101
1010
0101
0010
1100
,
0010
0101
0010
1101
0010
0101
1000
0011
1100
0010
0001
0110
1000
0100
1001
0010
,
1100
0010
0101
1010
0100
0010
0001
1100
0010
0101
0010
0100
1010
0101
1000
0010
,
0101
0010
1101
0010
0100
1011
0100
1010
0001
1110
0000
1001
0110
1000
0101
0010
,
1000
0101
1000
0010
0101
1010
0101
1000
0001
1110
0000
0001
0110
1000
0110
1000
,
0101
0000
0000
0000
0000
0000
1010
0000
0000
0000
0000
0000
1111
0000
0000
0000
0000
0000
1111
0000
MMMM
MMMM
MMMM
MMMM
MMMM
MMMM
MMMM
0000
0000
0000
0000
0000
0000
0000
0000
0000
0000
0000
0000
0000
0000
0000
0000
0000
0000
0000
0000
0000
;
