#TITLE:<><><><>..Driftwood..<><><><>;
#SUBTITLE:Freeloader;
#ARTIST:SPREAD159 YEAH1 XDXD;
#TITLETRANSLIT:;
#SUBTITLETRANSLIT:;
#ARTISTTRANSLIT:;
#CREDIT:;
#BANNER:Driftwood - Freeloader .662x107.bmp;
#BACKGROUND:Driftwood - Freeloader 1024x768.bmp;
#LYRICSPATH:;
#CDTITLE:cdtitle.png;
#MUSIC:Driftwood - Freeloader.mp3;
#OFFSET:-0.080;
#SAMPLESTART:37.364;
#SAMPLELENGTH:12.000;
#SELECTABLE:YES;
#BPMS:0.000=140.020;
#STOPS:;
#BGCHANGES:;
// cache tags:
#FIRSTBEAT:28.000;
#LASTBEAT:838.000;
#SONGFILENAME:Songs/Definitive Keyboard Megapack/Driftwood - Freeloader(Disregard159)/Driftwood - Freeloader.sm.sm;
#HASMUSIC:1;
#HASBANNER:1;
#MUSICLENGTH:363.867;
// end cache tags

//---------------dance-single - ----------------
#NOTES:
     dance-single:
     :
     Easy:
     15:
     1.000,1.000,1.000,1.000,1.000,2693.000,658.000,1229.000,0.000,472.000:

0000
0000
0000
0000
,
0000
0000
0000
0000
,
0000
0000
0000
0000
,
0000
0000
0000
0000
,
0000
0000
0000
0000
,
0000
0000
0000
0000
,
0000
0000
0000
0000
,
2222
0000
0000
0000
0000
0000
0000
0000
0000
0000
0000
0000
0000
0000
0000
0000
0000
0000
0000
0000
0000
0000
0000
0000
0000
0000
0000
0000
0000
0000
0000
0000
0000
0000
0000
0000
0000
0000
0000
0000
0000
0000
0000
0000
0000
0000
0000
3333
,
1111
1110
0111
1110
,
1101
1011
0111
1111
,
1110
0111
1110
1101
,
0111
1110
1101
1101
,
1011
1011
0111
0111
,
1110
1110
1011
1101
,
1011
1101
1111
1111
,
2222
0000
0000
0000
0000
0000
0000
0000
0000
0000
0000
0000
0000
0000
0000
0000
0000
0000
0000
0000
0000
0000
0000
0000
0000
0000
0000
0000
0000
0000
0000
0000
0000
0000
0000
0000
0000
0000
0000
0000
0000
3333
0000
0000
0000
0000
0000
0000
1110
0000
0000
0000
0000
0000
0000
0000
0000
0000
0000
0000
0000
0000
0000
0000
0000
0000
0000
0000
0000
0000
0000
0000
0000
0000
0000
0000
0000
0000
0000
0000
0000
0000
0000
0000
0000
0000
0000
0000
0000
0000
0000
0000
0000
0000
0000
0000
0111
0000
0000
0000
0000
0000
0000
0000
0000
0000
0000
0000
0000
0000
0000
0000
0000
0000
0000
0000
0000
0000
0000
0000
0000
0000
0000
0000
0000
0000
0000
0000
0000
0000
0000
0000
0000
0000
0000
0000
0000
0000
0000
0000
0000
0000
0000
0000
1111
0000
0000
0000
0000
0000
0000
0000
0000
0000
0000
0000
0000
0000
0000
0000
0000
0000
0000
0000
0000
0000
0000
0000
1111
0000
0000
0000
0000
0000
0000
0000
0000
0000
0000
0000
0000
0000
0000
0000
0000
0000
0000
0000
0000
0000
0000
0000
,
1111
1101
1110
0111
,
1011
1101
1101
1101
,
0111
1011
1110
1110
,
0111
1011
1011
1110
,
0111
1011
1111
0111
,
1101
1111
1110
1011
,
1101
1110
1101
0111
,
1011
0000
0000
0000
0000
0000
0000
0000
0000
0000
0000
0000
0000
0000
0000
0000
1110
0000
0000
0000
0000
0000
0000
0000
0000
0000
0000
0000
0000
0000
0000
0000
2222
0000
0000
0000
0000
0000
0000
0000
0000
0000
0000
0000
0000
0000
0000
3333
1110
0000
0000
0000
0000
0000
0000
0000
0000
0000
0000
0000
0000
0000
0000
0000
,
2011
3111
1011
1110
,
2011
3111
1110
1101
,
1021
1131
1011
1101
,
1021
1131
1011
0111
,
1201
1311
1110
1101
,
1021
1131
1011
1110
,
1021
1131
1110
0111
,
2011
0100
0010
0100
0010
0100
3010
0100
0010
0100
0010
0100
0010
0100
0010
0100
0010
0100
0010
0100
0010
0100
0010
0100
,
1010
0002
0203
2300
3110
0002
2003
3200
0311
0200
2300
3020
1130
0002
0023
2030
,
3101
0020
2030
3002
0113
2000
3002
0203
1310
0002
0203
0320
1130
0002
0023
2030
,
3101
0020
2030
3200
0311
2000
3200
0320
1130
0002
0023
0230
1310
0002
0203
0320
,
1031
0200
0320
2030
3101
0020
2030
3200
0311
2000
3200
0302
0113
2000
3020
0032
,
0113
2000
3200
0320
1031
0200
0320
2030
3110
0002
0023
0230
1301
0020
0230
0320
,
0131
2000
3200
0302
0113
2000
3200
0320
1031
0200
0320
2030
3101
0020
0230
2300
,
3011
0200
0320
2030
3101
0020
0230
0302
1013
0200
2300
3020
0131
2000
3200
0300
,
1010
0100
0010
0100
0010
0100
0010
0100
0010
0100
0010
0100
0010
0100
0010
0100
0010
0100
0010
0100
0010
0100
0010
0100
,
1012
0103
1000
0010
0100
0001
0010
1000
0001
0100
1000
0100
0010
0001
0010
0001
,
0220
1300
0130
1000
0010
0001
0010
0001
1000
0100
1000
0010
0001
0100
0010
0100
,
0022
1030
0103
1000
0100
0010
0001
0010
0001
0010
0100
1000
0100
1000
0100
0010
,
2000
3020
2030
3020
2030
3200
0302
0203
0302
2003
3002
2003
3002
0203
0320
2030
,
3202
0310
1003
0010
0100
0001
0010
0100
0001
0010
0001
1000
0010
0100
0001
0010
,
0202
1300
0013
0100
0001
0010
1000
0100
0010
0100
0001
1000
0010
0100
0010
0001
,
2020
0130
3010
0100
1000
0100
0010
0001
1000
0001
1000
0100
0010
0001
1000
0100
,
2020
0032
3023
0230
0302
0203
2300
3020
0230
0302
0023
0230
2300
3200
2300
3002
,
2023
3001
1030
0010
0100
0001
0010
1000
0100
1000
0010
0100
1000
0001
0100
0010
,
2002
3100
0013
0100
1000
0010
0100
0001
0010
1000
0100
0010
0100
0001
0010
0100
,
2002
3010
0103
0001
1000
0001
0100
0010
1000
0100
0010
0100
1000
0010
0100
0001
,
2020
3032
0203
0320
2030
3200
0320
2030
3200
0302
0203
0320
2030
3200
0320
0230
,
2302
3010
1003
0100
0010
0100
0001
0010
1000
0100
0010
0100
0001
0010
0100
0010
,
2002
3100
0013
0001
0100
0010
1000
0100
0010
0001
0100
0010
1000
0001
0100
0010
,
2200
0301
3100
0010
1000
0100
1000
0010
0100
0001
0010
1000
0100
0001
0010
0100
,
2002
0023
3230
0302
2003
3020
0230
0302
2003
3020
0230
2300
3002
0023
2030
3200
,
0312
1000
0100
1000
0010
0100
1000
0010
1000
0100
0010
0100
1000
0010
0100
1000
,
0213
1000
0010
1000
0001
0010
0001
0010
1000
0001
1000
0001
1000
0010
0001
0010
,
2301
0010
0100
0001
0010
0100
0010
0100
0001
0010
0100
0001
0010
0100
0001
0100
,
3021
0200
2300
3002
2003
3200
0302
2003
3200
0302
0203
2300
3002
0203
2300
3002
,
1233
0010
0001
0010
1000
0010
0001
1000
0010
1000
0010
0001
1000
0010
0001
1000
,
0321
1000
0100
1000
0001
0100
1000
0100
1000
0100
0001
1000
0100
1000
0100
0001
,
2130
0001
0100
0010
0001
0100
0010
0001
0100
0010
0100
0001
0010
0100
0010
0100
,
3012
0000
2000
0000
3200
0000
0320
0000
0230
0000
2300
0000
3020
0000
0230
0000
2300
0000
3020
0000
0230
0000
0320
0000
2030
0000
3200
0000
0320
0000
2030
3000
,
2220
0000
0000
0000
0000
0000
0000
0000
0000
0000
0000
0000
0000
0000
0000
0000
0000
0000
0000
0000
0000
0000
0000
0000
0000
0000
0000
0000
0000
0000
0000
0000
0000
0000
0000
0000
0000
0000
0000
0000
0000
0000
0000
0000
0000
0000
0000
3333
,
2220
0000
0000
0000
0000
0000
0000
0000
0000
0000
0000
0000
0000
0000
0000
0000
0000
0000
0000
0000
0000
0000
0000
0000
0000
0000
0000
0000
0000
0000
0000
0000
0000
0000
0000
0000
0000
0000
0000
0000
0000
0000
0000
0000
0000
0000
0000
3330
,
2022
0000
0000
0000
0000
0000
0000
0000
0000
0000
0000
0000
0000
0000
0000
0000
0000
0000
0000
0000
0000
0000
0000
0000
0000
0000
0000
0000
0000
0000
0000
0000
0000
0000
0000
0000
0000
0000
0000
0000
0000
0000
0000
0000
0000
0000
0000
3033
,
2222
0000
0000
0000
0000
0000
0000
0000
0000
0000
0000
0000
0000
0000
0000
0000
0000
0000
0000
0000
0000
0000
0000
0000
0000
0000
0000
0000
0000
0000
0000
0000
0000
0000
0000
0000
0000
0000
0000
0000
0000
0000
0000
0000
0000
0000
0000
3333
,
0222
0000
0000
0000
0000
0000
0000
0000
0000
0000
0000
0000
0000
0000
0000
0000
0000
0000
0000
0000
0000
0000
0000
0000
0000
0000
0000
0000
0000
0000
0000
0000
0000
0000
0000
0000
0000
0000
0000
0000
0000
0000
0000
0000
0000
0000
0000
0333
,
2202
0000
0000
0000
0000
0000
0000
0000
0000
0000
0000
0000
0000
0000
0000
0000
0000
0000
0000
0000
0000
0000
0000
0000
0000
0000
0000
0000
0000
0000
0000
0000
0000
0000
0000
0000
0000
0000
0000
0000
0000
0000
0000
0000
0000
0000
0000
3303
,
2220
0000
0000
0000
0000
0000
0000
0000
0000
0000
0000
0000
0000
0000
0000
0000
0000
0000
0000
0000
0000
0000
0000
0000
0000
0000
0000
0000
0000
0000
0000
0000
0000
0000
0000
0000
0000
0000
0000
0000
0000
0000
0000
0000
0000
0000
0000
3330
,
2022
0000
0000
0000
0000
0000
0000
0000
0000
0000
0000
0000
0000
0000
0000
0000
0000
0000
0000
0000
0000
0000
0000
0000
0000
0000
0000
0000
0000
0000
0000
0000
0000
0000
0000
0000
0000
0000
0000
0000
0000
0000
0000
0000
0000
0000
0000
3033
,
2220
0000
0000
0000
0000
0000
0000
0000
0000
0000
0000
0000
0000
0000
0000
0000
0000
0000
0000
0000
0000
0000
0000
0000
0000
0000
0000
0000
0000
0000
0000
0000
0000
0000
0000
0000
0000
0000
0000
0000
0000
0000
0000
0000
0000
0000
0000
3330
,
0222
0000
0000
0000
0000
0000
0000
0000
0000
0000
0000
0000
0000
0000
0000
0000
0000
0000
0000
0000
0000
0000
0000
0000
0000
0000
0000
0000
0000
0000
0000
0000
0000
0000
0000
0000
0000
0000
0000
0000
0000
0000
0000
0000
0000
0000
0000
0333
,
2220
0000
0000
0000
0000
0000
0000
0000
0000
0000
0000
0000
0000
0000
0000
0000
0000
0000
0000
0000
0000
0000
0000
0000
0000
0000
0000
0000
0000
0000
0000
0000
0000
0000
0000
0000
0000
0000
0000
0000
0000
0000
0000
0000
0000
0000
0000
3330
,
2202
0000
0000
0000
0000
0000
0000
0000
0000
0000
0000
0000
0000
0000
0000
0000
0000
0000
0000
0000
0000
0000
0000
0000
0000
0000
0000
0000
0000
0000
0000
0000
0000
0000
0000
0000
0000
0000
0000
0000
0000
0000
0000
0000
0000
0000
0000
3303
,
2022
0000
0000
0000
0000
0000
0000
0000
0000
0000
0000
0000
0000
0000
0000
0000
0000
0000
0000
0000
0000
0000
0000
0000
0000
0000
0000
0000
0000
0000
0000
0000
0000
0000
0000
0000
0000
0000
0000
0000
0000
0000
0000
0000
0000
0000
0000
3033
,
0222
0000
0000
0000
0000
0000
0000
0000
0000
0000
0000
0000
0000
0000
0000
0000
0000
0000
0000
0000
0000
0000
0000
0000
0000
0000
0000
0000
0000
0000
0000
0000
0000
0000
0000
0000
0000
0000
0000
0000
0000
0000
0000
0000
0000
0000
0000
0333
,
2220
0000
0000
0000
,
3330
0001
0010
0001
1000
0100
1000
0010
0001
0010
1000
0100
1000
0010
0001
0010
1000
0100
1000
0010
0001
0010
1000
0100
,
2022
0000
0000
0000
,
0000
0000
0000
0000
,
3033
2000
0000
0200
0000
0000
0320
0000
0000
0032
0000
0000
0203
0000
0000
0320
0000
0000
0032
0000
0000
0023
0000
0000
0032
0000
0000
0023
0000
3000
0230
0000
0000
0302
0000
0000
0023
0000
0000
0230
0000
0000
2300
0000
0000
3020
0000
0000
,
0230
2300
3200
0320
2030
3002
0203
0320
2030
3200
0302
0023
2030
3200
0320
0032
,
2003
3200
0320
0032
0023
0230
2300
3020
0230
2300
3200
0320
0230
0302
0023
2030
,
3200
0320
0032
2003
3200
0320
2030
3200
0320
0032
2003
3002
2003
3020
0230
0320
,
2030
3002
0023
0230
2300
3020
0230
0302
0023
2030
3200
0320
0230
0320
0032
0023
,
0230
2300
3200
2300
3020
0230
0302
0023
2030
3200
0320
2030
3002
0023
2030
3200
,
2300
3002
0203
2300
3020
0032
0023
0230
2300
3200
0320
0032
2003
3200
0320
0032
,
2003
3200
2300
3020
0230
0302
0023
0230
2300
3002
0203
0320
2030
3020
0230
0302
,
0223
2332
3203
0320
0032
2003
3200
0320
0230
0302
0023
2030
3200
0320
0032
0203
,
0320
2030
3002
0023
0230
0320
2030
3200
0302
0023
2030
3200
0320
0032
0203
0320
,
2030
3200
0320
0032
0203
2300
3020
0230
2300
3200
2300
3020
0230
0302
0023
0230
,
2300
3020
0230
2300
3200
2300
3020
0230
2300
3002
0203
0320
2030
3200
2300
3200
,
0320
0032
0023
0230
0320
0230
0320
2030
3200
2300
3200
2300
3200
0320
0032
0023
,
0032
2003
3002
2003
3002
2003
3002
2003
3200
0320
0230
0320
0032
0023
0230
2300
,
3200
0320
0032
0203
2300
3002
0023
0230
0320
0032
0203
2300
3020
0032
0203
0320
,
2030
3200
2300
3020
0032
0023
0032
2003
3200
2300
3020
0032
0023
0230
2300
3200
0320
0032
0023
2030
3200
2300
3020
0032
,
2223
0000
0000
0000
,
0000
0000
0000
0000
,
3330
1101
0010
0100
1001
0100
1010
0101
1010
0101
0010
1100
0011
1000
0110
0001
,
0110
1000
0110
0001
0110
1000
0111
0000
0110
1000
0111
1000
0110
0001
1100
0010
,
1001
0100
1010
0101
0010
1100
0010
0101
0010
1100
0010
0101
0010
1100
0010
0101
,
0010
1100
0011
0100
1010
0100
0011
0100
1010
0100
0011
1000
0110
1000
0101
0010
,
0100
1011
0100
1000
0101
0010
1000
0100
1010
0100
0011
1100
0010
0101
1010
0100
,
1011
0100
1010
0100
0011
0100
1010
0101
1010
0100
0011
0100
1010
0100
1001
0110
,
2001
3200
0320
0032
2003
3200
2300
3020
0032
0203
0320
2030
3200
0320
2030
3200
,
2300
3020
0032
0203
0320
2030
3200
0320
0032
0203
2300
3020
0230
2300
3020
0032
,
2223
3331
0010
1100
0010
1001
0110
1000
0222
1333
0101
0010
1100
0010
0101
0010
,
2202
3313
1000
0101
0010
1100
0011
0100
2022
3133
0010
1001
0110
1000
0110
0001
,
2220
3331
0110
0001
1100
0010
1001
0100
2022
3133
1010
0101
0010
1100
0010
1000
,
0222
1333
0101
0010
1100
0010
0101
0010
2202
3313
0100
1001
0110
1001
0110
1000
,
0222
1333
0101
1010
0100
0011
1100
0010
2202
3313
1100
0010
0101
1010
0100
0010
,
2202
3313
0101
1010
0100
0011
0100
1010
0222
1333
0110
1000
0101
0010
1100
0001
,
2220
3331
0100
1010
0100
1010
0101
0010
2202
3313
1100
0010
0101
1010
0100
0001
,
2220
3331
1100
0011
0100
1010
0101
0010
2202
3313
0101
1010
0100
0011
1100
0010
,
2202
3323
0230
0302
1013
0200
2300
3020
0131
2000
3200
0302
1013
0200
0302
2003
,
3110
0002
0023
0230
1301
0020
2030
3002
0113
2000
3200
0320
1130
0002
0023
2030
,
3101
0020
0230
0302
1013
0200
0320
2030
3101
0020
2030
3002
0113
2000
3200
0320
,
1031
0200
0320
2030
3110
0002
0203
0320
1031
0200
0320
2030
3101
0020
0230
0320
,
1031
0200
2300
3002
0113
2000
3200
0320
0131
2000
3200
0302
1013
0200
0320
2030
,
3101
0020
0230
2300
3011
0200
2300
3020
0131
2000
3200
0320
1031
0200
0320
2030
,
3101
0020
0230
2300
3110
0002
2003
3200
0311
2000
3200
0320
0131
2000
3200
0300
,
2022
0000
0100
3033
1000
0000
0010
0000
0001
0000
0010
0000
0100
0000
1000
0000
0100
0000
0010
0000
0001
0000
0010
0000
0100
0000
1000
0000
0100
0000
0010
0000
0001
0000
0010
0000
1000
0000
0100
0000
1000
0000
0010
0000
0100
0000
0001
0000
,
2210
3301
0010
0100
1000
0010
0100
0010
0001
0100
0010
1000
0100
0010
1000
0100
,
2021
0100
3031
0100
1000
0010
0100
0001
1000
0100
0010
1000
0100
0010
0001
1000
,
0212
1000
0313
0100
1000
0010
0100
0001
0010
1000
0100
0010
0001
1000
0100
0010
,
2002
3203
0320
0032
2003
3200
0320
0230
2300
3020
0230
0302
2003
3020
0230
2300
,
3122
1033
0100
1000
0100
0010
0001
0010
0001
0100
1000
0100
0010
1000
0001
0100
,
2012
3103
1000
0100
0010
0001
0100
0010
0100
0010
1000
0100
1000
0010
0100
0010
,
2102
3013
0100
0010
0001
0100
0010
1000
0100
0010
0100
1000
0010
0100
0010
0001
,
2220
3332
0023
0230
2300
3200
0320
0230
2300
3002
0203
0320
0230
2300
3020
0030
,
2220
3031
0010
1000
0010
0001
1000
0010
1000
0010
0001
0010
1000
0010
1000
0010
,
1321
0100
1000
0100
0001
1000
0100
0001
1000
0100
1000
0001
0100
0001
0100
0001
,
2131
0010
0100
0010
0001
0100
0010
0001
0010
0100
0010
0100
0010
0001
0010
0100
,
3112
0000
2000
0000
3200
0000
0320
0000
0230
0000
2300
0000
3200
0000
0320
0000
0230
0000
2300
0000
3200
0000
2300
0000
3200
0000
0320
0000
0230
0000
2300
3000
,
2113
0100
0010
0100
0010
0001
0010
0001
0010
0001
0010
0100
0010
0100
0010
0001
,
3112
0100
1000
0100
0010
0100
1000
0100
1000
0100
1000
0100
0010
0100
1000
0010
,
1213
1000
0010
0001
1000
0010
1000
0001
0010
1000
0010
0001
1000
0010
1000
0001
,
1320
0001
0100
1000
0001
0100
1000
0001
0100
0001
1000
0100
0001
1000
0100
0001
0100
1000
0001
0100
0001
1000
0100
0001
,
2202
0000
0000
0000
,
0000
0000
0000
0000
0000
0000
0000
0000
0000
0000
0000
0000
0000
0000
0000
0000
0000
0000
0000
0000
0000
0000
0000
0000
0000
0000
0000
0000
0000
0000
0000
0000
0000
0000
0000
0000
0000
0000
0000
0000
0000
0000
0000
0000
0000
0030
3303
0000
,
0111
2000
3200
0320
0032
0203
2300
3020
0230
0302
0023
2030
3200
0320
0230
2300
3020
0230
0302
0023
0230
0302
2003
3200
,
0320
0230
0302
0023
2030
3200
0320
2030
3002
0203
0320
0230
2300
3002
0023
0230
0302
2003
3020
0230
0302
0023
2030
3200
,
0320
2030
3200
0302
0023
0230
0302
2003
3020
0230
0302
0023
0230
2300
3020
0230
0302
0023
0230
0302
0023
0230
2300
3200
,
0320
0032
0023
0230
2300
3200
0320
0032
2003
3200
0320
0032
2003
3200
0320
0032
0023
0230
0302
0023
0230
2300
3200
0320
,
0230
0302
0023
0230
2300
3200
0320
0230
2300
3002
0023
0230
0302
2003
3020
0230
0302
0023
2030
3200
0320
0032
0023
0230
,
2300
3200
0320
0032
2003
3200
0320
0032
0203
0320
2030
3200
0302
0023
0230
2300
3020
0230
0302
0203
0320
0230
2300
3200
,
0320
0230
0302
0023
2030
3200
0320
0230
2300
3002
0203
0320
2030
3200
0320
0230
2300
3002
0023
0230
0320
2030
3002
0203
,
0320
2030
3200
0320
0032
0203
2300
3020
0230
0302
0023
2030
3200
2300
3020
0032
0023
0230
2300
3200
2300
3020
0230
0300
,
1011
0200
2300
3002
0113
2000
3200
0320
1130
0002
0023
0230
0311
2000
3200
0302
,
0113
2000
3200
0320
1130
0002
0023
2030
3110
0002
0203
2300
3011
0200
0320
2030
,
3110
0002
2003
3002
0113
2000
3200
0320
1130
0002
0023
0230
0311
2000
3200
0302
,
0113
2000
3002
0023
1130
0002
0203
2300
3011
0200
2300
3002
0113
2000
3200
0302
,
0113
2000
3020
0032
1103
0020
0230
2300
3011
0200
2300
3002
0113
2000
3020
0032
,
1103
0020
0230
2300
3011
0200
0302
2003
3110
0002
0023
0032
1103
0020
2030
3002
,
0113
2000
3200
2300
3011
0200
2300
3002
0113
2000
3020
0032
1103
0020
2030
3200
,
1311
0100
1000
0010
0001
0010
0100
1000
0100
0010
0001
0010
0100
1000
0100
0010
0001
1010
0100
1000
0010
0001
0010
0100
1000
0100
0010
0001
0010
0100
1000
0010
,
2222
0000
0000
0000
,
0000
0000
0000
3333
,
1010
0100
0011
0100
1010
0100
0011
1100
0010
0101
0010
1100
0010
0101
0010
1001
0110
1000
0101
0010
1100
0010
0001
1010
,
0100
0011
1000
0110
1000
0101
0010
1100
0001
0110
1000
0100
1010
0100
0011
0100
1010
0100
0011
0100
1010
0100
1010
0100
,
1001
0010
0101
1000
0110
0001
1100
0010
0100
0011
0100
1001
0010
0101
1000
0100
0011
0100
1010
0100
0011
0100
1001
0010
,
1100
0010
0101
0010
1100
0010
0101
0010
1100
0010
0100
0011
1100
0001
0010
0101
0010
0100
1010
0100
0010
1100
0010
0100
,
0011
0100
1000
0101
0010
0100
1010
0100
0001
0110
1000
0110
1001
0100
0010
1100
0001
0010
1100
0010
0101
0010
0100
1001
,
0110
1000
0101
0010
1100
0010
0101
0010
1100
0010
0101
0010
1001
0100
0010
1100
0010
0001
0100
1010
0100
0001
1010
0100
,
0011
0100
1000
0110
0001
0110
1001
0100
0010
1000
0101
0010
0100
1010
0100
0001
0110
1000
0010
0101
0010
0100
1010
0100
,
0001
0110
1000
0001
0100
1010
0100
0001
0110
1000
0101
0010
1000
0110
1000
0001
0110
1000
0001
0110
1000
0111
0000
0000
,
2220
0000
0000
0000
0000
0000
3330
0000
0001
0000
0000
0000
0000
0000
0000
0000
0110
0000
0000
0000
0000
0000
0000
0000
1000
0000
0000
0000
0000
0000
0000
0000
0100
0000
0000
0000
0000
0000
0000
0000
0000
0000
0000
0000
0000
0000
0000
0000
0011
0000
0000
0000
0000
0000
0000
0000
0100
0000
0000
0000
0000
0000
0000
0000
1000
0000
0000
0000
0000
0000
0000
0000
0011
0000
0000
0000
0000
0000
0000
0000
0100
0000
0000
0000
0000
0000
0000
0000
1000
0000
0000
0000
0000
0000
0000
0000
0222
0000
0000
0000
0000
0000
0333
0000
0000
0000
0000
0000
0000
0000
0000
0000
0010
0000
0000
0000
0000
0000
0000
0000
1100
0000
0000
0000
0000
0000
0000
0000
0010
0000
0000
0000
0000
0000
0000
0000
0001
0000
0000
0000
0000
0000
0000
0000
0100
0000
0000
0000
0000
0000
0000
0000
1010
0000
0000
0000
0000
0000
0000
0000
0001
0000
0000
0000
0000
0000
0000
0000
1110
0000
0000
0000
0000
0000
0000
0000
0000
0000
0000
0000
0000
0000
0000
0000
0001
0000
0000
0000
0000
0000
0000
0000
,
2220
0000
0000
0000
0000
0000
3330
0000
0000
0000
0000
0000
0000
0000
0000
0000
0110
0000
0000
0000
0000
0000
0000
0000
1001
0000
0000
0000
0000
0000
0000
0000
0100
0000
0000
0000
0000
0000
0000
0000
0001
0000
0000
0000
0000
0000
0000
0000
1000
0000
0000
0000
0000
0000
0000
0000
0110
0000
0000
0000
0000
0000
0000
0000
0001
0000
0000
0000
0000
0000
0000
0000
1010
0000
0000
0000
0000
0000
0000
0000
0100
0000
0000
0000
0000
0000
0000
0000
0000
0000
0000
0000
0000
0000
0000
0000
0222
0000
0000
0000
0000
0000
0333
0000
1000
0000
0000
0000
0000
0000
0000
0000
0100
0000
0000
0000
0000
0000
0000
0000
1010
0000
0000
0000
0000
0000
0000
0000
0101
0000
0000
0000
0000
0000
0000
0000
0000
0000
0000
0000
0000
0000
0000
0000
1100
0000
0000
0000
0000
0000
0000
0000
0000
0000
0000
0000
0000
0000
0000
0000
1110
0000
0000
0000
0000
0000
0000
0000
0001
0000
0000
0000
0000
0000
0000
0000
1000
0000
0000
0000
0000
0000
0000
0000
0001
0000
0000
0000
0000
0000
0000
0000
,
2220
0000
0000
0000
0000
0000
3330
0000
0001
0000
0000
0000
0000
0000
0000
0000
0010
0000
0000
0000
0000
0000
0000
0000
1100
0000
0000
0000
0000
0000
0000
0000
0001
0000
0000
0000
0000
0000
0000
0000
1000
0000
0000
0000
0000
0000
0000
0000
0101
0000
0000
0000
0000
0000
0000
0000
1010
0000
0000
0000
0000
0000
0000
0000
0001
0000
0000
0000
0000
0000
0000
0000
0010
0000
0000
0000
0000
0000
0000
0000
1100
0000
0000
0000
0000
0000
0000
0000
0000
0000
0000
0000
0000
0000
0000
0000
0222
0000
0000
0000
0000
0000
0333
0000
1000
0000
0000
0000
0000
0000
0000
0000
0100
0000
0000
0000
0000
0000
0000
0000
0010
0000
0000
0000
0000
0000
0000
0000
1001
0000
0000
0000
0000
0000
0000
0000
0010
0000
0000
0000
0000
0000
0000
0000
0001
0000
0000
0000
0000
0000
0000
0000
1100
0000
0000
0000
0000
0000
0000
0000
0000
0000
0000
0000
0000
0000
0000
0000
0010
0000
0000
0000
0000
0000
0000
0000
1001
0000
0000
0000
0000
0000
0000
0000
0100
0000
0000
0000
0000
0000
0000
0000
,
2022
0000
0000
0000
0000
0000
3033
0000
0100
0000
0000
0000
0000
0000
0000
0000
1000
0000
0000
0000
0000
0000
0000
0000
0010
0000
0000
0000
0000
0000
0000
0000
1100
0000
0000
0000
0000
0000
0000
0000
0001
0000
0000
0000
0000
0000
0000
0000
0100
0000
0000
0000
0000
0000
0000
0000
0010
0000
0000
0000
0000
0000
0000
0000
1000
0000
0000
0000
0000
0000
0000
0000
0111
0000
0000
0000
0000
0000
0000
0000
1000
0000
0000
0000
0000
0000
0000
0000
0000
0000
0000
0000
0000
0000
0000
0000
2220
0000
0000
0000
0000
0000
3330
0000
0001
0000
0000
0000
0000
0000
0000
0000
0100
0000
0000
0000
0000
0000
0000
0000
1010
0000
0000
0000
0000
0000
0000
0000
0100
0000
0000
0000
0000
0000
0000
0000
0000
0000
0000
0000
0000
0000
0000
0000
1100
0000
0000
0000
0000
0000
0000
0000
0010
0000
0000
0000
0000
0000
0000
0000
0100
0000
0000
0000
0000
0000
0000
0000
0011
0000
0000
0000
0000
0000
0000
0000
1000
0000
0000
0000
0000
0000
0000
0000
0100
0000
0000
0000
0000
0000
0000
0000
,
2022
0000
0000
0000
0000
0000
3033
0000
0100
0000
0000
0000
0000
0000
0000
0000
1000
0000
0000
0000
0000
0000
0000
0000
0110
0000
0000
0000
0000
0000
0000
0000
0001
0000
0000
0000
0000
0000
0000
0000
0000
0000
0000
0000
0000
0000
0000
0000
1100
0000
0000
0000
0000
0000
0000
0000
0010
0000
0000
0000
0000
0000
0000
0000
0100
0000
0000
0000
0000
0000
0000
0000
1001
0000
0000
0000
0000
0000
0000
0000
0010
0000
0000
0000
0000
0000
0000
0000
0100
0000
0000
0000
0000
0000
0000
0000
2022
0000
0000
0000
0000
0000
3033
0000
0100
0000
0000
0000
0000
0000
0000
0000
1000
0000
0000
0000
0000
0000
0000
0000
0000
0000
0000
0000
0000
0000
0000
0000
1010
0000
0000
0000
0000
0000
0000
0000
0100
0000
0000
0000
0000
0000
0000
0000
0011
0000
0000
0000
0000
0000
0000
0000
0100
0000
0000
0000
0000
0000
0000
0000
1000
0000
0000
0000
0000
0000
0000
0000
0110
0000
0000
0000
0000
0000
0000
0000
0001
0000
0000
0000
0000
0000
0000
0000
0000
0000
0000
0000
0000
0000
0000
0000
,
2202
0000
0000
0000
0000
0000
3303
0000
0010
0000
0000
0000
0000
0000
0000
0000
0100
0000
0000
0000
0000
0000
0000
0000
1010
0000
0000
0000
0000
0000
0000
0000
0100
0000
0000
0000
0000
0000
0000
0000
0001
0000
0000
0000
0000
0000
0000
0000
0010
0000
0000
0000
0000
0000
0000
0000
1100
0000
0000
0000
0000
0000
0000
0000
0010
0000
0000
0000
0000
0000
0000
0000
0100
0000
0000
0000
0000
0000
0000
0000
1000
0000
0000
0000
0000
0000
0000
0000
0000
0000
0000
0000
0000
0000
0000
0000
2022
0000
0000
0000
0000
0000
3033
0000
0100
0000
0000
0000
0000
0000
0000
0000
1000
0000
0000
0000
0000
0000
0000
0000
0110
0000
0000
0000
0000
0000
0000
0000
0001
0000
0000
0000
0000
0000
0000
0000
1010
0000
0000
0000
0000
0000
0000
0000
0100
0000
0000
0000
0000
0000
0000
0000
0001
0000
0000
0000
0000
0000
0000
0000
1010
0000
0000
0000
0000
0000
0000
0000
0100
0000
0000
0000
0000
0000
0000
0000
0010
0000
0000
0000
0000
0000
0000
0000
0000
0000
0000
0000
0000
0000
0000
0000
,
2202
0000
0000
0000
0000
0000
3303
0000
0010
0000
0000
0000
0000
0000
0000
0000
0100
0000
0000
0000
0000
0000
0000
0000
0001
0000
0000
0000
0000
0000
0000
0000
0010
0000
0000
0000
0000
0000
0000
0000
1100
0000
0000
0000
0000
0000
0000
0000
0010
0000
0000
0000
0000
0000
0000
0000
0001
0000
0000
0000
0000
0000
0000
0000
1000
0000
0000
0000
0000
0000
0000
0000
0100
0000
0000
0000
0000
0000
0000
0000
0011
0000
0000
0000
0000
0000
0000
0000
1000
0000
0000
0000
0000
0000
0000
0000
2220
0000
0000
0000
0000
0000
3330
0000
0001
0000
0000
0000
0000
0000
0000
0000
0010
0000
0000
0000
0000
0000
0000
0000
1100
0000
0000
0000
0000
0000
0000
0000
0000
0000
0000
0000
0000
0000
0000
0000
1000
0000
0000
0000
0000
0000
0000
0000
0011
0000
0000
0000
0000
0000
0000
0000
0100
0000
0000
0000
0000
0000
0000
0000
1000
0000
0000
0000
0000
0000
0000
0000
0110
0000
0000
0000
0000
0000
0000
0000
0001
0000
0000
0000
0000
0000
0000
0000
0010
0000
0000
0000
0000
0000
0000
0000
,
2002
0000
0000
0000
0000
0000
3003
0000
0100
0000
0000
0000
0000
0000
0000
0000
1000
0000
0000
0000
0000
0000
0000
0000
0010
0000
0000
0000
0000
0000
0000
0000
0001
0000
0000
0000
0000
0000
0000
0000
0010
0000
0000
0000
0000
0000
0000
0000
0100
0000
0000
0000
0000
0000
0000
0000
1000
0000
0000
0000
0000
0000
0000
0000
0100
0000
0000
0000
0000
0000
0000
0000
0010
0000
0000
0000
0000
0000
0000
0000
0001
0000
0000
0000
0000
0000
0000
0000
0010
0000
0000
0000
0000
0000
0000
0000
0202
0000
0000
0000
0000
0000
0303
0000
1000
0000
0000
0000
0000
0000
0000
0000
0100
0000
0000
0000
0000
0000
0000
0000
0010
0000
0000
0000
0000
0000
0000
0000
0001
0000
0000
0000
0000
0000
0000
0000
0010
0000
0000
0000
0000
0000
0000
0000
0100
0000
0000
0000
0000
0000
0000
0000
1000
0000
0000
0000
0000
0000
0000
0000
0100
0000
0000
0000
0000
0000
0000
0000
0010
0000
0000
0000
0000
0000
0000
0000
1001
0000
0000
0000
0000
0000
0000
0000
0000
0000
0000
0000
0000
0000
0000
0000
,
2202
0000
0000
0000
0000
0000
3303
0000
0010
0000
0000
0000
0000
0000
0000
0000
0100
0000
0000
0000
0000
0000
0000
0000
1000
0000
0000
0000
0000
0000
0000
0000
0110
0000
0000
0000
0000
0000
0000
0000
0001
0000
0000
0000
0000
0000
0000
0000
1000
0000
0000
0000
0000
0000
0000
0000
0110
0000
0000
0000
0000
0000
0000
0000
1000
0000
0000
0000
0000
0000
0000
0000
0001
0000
0000
0000
0000
0000
0000
0000
0100
0000
0000
0000
0000
0000
0000
0000
1000
0000
0000
0000
0000
0000
0000
0000
0222
0000
0000
0000
0000
0000
0333
0000
1000
0000
0000
0000
0000
0000
0000
0000
0010
0000
0000
0000
0000
0000
0000
0000
0100
0000
0000
0000
0000
0000
0000
0000
0001
0000
0000
0000
0000
0000
0000
0000
0010
0000
0000
0000
0000
0000
0000
0000
1100
0000
0000
0000
0000
0000
0000
0000
0000
0000
0000
0000
0000
0000
0000
0000
0011
0000
0000
0000
0000
0000
0000
0000
0100
0000
0000
0000
0000
0000
0000
0000
1001
0000
0000
0000
0000
0000
0000
0000
0100
0000
0000
0000
0000
0000
0000
0000
,
2022
0000
0000
0000
0000
0000
3033
0000
0000
0000
0000
0000
0000
0000
0000
0000
1100
0000
0000
0000
0000
0000
0000
0000
0000
0000
0000
0000
0000
0000
0000
0000
1010
0000
0000
0000
0000
0000
0000
0000
0100
0000
0000
0000
0000
0000
0000
0000
0000
0000
0000
0000
0000
0000
0000
0000
1101
0000
0000
0000
0000
0000
0000
0000
0010
0000
0000
0000
0000
0000
0000
0000
0100
0000
0000
0000
0000
0000
0000
0000
0001
0000
0000
0000
0000
0000
0000
0000
1000
0000
0000
0000
0000
0000
0000
0000
2202
0000
0000
0000
0000
0000
3303
0000
0010
0000
0000
0000
0000
0000
0000
0000
0100
0000
0000
0000
0000
0000
0000
0000
1010
0000
0000
0000
0000
0000
0000
0000
0100
0000
0000
0000
0000
0000
0000
0000
0001
0000
0000
0000
0000
0000
0000
0000
1010
0000
0000
0000
0000
0000
0000
0000
0100
0000
0000
0000
0000
0000
0000
0000
1001
0000
0000
0000
0000
0000
0000
0000
0010
0000
0000
0000
0000
0000
0000
0000
1100
0000
0000
0000
0000
0000
0000
0000
0001
0000
0000
0000
0000
0000
0000
0000
,
2220
0000
0000
0000
0000
0000
3330
0000
0001
0000
0000
0000
0000
0000
0000
0000
0000
0000
0000
0000
0000
0000
0000
0000
1100
0000
0000
0000
0000
0000
0000
0000
0010
0000
0000
0000
0000
0000
0000
0000
0101
0000
0000
0000
0000
0000
0000
0000
0010
0000
0000
0000
0000
0000
0000
0000
1000
0000
0000
0000
0000
0000
0000
0000
0101
0000
0000
0000
0000
0000
0000
0000
0010
0000
0000
0000
0000
0000
0000
0000
0100
0000
0000
0000
0000
0000
0000
0000
1000
0000
0000
0000
0000
0000
0000
0000
0222
0000
0000
0000
0000
0000
0333
0000
1000
0000
0000
0000
0000
0000
0000
0000
0100
0000
0000
0000
0000
0000
0000
0000
1010
0000
0000
0000
0000
0000
0000
0000
0100
0000
0000
0000
0000
0000
0000
0000
0001
0000
0000
0000
0000
0000
0000
0000
1100
0000
0000
0000
0000
0000
0000
0000
0010
0000
0000
0000
0000
0000
0000
0000
0101
0000
0000
0000
0000
0000
0000
0000
0010
0000
0000
0000
0000
0000
0000
0000
1000
0000
0000
0000
0000
0000
0000
0000
0001
0000
0000
0000
0000
0000
0000
0000
,
2220
0000
0000
0000
0000
0000
3330
0000
0000
0000
0000
0000
0000
0000
0000
0000
0001
0000
0000
0000
0000
0000
0000
0000
1100
0000
0000
0000
0000
0000
0000
0000
0010
0000
0000
0000
0000
0000
0000
0000
1000
0000
0000
0000
0000
0000
0000
0000
0101
0000
0000
0000
0000
0000
0000
0000
0010
0000
0000
0000
0000
0000
0000
0000
0100
0000
0000
0000
0000
0000
0000
0000
1001
0000
0000
0000
0000
0000
0000
0000
0010
0000
0000
0000
0000
0000
0000
0000
0000
0000
0000
0000
0000
0000
0000
0000
0222
0000
0000
0000
0000
0000
0333
0000
1000
0000
0000
0000
0000
0000
0000
0000
0100
0000
0000
0000
0000
0000
0000
0000
1001
0000
0000
0000
0000
0000
0000
0000
0010
0000
0000
0000
0000
0000
0000
0000
0101
0000
0000
0000
0000
0000
0000
0000
0000
0000
0000
0000
0000
0000
0000
0000
1001
0000
0000
0000
0000
0000
0000
0000
0010
0000
0000
0000
0000
0000
0000
0000
0101
0000
0000
0000
0000
0000
0000
0000
0010
0000
0000
0000
0000
0000
0000
0000
0000
0000
0000
0000
0000
0000
0000
0000
,
2202
0000
0000
0000
0000
0000
3303
0000
0010
0000
0000
0000
0000
0000
0000
0000
0100
0000
0000
0000
0000
0000
0000
0000
1001
0000
0000
0000
0000
0000
0000
0000
0010
0000
0000
0000
0000
0000
0000
0000
0101
0000
0000
0000
0000
0000
0000
0000
0010
0000
0000
0000
0000
0000
0000
0000
1000
0000
0000
0000
0000
0000
0000
0000
0101
0000
0000
0000
0000
0000
0000
0000
0000
0000
0000
0000
0000
0000
0000
0000
1011
0000
0000
0000
0000
0000
0000
0000
0000
0000
0000
0000
0000
0000
0000
0000
2202
0000
0000
0000
0000
0000
3303
0000
0010
0000
0000
0000
0000
0000
0000
0000
1000
0000
0000
0000
0000
0000
0000
0000
0101
0000
0000
0000
0000
0000
0000
0000
0010
0000
0000
0000
0000
0000
0000
0000
1000
0000
0000
0000
0000
0000
0000
0000
0101
0000
0000
0000
0000
0000
0000
0000
0010
0000
0000
0000
0000
0000
0000
0000
1100
0000
0000
0000
0000
0000
0000
0000
0010
0000
0000
0000
0000
0000
0000
0000
0001
0000
0000
0000
0000
0000
0000
0000
0100
0000
0000
0000
0000
0000
0000
0000
,
2022
0000
0000
0000
0000
0000
3033
0000
0100
0000
0000
0000
0000
0000
0000
0000
1000
0000
0000
0000
0000
0000
0000
0000
0110
0000
0000
0000
0000
0000
0000
0000
0001
0000
0000
0000
0000
0000
0000
0000
0010
0000
0000
0000
0000
0000
0000
0000
1100
0000
0000
0000
0000
0000
0000
0000
0010
0000
0000
0000
0000
0000
0000
0000
0100
0000
0000
0000
0000
0000
0000
0000
1001
0000
0000
0000
0000
0000
0000
0000
0100
0000
0000
0000
0000
0000
0000
0000
0000
0000
0000
0000
0000
0000
0000
0000
2022
0000
0000
0000
0000
0000
3033
0000
0100
0000
0000
0000
0000
0000
0000
0000
0010
0000
0000
0000
0000
0000
0000
0000
0100
0000
0000
0000
0000
0000
0000
0000
1001
0000
0000
0000
0000
0000
0000
0000
0010
0000
0000
0000
0000
0000
0000
0000
0100
0000
0000
0000
0000
0000
0000
0000
0011
0000
0000
0000
0000
0000
0000
0000
1000
0000
0000
0000
0000
0000
0000
0000
0100
0000
0000
0000
0000
0000
0000
0000
1010
0000
0000
0000
0000
0000
0000
0000
0001
0000
0000
0000
0000
0000
0000
0000
,
2220
0000
0000
0000
0000
0000
3330
0000
0000
0000
0000
0000
0000
0000
0000
0000
1001
0000
0000
0000
0000
0000
0000
0000
0100
0000
0000
0000
0000
0000
0000
0000
0011
0000
0000
0000
0000
0000
0000
0000
0100
0000
0000
0000
0000
0000
0000
0000
1000
0000
0000
0000
0000
0000
0000
0000
0110
0000
0000
0000
0000
0000
0000
0000
1001
0000
0000
0000
0000
0000
0000
0000
0000
0000
0000
0000
0000
0000
0000
0000
0101
0000
0000
0000
0000
0000
0000
0000
1000
0000
0000
0000
0000
0000
0000
0000
0222
0000
0000
0000
0000
0000
0333
0000
1000
0000
0000
0000
0000
0000
0000
0000
0100
0000
0000
0000
0000
0000
0000
0000
0011
0000
0000
0000
0000
0000
0000
0000
0100
0000
0000
0000
0000
0000
0000
0000
1010
0000
0000
0000
0000
0000
0000
0000
0001
0000
0000
0000
0000
0000
0000
0000
0100
0000
0000
0000
0000
0000
0000
0000
0011
0000
0000
0000
0000
0000
0000
0000
1000
0000
0000
0000
0000
0000
0000
0000
0100
0000
0000
0000
0000
0000
0000
0000
0000
0000
0000
0000
0000
0000
0000
0000
,
2022
0000
0000
0000
0000
0000
3033
0000
0100
0000
0000
0000
0000
0000
0000
0000
1000
0000
0000
0000
0000
0000
0000
0000
0010
0000
0000
0000
0000
0000
0000
0000
0101
0000
0000
0000
0000
0000
0000
0000
0010
0000
0000
0000
0000
0000
0000
0000
1000
0000
0000
0000
0000
0000
0000
0000
0100
0000
0000
0000
0000
0000
0000
0000
1000
0000
0000
0000
0000
0000
0000
0000
0010
0000
0000
0000
0000
0000
0000
0000
0001
0000
0000
0000
0000
0000
0000
0000
0100
0000
0000
0000
0000
0000
0000
0000
1000
0000
0000
0000
0000
0000
0000
0000
0100
0000
0000
0000
0000
0000
0000
0000
0010
0000
0000
0000
0000
0000
0000
0000
0001
0000
0000
0000
0000
0000
0000
0000
1000
0000
0000
0000
0000
0000
0000
0000
0100
0000
0000
0000
0000
0000
0000
0000
1000
0000
0000
0000
0000
0000
0000
0000
0010
0000
0000
0000
0000
0000
0000
0000
0001
0000
0000
0000
0000
0000
0000
0000
0010
0000
0000
0000
0000
0000
0000
0000
0100
0000
0000
0000
0000
0000
0000
0000
0010
0000
0000
0000
0000
0000
0000
0000
,
2101
0110
0110
0101
3112
0110
1100
0110
,
1213
1010
0011
1010
1321
1100
0101
1100
,
2131
0110
0011
0110
3112
1100
1110
0110
,
2113
0110
0110
0101
3121
0101
1001
1101
,
1132
0110
0110
1110
2113
0110
0101
0110
,
3112
1010
0110
0110
2113
0110
0110
0100
,
3112
0110
1010
0110
2113
0110
0011
0110
,
3112
0000
1000
0100
0010
0100
1000
0100
1000
0010
0100
0000
1123
0000
1000
0100
0001
1000
0100
0001
0100
0001
1000
0000
,
2131
0010
0100
0001
0010
0100
0010
0100
3012
0100
1000
0010
0100
1000
0010
1000
,
0213
1000
0001
0010
0001
0010
1000
0001
1320
0100
1000
0001
0100
1000
0100
1000
,
2130
0001
0010
0100
0001
0010
0100
0001
3120
0001
0100
1000
0001
0100
0001
1000
,
0231
1000
0010
1000
0010
0001
1000
0010
1302
0010
0100
1000
0100
0010
0100
1000
,
0123
1000
0001
0100
1000
0001
0100
1000
0231
1000
0010
0001
0010
0001
0010
1000
,
0321
1000
0100
1000
0100
1000
0001
1000
0231
0010
1000
0010
1000
0001
0010
1000
,
0312
0100
1000
0010
0100
1000
0100
0010
1203
0010
1000
0001
0010
1000
0010
0001
,
2310
0001
0010
0100
0010
0001
0100
0010
3102
0010
0100
1000
0010
0100
1000
0010
,
2223
0002
0000
0000
0000
0000
0000
0033
0022
0000
0000
0000
0000
0000
0000
3300
,
2200
0000
0000
0000
0000
0000
0000
0033
0022
0000
0000
0000
0000
0000
0000
3300
,
2200
0000
0000
0000
0000
0000
0000
0033
0022
0000
0000
0000
0000
0000
0000
3300
,
2200
0000
0000
0000
0000
0000
0000
0033
0022
0000
0000
0000
0000
0000
0000
3300
,
2200
0000
0000
0000
0000
0000
0000
0033
0022
0000
0000
0000
0000
0000
0000
3300
,
2200
0000
0000
0000
0000
0000
0000
0033
0022
0000
0000
0000
0000
0000
0000
3300
,
2200
0000
0000
0000
0000
0000
0000
0033
0022
0000
0000
0000
0000
0000
0000
3300
,
2200
0000
0000
0000
0000
0000
0000
0033
0022
0000
0000
0000
0000
0000
0000
3300
,
2200
0000
0000
0000
,
0000
0000
3333
0000
;
