#TITLE:Rock or Die;
#SUBTITLE:;
#ARTIST:NieN;
#TITLETRANSLIT:;
#SUBTITLETRANSLIT:;
#ARTISTTRANSLIT:;
#CREDIT:;
#BANNER:Rock or Die-bn.png;
#BACKGROUND:Rock or Die-bg.jpg;
#LYRICSPATH:;
#CDTITLE:Type MARS.png;
#MUSIC:Rock or Die.mp3;
#OFFSET:-0.160;
#SAMPLESTART:9.200;
#SAMPLELENGTH:18.120;
#SELECTABLE:YES;
#BPMS:0.000=53.000,8.000=106.000;
#STOPS:;
#BGCHANGES:-1.050=RockOrDie.mpeg=1.000=1=1=0,
99999=-nosongbg-=1.000=0=0=0 // don't automatically add -songbackground-
;
// cache tags:
#FIRSTBEAT:0.000;
#LASTBEAT:167.750;
#SONGFILENAME:Songs/Definitive Keyboard Megapack/Rock or Die(typeMARS)/Rock or Die.sm;
#HASMUSIC:1;
#HASBANNER:1;
#MUSICLENGTH:103.426;
// end cache tags

//---------------dance-single - ----------------
#NOTES:
     dance-single:
     :
     Hard:
     10:
     0.841,1.000,0.367,0.242,1.000,546.000,38.000,25.000,0.000,0.000:
1000
0100
0001
0000
0001
1000
0000
1000
0001
0000
0001
0100
1000
0100
1000
0100
0010
0100
0010
0000
1000
0001
1000
0001
0100
0000
0001
0100
0001
1000
0001
1000
,
0010
1000
0010
0000
0100
0001
0000
0001
0100
0000
1000
0001
1000
0000
0010
1000
0010
0001
0100
0000
0010
1000
0000
0100
0001
0000
0010
0100
0001
1000
0001
1000
,
0001
0100
1000
0000
1000
0001
0000
0001
1000
0000
1000
0001
0100
0001
0100
0001
,
0010
1000
0001
0000
0001
0100
0000
0100
1000
0000
1000
0100
0001
0100
0001
0100
,
0001
0000
1000
0001
0200
0000
0010
0001
2300
0000
3002
0000
0203
0000
1000
0000
,
0301
0000
0001
0100
2000
0000
0010
0100
3002
0000
0203
0000
0310
1000
0001
1000
,
0010
0001
0100
0000
0010
1000
0000
1000
0001
0000
0100
0001
0100
1000
0100
1000
,
0010
0100
0001
0000
0001
1000
0000
1000
0100
0000
0010
0100
0010
0100
0001
0100
,
0010
0000
1000
0001
0200
0000
0010
0001
2300
0000
3020
0000
0230
0000
0001
0000
,
0310
0000
1000
0001
0200
0000
0000
0000
0320
0000
1030
0001
0100
0001
0100
0001
,
1000
0010
1000
0010
0100
0001
0100
0001
0010
1000
0010
1000
0100
0001
0100
1000
,
0010
0001
0010
0001
1000
0010
1000
0010
0100
0001
0100
0001
0100
1000
0100
0001
,
0010
1000
0010
0001
0100
1000
0100
0001
0010
1000
0100
0001
0100
1000
0010
0001
,
0100
0010
1000
0001
0100
0010
1000
0001
0110
0000
0000
0101
0000
0000
1001
0000
,
0001
0100
0001
0010
0001
1000
0001
0100
0001
0010
0001
0100
0001
1000
0001
0010
,
0100
0001
0100
0010
0100
0001
0100
0010
0100
1000
0100
0001
0100
1000
0100
0001
,
1000
0010
1000
0001
1000
0100
1000
0010
1000
0001
1000
0010
1000
0100
1000
0001
,
0010
1000
0010
0100
0010
1000
0010
0001
0010
1000
0100
0010
0001
0100
0010
1000
,
0001
0001
0101
1000
1100
0010
0110
0100
,
0101
0001
1001
1000
1001
1001
1001
0010
,
0001
0100
1000
0000
0020
0000
1000
0001
0230
0000
2300
0000
3002
0000
1003
0000
,
0010
0100
0001
0000
0002
0000
1000
0100
2003
0000
3020
0000
0130
0001
1000
0001
,
1000
1000
1100
0010
0110
0001
0101
1000
,
1100
0001
0101
1000
1010
0100
0110
0010
,
0001
1000
0001
0000
0100
0001
0000
0001
1000
0000
1000
0001
1000
0000
0010
1000
,
0001
0100
0010
0000
0100
1000
0000
1000
0001
1000
0001
1000
0010
0100
0010
0100
,
0001
0100
0001
0100
0010
1000
0010
1000
0001
1000
0001
1000
0010
0100
0010
0100
,
1000
0010
0001
0100
1000
0100
0001
0010
0100
1000
0100
0010
0001
0010
0100
1000
,
0001
0010
0100
0010
0100
1000
0001
0010
0100
0010
0100
1000
0001
0010
0100
1000
0100
0010
0001
0000
0000
1001
0000
0000
,
1000
0000
0001
0100
0010
0000
1000
0001
0100
1000
0100
0001
0100
0001
0010
1000
,
0010
0000
0001
1000
0001
0000
1001
0000
1000
0001
1000
0000
1001
0000
0010
0000
,
0110
0000
0100
0010
0100
0000
0001
1000
0001
0000
1000
0000
1001
0000
1001
0000
,
0001
0100
0001
0000
0010
0000
0100
0010
0100
0000
1000
0000
1001
0000
0001
0100
,
0010
0000
1000
0010
0100
0000
0001
0000
0110
0000
0000
1100
0000
0000
0101
0000
,
0010
1000
0001
0000
0001
0100
0000
0100
0010
0000
1000
0010
0100
0001
0100
0001
,
0010
1000
0001
0000
0001
1000
0000
1000
0100
0000
0100
1000
0010
0100
0010
0100
,
0001
0010
0001
0000
0200
0000
0010
0001
1300
0000
1100
0000
0101
0000
0010
1000
,
0001
0000
0100
0010
2000
0000
0001
0100
3020
0000
2030
0000
3001
1000
0001
1000
,
0010
0100
0010
0000
1001
0000
0100
0010
0100
0000
0001
0000
1001
0000
0100
1000
,
0100
0000
0010
0000
1001
0000
0100
0010
0100
0000
0001
0000
1001
0000
0010
0100
,
1000
0010
0110
0001
0101
1000
1100
0010
,
0110
0000
0001
1000
0001
0000
0100
0010
0100
0000
0001
1000
0002
0100
0010
0103
;

//---------------dance-single - ----------------
#NOTES:
     dance-single:
     :
     Challenge:
     12:
     1.000,1.000,1.000,0.580,1.000,645.000,121.000,60.000,0.000,28.000:
2001
0001
0100
0000
0100
0001
0000
0001
0100
0000
0100
0010
0100
0001
0100
0100
3012
1000
0010
0000
0010
1000
0010
1000
0010
0000
1000
0010
1000
0010
0010
0100
,
2013
0000
0100
0000
0001
0000
0000
0000
0001
0000
0100
0000
0000
0000
0100
0000
0001
0000
0000
0000
0001
0000
0001
0000
0100
0000
0010
0000
0100
0000
0000
0000
3012
0000
1000
0000
0010
0000
0000
0000
1000
0000
0100
0000
0000
0000
0100
0000
0010
0000
0000
0000
0010
0000
0100
0000
1000
0000
1000
0000
1000
0000
1000
0003
,
1001
0000
0001
0000
0100
0000
0000
0000
0110
0000
0100
0000
0000
0000
0001
0000
1000
0000
0000
0000
1000
0000
0001
0010
1100
0000
0010
0000
0100
0000
0000
0000
,
0001
0000
0100
0000
0010
0000
0000
0000
0110
0000
1000
0000
0000
0000
0001
0000
0100
0000
0000
0000
0010
0000
1000
0100
0011
0000
0100
0000
1000
0000
0000
0000
,
0001
0100
1000
0000
0020
1000
0000
1000
0230
0000
0320
0001
1230
0001
1000
0001
,
1300
0000
0010
0000
0100
0000
0000
0000
2001
0000
0100
0000
0000
0000
0100
0000
3021
0000
0000
0000
1230
0000
0010
0000
0302
0000
1000
0000
1000
0000
0100
0003
,
1001
0000
1000
0000
0100
0000
0000
0000
0110
0000
1000
0000
0000
0000
1000
0000
0001
0000
0000
0000
0001
0000
0010
0100
1001
0000
0100
0000
0010
0000
0000
0000
,
1000
0000
0100
0000
0010
0000
0000
0000
1001
0000
0100
0000
0000
0000
0100
0000
0010
0000
0000
0000
1000
0000
0001
0010
0101
0000
0100
0000
0010
0000
0000
0000
,
1001
0000
0100
0000
0010
0000
0000
0000
2001
0000
0100
0000
0000
0000
0100
0000
3002
0000
0010
0000
0203
0000
1000
0001
0320
0000
0100
0000
1000
0000
0000
0000
,
0031
0000
0000
0000
0000
0000
0000
0000
0000
0000
0000
0000
0100
0000
0000
0000
0000
0000
0000
0000
0000
0000
0000
0000
0010
0000
0000
0000
0000
0000
0000
0000
0000
0000
0000
0000
0000
0000
0000
0000
0000
0000
0000
0000
0000
0000
0000
0000
1002
0000
0000
0000
0000
0000
0000
0000
0000
0000
0000
0000
0010
0000
0000
0000
0000
0000
0000
0000
0000
0000
0000
0000
0000
0000
0000
0000
0000
0000
0000
0000
0000
0000
0000
0000
0010
0000
0000
0000
0000
0000
0000
0000
0000
0000
0000
0000
0203
0000
0000
0000
0000
0000
0000
0000
0000
0000
0000
0000
1000
0000
0000
0000
0000
0000
0000
0000
0000
0000
0000
0000
0320
0000
0000
0000
0000
0000
0000
0000
0000
0000
0000
0000
0001
0000
0000
0000
0000
0000
0000
0000
0000
0000
0000
0000
2130
0000
0000
0000
0000
0000
0000
0000
0000
0000
0000
0000
0001
0000
0000
0000
0000
0000
0010
0000
0000
0000
0000
0000
0100
0000
0000
0000
0000
0000
0000
0000
0000
0000
0000
0000
0001
0000
0000
0000
3000
0000
0000
0000
0000
0000
0000
0000
,
1001
0000
0010
0000
0001
0000
0100
0000
1010
0000
0100
0000
0001
0000
0100
0000
1000
0000
0010
0000
0100
0000
0001
0010
1100
0000
0010
0000
0001
0000
0100
0000
,
0010
0000
1000
0000
0100
0000
0010
0000
1001
0000
0100
0000
0010
0000
1000
0000
0100
0000
1000
0000
0010
0000
0100
0010
1001
0000
0010
0000
0100
0000
1000
0000
,
0100
0000
0010
0000
0100
0000
0001
0000
1100
0000
0010
0000
0001
0000
0100
0000
0010
0000
1000
0000
0100
0000
0010
0100
1001
0000
0010
0000
0001
0000
0100
0000
,
1000
0100
0010
0100
1001
0010
0001
0100
1010
0100
0100
0011
0100
0100
1001
0100
,
1001
0010
0001
0100
1010
0100
0001
0100
1000
0010
0001
0100
1001
0010
0001
0100
,
0010
0100
1000
0001
1100
0010
0001
0100
0010
0100
1000
0001
0110
1000
0001
0100
,
0011
0100
0001
0100
1010
0001
0100
0010
0100
1000
0001
0100
0110
1000
0100
0010
,
0001
0000
0100
0000
0010
0000
0100
0000
1001
0000
0100
0000
0010
0000
0001
0000
1100
0000
0010
0000
0010
0000
0101
0000
0010
0000
0010
0100
1001
0000
0100
0000
,
0012
1000
0010
0000
0213
0001
1000
0000
2301
0100
0010
0000
3120
0001
1000
0000
,
0231
1000
0010
0000
0302
1000
0010
0000
2013
0100
0001
0010
3201
0010
1000
0000
,
0310
0010
0010
0000
2000
0001
0000
0100
3012
0000
0203
1000
0320
0001
1000
0001
,
0130
1000
0001
0000
0210
1000
0000
1000
0302
0010
2003
0100
3002
0010
1000
0010
,
0203
0010
1000
0000
0312
1000
0100
0000
2013
0001
0100
0000
3120
0001
1000
0000
,
0231
0010
0001
0010
2301
0100
0010
0100
3012
1000
0100
0010
1203
0010
0001
1000
,
0301
0001
0001
0000
0200
0001
0000
0001
1320
0000
2030
0100
3002
0010
1000
0010
,
0103
0000
0100
0000
0100
0000
0000
0000
0210
0000
0001
0000
0000
0000
0001
0000
2310
0000
0001
0000
3120
0000
0001
0000
1230
0000
0001
0010
1000
0000
0001
0000
,
0310
0000
1000
0000
0010
0000
1000
0100
0001
0000
0010
0000
0001
0000
0010
0000
0001
0000
0100
0000
0001
0000
0100
0010
1000
0000
0100
0000
1000
0000
0100
0000
,
0001
0000
0010
0000
0001
0000
0010
1000
0001
0000
0100
0000
0001
0000
0100
0000
0010
0000
1000
0000
0010
0000
1000
0100
0001
0000
0010
0000
0001
0000
0010
0000
,
1001
0000
0100
0000
0010
0000
1001
0000
0010
0000
0100
0000
1001
0000
0100
0000
0010
0000
1001
0000
0010
0000
0100
0000
1001
0000
0100
0000
0010
0000
1001
0000
0010
0000
0100
0000
1001
0000
0000
0000
0000
0000
0010
0000
0000
0010
0000
0000
,
0100
0100
0010
0000
1001
0000
0001
0001
1100
1000
1000
0110
0010
0010
0101
0001
,
1001
0000
0000
0000
1000
0000
0001
0000
0100
0000
0000
0000
0110
0000
0000
0000
0001
0000
0000
0000
1000
0000
0010
0100
1000
0000
0000
0000
0001
0000
0100
0000
,
0011
0000
0000
0000
0000
0000
1000
0000
0100
0000
0010
0000
0101
0000
0000
0000
0000
0000
1000
0000
0100
0000
0001
0000
0100
0000
0000
0000
0000
0000
0001
0000
0010
0000
0100
0000
1001
0000
0000
0000
0000
0000
0010
0000
0000
0010
0000
0000
,
1100
0000
1000
0000
1000
0000
0000
0000
1001
0000
0000
0000
0101
0000
0101
0000
1000
0000
0000
0000
0100
0000
0001
0010
1100
0000
0000
0000
0010
0000
0010
0000
,
1001
0000
0100
0000
0001
0000
0100
0000
1010
0000
0100
0000
0001
0000
0100
0000
1010
0000
0001
0000
0001
0000
0110
0000
1000
0000
1000
0100
0011
0000
0001
0000
,
1010
0000
0100
0000
0100
0000
0000
0000
1100
0010
0001
0000
0100
0000
0010
0000
1000
0000
0000
0000
0001
0000
1000
0100
0011
0000
0000
0000
0100
0000
0000
0000
,
0001
0000
0001
0000
0001
0000
0000
0000
0110
0000
1000
0000
0000
0000
1000
0001
0100
0000
0000
0000
0001
0000
1000
0100
0011
0000
0000
0000
0001
0000
1000
0000
,
1001
0000
0001
0100
0120
1000
0000
0100
2031
0000
3012
1000
0203
0001
1000
0001
,
1300
0010
0001
0000
0120
1000
0000
1000
2030
0000
3102
0010
0203
0010
0001
0010
,
0301
0010
0100
0010
1001
0100
1000
0001
0110
1000
0100
0010
1001
0010
0100
0001
,
1100
0010
0001
0100
1010
0100
0001
0010
0101
0010
0001
0100
1010
0100
1001
0110
,
1001
0100
0010
0100
1010
0100
0001
0100
0110
0010
0001
0100
1010
0100
0001
0100
,
1001
0100
0010
1000
0101
0010
0001
0100
1010
0100
0100
0011
0001
0001
1100
1000
;
