#TITLE:Beautiful Beachfront Properties;
#SUBTITLE:;
#ARTIST:Nero's Day At Disneyland;
#TITLETRANSLIT:;
#SUBTITLETRANSLIT:;
#ARTISTTRANSLIT:;
#CREDIT:;
#BANNER:../fthescorept1bn.png;
#BACKGROUND:../fthescorept1bg.png;
#LYRICSPATH:;
#CDTITLE:;
#MUSIC:Beautiful Beachfront Properties.ogg;
#OFFSET:-1.001;
#SAMPLESTART:23.830;
#SAMPLELENGTH:13.080;
#SELECTABLE:YES;
#BPMS:0.000=291.850,285.750=270.050,286.000=291.850;
#STOPS:;
#BGCHANGES:;
// cache tags:
#FIRSTBEAT:0.000;
#LASTBEAT:320.000;
#SONGFILENAME:Songs/Fuck The Score Part I/Beautiful Beachfront Properties [Dossar]/Beautiful Beachfront Properties.sm;
#HASMUSIC:1;
#HASBANNER:1;
#MUSICLENGTH:67.422;
// end cache tags

//---------------dance-single - Dossar----------------
#NOTES:
     dance-single:
     Dossar:
     Challenge:
     19:
     1.000,1.000,0.074,0.148,1.000,739.000,5.000,10.000,0.000,0.000:
1000
0010
0010
0100
,
0001
0001
0010
0100
,
1000
0000
1000
0010
0100
0000
0001
0000
,
1000
0010
0010
0100
,
0001
0001
0001
0010
,
0100
1000
0010
0100
,
0001
1000
0010
0100
0010
1000
0100
0010
,
0001
0010
0001
1000
0001
0000
1000
0100
1000
0000
0100
0010
0100
1000
0100
0010
,
0001
0000
0100
0001
1000
0000
0001
1000
0001
0000
0100
0000
0010
0000
1000
0100
,
1000
0010
0010
0100
,
0001
0001
0001
0010
,
0100
0000
0000
0000
1000
0010
0100
0010
1000
0000
0001
0100
0001
0000
0010
0000
,
0100
1000
0100
0010
0001
0000
0010
0000
0100
0000
1000
0000
0001
1000
0001
0100
,
0001
0000
0000
0001
0010
0100
1000
0001
1000
0000
0100
0000
0010
0100
0010
0100
,
0010
0100
1000
0001
0100
0010
1000
0000
,
0100
0110
0010
0010
,
0010
0001
0100
0100
,
0010
0000
1000
0000
0010
0000
0100
0001
,
0010
0001
1001
1001
,
1001
0000
0000
0000
1000
0010
0100
0001
1000
0000
0001
0000
0010
0100
1000
0000
,
0001
0000
0010
0100
1000
0010
0100
0001
0010
0000
0001
1000
0001
1000
0100
0010
,
0001
0000
1000
0001
1000
0002
2000
0000
0000
0000
3003
0000
0000
0002
0000
0000
,
0000
0000
0000
0000
,
0000
0000
0000
0000
0000
0000
0000
0000
0000
0000
0000
0000
0000
0000
0000
0003
,
0000
2000
0000
0000
0000
0000
0000
0000
0000
0000
0000
3000
0000
0020
0000
0000
,
0000
0000
0000
0000
0000
0000
0000
0000
0000
0000
0000
0030
0000
2000
0000
0000
,
0000
0000
0000
3000
0000
0002
0000
0000
0000
0000
0000
0000
0000
0000
0000
0000
,
0000
0000
0000
0000
0000
0000
0000
0000
0000
0000
0003
0000
0100
0001
0010
0100
,
1000
0000
0100
0010
0001
1000
0010
0000
0100
0000
0001
0010
0001
0000
0100
0000
,
0010
1000
0001
0100
0001
0000
1000
0000
0100
0010
0100
0000
1000
0000
0000
0001
,
0100
0010
0100
0001
0010
0000
0100
1000
0010
0100
0010
1000
0001
0000
0010
0000
,
0100
1000
0100
0010
0001
0000
1000
0000
0001
0100
0010
1000
0100
0000
0000
0010
,
0100
1000
0100
0010
0100
0000
0010
0000
0001
0100
0010
1000
0100
0010
0001
1000
,
0001
0100
0010
1000
0100
0000
0010
0000
0001
0000
1000
0100
1000
0000
0000
0001
,
0010
0100
0010
0001
1000
0000
0100
0000
0010
0001
1000
0010
0100
0000
0001
0000
,
1000
0010
1000
0001
0100
0000
0010
0000
0100
0000
0001
0010
0100
1000
0010
0100
,
0001
0000
1000
0100
1000
0001
1000
0000
0010
0100
0010
1000
0100
0010
0001
0100
,
0010
1000
0100
1000
0001
0000
0100
0000
0001
0010
0001
0000
1000
0000
0000
0100
,
1000
0010
0100
0001
0100
0000
0001
0010
0100
1000
0010
1000
0001
0000
0100
0000
,
0010
1000
0100
1000
0001
0000
0010
0000
0001
0010
0100
0010
0100
0000
1000
0001
,
0010
0001
1000
0001
0100
0000
0010
0000
1000
0001
1000
0010
0100
0001
0010
0100
,
1000
0010
0100
0001
1000
0000
0010
0000
0100
0000
0001
1000
0001
0000
0000
0100
,
0010
1000
0100
1000
0010
0000
0100
0000
0001
1000
0001
0010
0001
0000
0010
0000
,
0100
0010
0001
0100
0001
0000
0010
0000
0001
0000
1000
0010
1000
0000
0100
0000
,
0010
0001
0010
0100
1000
0100
0010
0100
,
0010
0001
0100
0010
1000
0010
1000
0100
,
1000
0100
0010
0001
0010
0100
1000
0100
,
0010
0100
0010
0001
1000
0001
0010
0100
,
1000
0100
0010
0100
1000
0000
0100
0000
0010
0001
0010
0100
0010
0001
1000
0010
,
1000
0000
0001
0100
0010
1000
0001
0000
0010
0000
0001
1000
0001
0100
0010
1000
,
0100
0010
0001
1000
0001
0000
1000
0010
0100
0001
0010
0001
1000
0000
0001
0000
,
0100
0010
1000
0010
0100
0000
0001
0100
0010
1000
0100
1000
0001
0000
0100
0000
,
0010
0100
0001
1000
0001
0100
0010
1000
0001
1000
0100
0010
0001
0000
0100
0010
,
0100
0000
0001
0000
0010
0000
0100
0000
1000
0000
0010
0000
0100
0001
0100
0001
,
1000
0010
1000
0010
0100
0000
0001
0000
0010
0000
0100
0000
1000
0000
0010
0000
,
0100
0001
1000
0010
0100
0001
0100
0010
,
1000
0001
1000
0010
1000
0000
0100
0000
0010
0000
0001
0010
0100
1000
0100
0000
,
0010
0001
0010
0100
0010
0000
0001
1000
0001
0000
1000
0000
0010
0000
1000
0001
,
1000
0000
0010
0000
0100
0000
0001
0000
0100
0010
0100
0010
1000
0001
1000
0000
,
0010
0100
0010
0100
0010
0000
1000
0001
0200
0000
0000
0000
0301
0100
0001
0100
,
0001
0000
0000
0000
0001
0000
0000
0001
0100
0000
0000
0000
0100
0010
0100
0010
,
0100
0001
0100
0001
1000
0100
0010
0001
1000
0000
0010
0000
1000
0100
1000
0010
,
1000
0001
0010
0100
1000
0010
0100
0010
1000
0100
0010
0001
1000
0010
0100
0001
,
0100
0010
1000
0000
0100
0010
0001
1000
0001
0010
0100
1000
0010
0000
0100
0000
,
0001
0000
0010
0000
0100
0000
1000
0100
0010
0000
0001
0000
0100
0000
0010
1000
,
0100
0000
0010
0000
0001
0100
0010
0000
1000
0000
0000
0000
0100
1000
0010
0100
,
0001
0000
0000
0000
0001
0000
0000
0001
0010
0000
0000
0000
0010
0100
1000
0001
,
0100
0010
1000
0100
0010
0001
1000
0010
0100
0000
0001
0000
0010
0100
0010
0001
,
1000
0010
0100
0001
0010
0100
1000
0001
1000
0010
0100
0001
0010
0100
0010
0100
,
1000
0001
1000
0000
0100
0010
0100
1000
0001
0100
0010
1000
0001
0000
0100
0000
,
0010
0000
1000
0000
0100
0000
0010
0001
1000
0000
0100
0000
0010
0001
0010
0100
,
0010
0000
0100
0000
1000
0100
0010
0000
0001
0000
0000
0000
0022
0000
0000
0000
,
0000
0000
0033
0000
0000
0000
0000
1000
0010
0000
0100
0001
0000
1000
0001
1000
,
0001
0010
0100
0010
0100
1000
0001
1000
0001
0000
0000
0000
0100
0010
0100
0010
,
0100
0010
0000
0100
0000
0001
0100
0010
1000
0100
0010
0001
0010
0100
1000
0010
,
1000
0001
0100
0000
0001
1000
0010
0100
0010
1000
0001
1000
0100
0000
0010
0000
,
0001
0100
0001
0010
0100
1000
0010
1000
,
0100
0000
1000
0001
1000
0001
1000
0000
0000
0000
0000
0000
0010
0000
0000
0000
,
0000
0000
0010
0000
,
0000
0010
0000
0000
,
0010
0000
0000
0000
;

//---------------dance-single - ----------------
#NOTES:
     dance-single:
     :
     Hard:
     18:
     1.000,1.000,0.074,0.148,1.000,726.000,5.000,10.000,0.000,0.000:
1000
0010
0010
0100
,
0001
0001
1000
0010
,
0100
0000
0010
0100
0001
0000
0010
0000
,
0100
1000
1000
0010
,
0100
0100
0001
0010
,
0100
1000
0010
0100
,
0001
1000
0001
0100
0010
1000
0001
0100
,
0001
1000
0001
0100
0010
0000
1000
0001
1000
0000
0001
0100
0001
1000
0010
0100
,
0001
0000
1000
0100
1000
0000
0001
0100
0001
0000
1000
0000
0010
0000
0100
0001
,
0100
0010
0010
1000
,
0001
0001
0010
0100
,
0010
0000
0000
0000
0001
0010
0100
1000
0001
0000
1000
0100
1000
0000
0001
0000
,
1000
0100
0010
0001
1000
0000
0100
0000
0010
0000
0001
0000
1000
0100
0010
0100
,
1000
0000
0000
0001
0100
0001
1000
0100
1000
0000
0001
0000
0100
0010
0100
0001
,
1000
0010
0100
0001
1000
0100
0010
0000
,
0001
0110
0001
0001
,
0001
1000
0100
0100
,
0010
0000
0100
0000
1000
0000
0010
0100
,
0001
0100
0101
0101
,
0101
0000
0000
0000
0001
0100
0010
1000
0001
0000
1000
0000
0100
0010
0001
0000
,
1000
0000
0001
0010
0100
1000
0001
0010
0001
0000
1000
0100
0010
0001
1000
0100
,
1000
0000
0001
0100
0010
2000
0002
0000
0000
0000
3003
0000
0000
0002
0000
0000
,
0000
0000
0000
0000
,
0000
0000
0000
0000
0000
0000
0000
0000
0000
0000
0000
0000
0000
0000
0000
0003
,
0000
2000
0000
0000
0000
0000
0000
0000
0000
0000
0000
3000
0000
0020
0000
0000
,
0000
0000
0000
0000
0000
0000
0000
0000
0000
0000
0000
0030
0000
0200
0000
0000
,
0000
0000
0000
0300
0000
0002
0000
0000
0000
0000
0000
0000
0000
0000
0000
0000
,
0000
0000
0000
0000
0000
0000
0000
0000
0000
0000
0003
0000
1000
0010
0100
0001
,
1000
0000
0001
0100
0010
1000
0001
0000
0100
0000
0001
1000
0001
0000
0100
0000
,
0010
1000
0010
0100
0001
0000
1000
0000
0100
0010
0100
0000
1000
0000
0000
0001
,
0010
0001
1000
0100
1000
0000
0001
0010
0100
1000
0001
0010
0001
0000
0010
0000
,
0100
1000
0100
0010
0001
0000
1000
0000
0100
0010
0001
0010
0100
0000
0000
1000
,
0001
0100
0001
1000
0010
0000
0100
0000
0001
1000
0001
0100
0010
1000
0001
0100
,
0001
1000
0010
1000
0001
0000
0100
0000
0010
0000
1000
0001
1000
0000
0000
0001
,
0100
0001
1000
0010
1000
0000
0001
0000
1000
0100
0010
0001
1000
0000
0100
0000
,
0010
0001
0010
0100
1000
0000
0001
0000
1000
0000
0100
0010
0001
0010
0100
1000
,
0001
0000
1000
0100
0010
0001
1000
0000
0001
0100
0001
1000
0010
0100
0001
1000
,
0010
1000
0001
0100
0001
0000
1000
0000
0010
0100
0010
0000
1000
0000
0000
0001
,
0100
0010
1000
0001
1000
0000
0001
0100
0001
1000
0010
1000
0001
0000
0100
0000
,
0001
1000
0100
1000
0001
0000
1000
0000
0001
0010
0100
1000
0001
0000
1000
0100
,
0010
0001
1000
0100
1000
0000
0001
0000
1000
0100
0010
0001
1000
0100
0010
0001
,
1000
0100
0010
0001
1000
0000
0100
0000
1000
0000
0001
0100
0001
0000
0000
1000
,
0010
1000
0001
0100
0001
0000
1000
0000
0001
0100
0001
1000
0010
0000
0100
0000
,
0001
1000
0001
0010
0001
0000
1000
0000
0010
0000
1000
0001
1000
0000
0100
0000
,
1000
0100
0010
0001
0100
0010
1000
0001
,
1000
0001
1000
0001
1000
0001
0100
0010
,
0100
0010
1000
0001
0010
0100
1000
0010
,
1000
0010
1000
0010
1000
0010
0100
0001
,
0100
0001
1000
0001
0100
0000
0010
0000
1000
0001
1000
0100
1000
0001
0100
0001
,
1000
0000
0001
0100
0010
1000
0001
0000
1000
0000
0001
0100
0001
1000
0010
1000
,
0001
0100
0001
1000
0001
0000
1000
0100
0010
0001
0010
0100
1000
0000
0001
0000
,
1000
0100
0010
0001
1000
0000
0001
0010
0100
1000
0001
0010
0001
0000
1000
0000
,
0010
0100
0001
1000
0001
0100
0010
1000
0001
0100
0001
1000
0010
0000
1000
0001
,
1000
0000
0010
0000
0100
0000
0001
0000
1000
0000
0001
0000
1000
0100
0010
0001
,
1000
0100
0010
0001
1000
0000
0100
0000
0010
0000
0100
0000
1000
0000
0001
0000
,
0100
0001
1000
0010
0100
0010
1000
0001
,
0100
0010
0100
0001
1000
0000
0010
0000
1000
0000
0001
0010
0100
1000
0001
0000
,
1000
0100
0010
0001
1000
0000
0001
0010
0001
0000
1000
0000
0100
0000
1000
0100
,
1000
0000
0001
0000
0100
0000
0010
0000
0100
0001
0100
0010
1000
0001
1000
0000
,
0010
0100
0010
1000
0001
0000
0100
0001
0200
0000
0000
0000
0301
1000
0001
0100
,
0001
0000
0000
0000
0001
0000
0000
0001
1000
0000
0000
0000
1000
0010
0100
0001
,
1000
0001
1000
0100
1000
0001
0100
0001
1000
0000
0000
0000
0001
0010
0100
1000
,
0001
0010
0001
1000
0100
0010
0001
1000
0100
1000
0001
0010
0001
1000
0100
0010
,
0001
0000
0000
0000
1000
0001
1000
0010
0100
0010
1000
0001
0100
0000
0010
0000
,
1000
0001
0100
0010
1000
0001
0100
0010
,
1000
0000
0001
0000
0010
0100
0010
0000
0001
0000
0000
0000
1000
0010
1000
0001
,
1000
0000
0000
0000
1000
0000
0000
1000
0001
0000
0000
0000
1000
0010
0100
0001
,
1000
0001
1000
0010
0100
0001
0100
0010
1000
0000
0000
0000
0001
0100
0010
1000
,
0001
0100
0001
1000
0010
0100
0001
1000
0010
1000
0001
0100
0010
1000
0010
0100
,
0001
0000
0000
0000
1000
0100
0010
0001
1000
0100
0010
0001
1000
0000
0100
0000
,
0010
0100
1000
0001
0100
0010
1000
0001
,
0100
0000
0001
0000
1000
0010
1000
0000
0001
0000
0000
0000
0022
0000
0000
0000
,
0000
0000
0033
0000
0000
0000
0000
0001
0000
0000
0001
0000
0000
1000
0100
0010
,
0001
1000
0100
1000
0001
0010
0100
1000
0001
0000
0000
0000
1000
0010
0100
0001
,
1000
0001
0000
0100
0000
0010
0100
0001
1000
0001
1000
0010
0100
0001
1000
0100
,
1000
0001
0100
0000
0001
1000
0010
0100
0001
1000
0001
1000
0100
0000
1000
0000
,
0001
0100
0001
1000
0010
0100
0001
1000
,
0100
0000
1000
0001
1000
0001
1000
0000
0000
0000
0000
0000
0010
0000
0000
0000
,
0000
0000
0010
0000
,
0000
0010
0000
0000
,
0010
0000
0000
0000
;
