#TITLE:Twilight Zone 2005;
#SUBTITLE:;
#ARTIST:Dj MetaZero;
#TITLETRANSLIT:;
#SUBTITLETRANSLIT:;
#ARTISTTRANSLIT:;
#CREDIT:;
#BANNER:twilightzone.png;
#BACKGROUND:twilightzone-bg.png;
#LYRICSPATH:;
#CDTITLE:;
#MUSIC:twilight zone 2005 (short edit).mp3;
#OFFSET:0.000;
#SAMPLESTART:40.000;
#SAMPLELENGTH:12.000;
#SELECTABLE:YES;
#BPMS:0.000=150.000;
#STOPS:;
#BGCHANGES:;
// cache tags:
#FIRSTBEAT:3.000;
#LASTBEAT:248.000;
#SONGFILENAME:Songs/other/Twilight Zone 2005 (shortedit)/twz.sm;
#HASMUSIC:1;
#HASBANNER:1;
#MUSICLENGTH:103.444;
// end cache tags

//---------------dance-single - ----------------
#NOTES:
     dance-single:
     :
     Hard:
     9:
     0.722,0.688,0.870,0.242,0.382,408.000,90.000,25.000,0.000,0.000:  // measure 1
0000
0000
0000
0000
,  // measure 2
1001
1001
1001
1001
,  // measure 3
1001
1001
1001
1001
,  // measure 4
1001
1001
1001
1001
,  // measure 5
1001
1001
1001
1001
,  // measure 6
1001
1001
1001
1001
,  // measure 7
1001
1001
1001
1001
,  // measure 8
1001
1001
1001
1001
,  // measure 9
1001
1010
0101
1001
,  // measure 10
1000
0100
1000
0000
0001
0100
0001
1000
,  // measure 11
0100
0010
0001
0000
1000
0100
0010
0001
,  // measure 12
0010
0100
1000
0000
0010
0100
0001
0100
,  // measure 13
0010
0100
1000
0000
0100
0010
0100
0001
,  // measure 14
1000
0100
0000
0001
0100
0000
1000
0100
0000
0001
0100
0000
1000
0000
1010
0000
,  // measure 15
0100
0010
0000
0010
0100
0000
0010
0100
0000
0100
0010
0000
0100
0000
0110
0000
,  // measure 16
0001
1000
0000
1000
0001
0000
1000
0001
0000
0001
1000
0000
1000
0000
1001
0000
,  // measure 17
1000
0000
0100
0000
0010
0000
0001
2002
0000
0000
0000
0000
0000
0000
3003
0000
,  // measure 18
1010
0000
0000
0101
0000
0000
1001
0000
1010
0000
0101
0000
1010
0000
1001
0000
,  // measure 19
1000
0100
0000
0010
0100
0000
0001
0010
0000
0100
0010
0000
1000
0000
1100
0000
,  // measure 20
0010
0100
0000
0001
0100
0000
1000
0100
0000
0010
0100
0000
0100
0000
0101
0000
,  // measure 21
0010
1000
0000
0010
0100
0000
0001
0100
0000
0010
1000
0000
0100
0000
0110
0000
,  // measure 22
1000
0000
0100
0000
0010
0000
0001
2002
0000
0000
0000
0000
0000
0000
3003
0000
,  // measure 23
1000
0100
0000
0010
0100
0000
0001
0010
0000
0100
0010
0000
1000
0000
1100
0000
,  // measure 24
0010
0100
0000
0001
0100
0000
0010
0100
0000
1000
0100
0000
0010
0000
0110
0000
,  // measure 25
0001
0100
0000
1000
0100
0000
0001
0100
0000
1000
0100
0000
1000
0000
1100
0000
,  // measure 26
1000
0000
0100
0000
0010
0000
0001
2002
0000
0000
0000
0000
0000
0000
3003
0000
,  // measure 27
0001
0100
0000
1000
0100
0000
0001
0100
0000
1000
0100
0000
0001
0000
1001
0000
,  // measure 28
0100
0010
0000
1000
0100
0000
0100
0010
0000
0100
1000
0000
0100
0000
0110
0000
,  // measure 29
0001
0100
0000
1000
0001
0000
1000
0100
0000
0010
0100
0000
0010
0000
0101
0000
,  // measure 30
1000
0000
0100
0000
0010
0000
0001
2002
0000
0000
0000
0000
0000
0000
3003
0000
,  // measure 31
1000
0100
0010
0001
0010
0100
1000
0010
,  // measure 32
0100
0001
0100
0010
1000
0010
0200
0000
,  // measure 33
0301
0010
0100
1000
0010
0100
0001
0100
,  // measure 34
0010
1000
0100
0001
0100
1000
0020
0000
,  // measure 35
1030
0100
0010
0100
0001
0100
0010
1000
,  // measure 36
0100
0001
0100
0010
1000
0010
2000
0000
,  // measure 37
3001
0100
0001
0100
0010
1000
0010
1000
,  // measure 38
0010
0000
0001
0000
0010
0000
0001
0000
1000
0000
0001
0000
2002
0000
0000
3003
,  // measure 39
1000
0100
0000
0010
0001
0000
0100
0010
0000
0100
1000
0000
0010
0000
0101
0000
,  // measure 40
0100
0010
0000
1000
0010
0000
0001
0010
0000
0100
0001
0000
0100
0000
0101
0000
,  // measure 41
1000
0010
0000
0100
0010
0000
1000
0100
0000
0010
0100
0000
0001
0000
0101
0000
,  // measure 42
0001
0000
0010
0000
0100
0000
1000
2002
0000
0000
0000
0000
0000
0000
3003
0000
,  // measure 43
1000
0100
0000
0010
0100
0000
0001
0010
0000
0100
0010
0000
1000
0000
1001
0000
,  // measure 44
0100
0010
0000
0001
0100
0000
1000
0010
0000
0100
1000
0000
0010
0000
0101
0000
,  // measure 45
0100
0010
0000
1000
0010
0000
0100
0001
0000
1000
0100
0000
0010
0000
0101
0000
,  // measure 46
1000
0000
0100
0000
0010
0000
0001
2002
0000
0000
0000
0000
0000
0000
3003
0000
,  // measure 47
1000
0100
0010
0001
1001
0000
0000
0000
,  // measure 48
0001
0010
0100
1000
1001
0000
0000
0000
,  // measure 49
1000
0100
0010
0001
1001
0000
1010
0202
,  // measure 50
0000
0000
0000
0000
0000
0000
0000
0303
,  // measure 51
1000
0100
0010
0001
1001
0000
0000
0000
,  // measure 52
0001
0010
0100
1000
1001
1000
0100
0010
,  // measure 53
1001
0000
0110
0000
0101
0000
1010
0202
,  // measure 54
0000
0000
0000
0000
0000
0000
0000
0303
,  // measure 55
1000
0100
0010
0001
1001
0000
0000
0000
,  // measure 56
0001
0010
0100
1000
1001
1000
0100
0010
,  // measure 57
1001
0000
0110
0000
1010
0000
0101
2200
,  // measure 58
0000
0000
0000
0000
0000
0000
0000
3300
,  // measure 59
1000
0100
0010
0001
1001
0000
0000
0000
,  // measure 60
0001
0010
0100
1000
1001
1000
0100
0010
,  // measure 61
1001
0000
1010
0000
0101
0000
0110
2200
,  // measure 62
0000
0000
0000
0000
0000
0000
0000
3300
;

//---------------dance-single - ----------------
#NOTES:
     dance-single:
     :
     Medium:
     8:
     0.540,0.509,0.242,0.039,0.019,362.000,25.000,4.000,0.000,0.000:  // measure 1
0000
0000
0000
0100
,  // measure 2
0100
0100
0100
0100
,  // measure 3
0100
0100
0100
0100
,  // measure 4
0100
0100
0100
0100
,  // measure 5
0100
0100
0100
0100
,  // measure 6
0100
0100
0100
0100
,  // measure 7
0100
0100
0100
0100
,  // measure 8
0100
0100
0100
0100
,  // measure 9
0100
0100
0100
0100
,  // measure 10
0100
0110
0001
0101
,  // measure 11
1000
1100
0000
0000
0001
0000
0000
0000
0101
0000
0000
0000
0100
0000
0000
1000
,  // measure 12
1100
0000
0000
0000
0010
0000
0000
0000
0101
0000
0000
0000
1000
0000
0000
0001
,  // measure 13
0101
0000
0000
0000
1000
0000
0000
0000
0110
0000
0000
0000
0001
0000
0000
0001
,  // measure 14
0101
1000
0100
0010
0001
0100
0010
0100
,  // measure 15
0001
0001
0010
0100
1000
0010
0100
1000
,  // measure 16
0100
0010
0001
0100
0010
1000
0100
0010
,  // measure 17
0100
0001
0100
0010
1000
0010
1000
0010
,  // measure 18
2002
0000
0000
0000
0000
0000
0000
3003
,  // measure 19
1000
0100
0010
0100
0001
0100
0010
0100
,  // measure 20
1000
0100
0010
0100
0001
0100
0010
0100
,  // measure 21
1000
0010
0100
1000
0100
0001
0100
0010
,  // measure 22
0100
0001
0100
0010
1000
0000
0000
0000
,  // measure 23
1000
0100
0001
0100
1000
0100
0001
0100
,  // measure 24
1000
0100
0001
0100
1000
0100
0001
0100
,  // measure 25
1000
0100
0001
0100
1000
0100
0001
0100
,  // measure 26
1000
0100
0001
0100
1000
0000
0000
0000
,  // measure 27
0001
0010
1000
0010
0001
0010
1000
0010
,  // measure 28
0001
0010
1000
0010
0001
0010
1000
0010
,  // measure 29
0001
0010
1000
0010
0001
0010
1000
0010
,  // measure 30
0001
0010
1000
0010
0001
0000
0000
0000
,  // measure 31
1000
0100
0010
0000
0001
0010
0100
0000
,  // measure 32
1000
0100
0010
0001
1000
0100
0010
0000
,  // measure 33
1000
0100
1000
0000
0001
0100
0001
0000
,  // measure 34
1000
0100
0010
0001
1000
0100
0010
0000
,  // measure 35
0001
1000
0001
0000
1000
0001
1000
0000
,  // measure 36
1000
0001
1000
0001
1000
0001
1000
0000
,  // measure 37
0100
0010
0100
0000
0001
0100
0001
0000
,  // measure 38
1000
0100
0010
0100
0001
0100
0010
0000
,  // measure 39
1000
0001
1000
0001
1000
0001
1000
0001
,  // measure 40
1000
0001
1000
0001
1000
0001
1000
0001
,  // measure 41
1000
0001
1000
0001
1000
0001
1000
0001
,  // measure 42
1000
0001
1000
0001
1000
0000
0000
0000
,  // measure 43
0010
0100
0010
0100
0010
0100
0010
0100
,  // measure 44
0010
0100
0010
0100
0010
0100
0010
0100
,  // measure 45
0010
0100
0010
0100
0010
0100
0010
0100
,  // measure 46
0010
0100
0001
0100
1000
0000
0000
0000
,  // measure 47
1000
0000
1100
0000
0001
0010
0100
0000
,  // measure 48
0010
0000
0110
0000
0001
0100
1000
0000
,  // measure 49
0010
0000
0110
0000
0001
0100
0010
0000
,  // measure 50
1000
0000
1100
0000
0010
0100
0001
0000
,  // measure 51
0001
0000
1001
0000
0100
0010
0100
0000
,  // measure 52
0010
0000
0101
0000
1000
0100
0010
0000
,  // measure 53
0100
0000
0101
0000
1000
0100
0010
0000
,  // measure 54
0100
0000
0101
0000
0100
0010
1000
0000
,  // measure 55
0010
0000
0101
0000
1000
0010
0100
0000
,  // measure 56
0001
0000
1100
0000
0010
0100
1000
0000
,  // measure 57
0100
0000
0110
0000
0100
0001
1000
0000
,  // measure 58
0010
0000
1100
0000
0010
0100
0001
0000
,  // measure 59
0100
0000
0110
0000
1000
0100
0010
0000
,  // measure 60
1000
0000
1100
0000
0001
0100
0010
0000
,  // measure 61
1000
0100
0010
0100
0001
0100
0010
1000
,  // measure 62
0220
0000
0000
0000
,  // measure 63
0330
0000
0000
0000
;

//---------------dance-single - ----------------
#NOTES:
     dance-single:
     :
     Easy:
     4:
     0.359,0.330,0.048,0.039,0.000,251.000,5.000,4.000,0.000,0.000:  // measure 1
0000
0000
0000
0000
,  // measure 2
1000
0001
1000
0001
,  // measure 3
1000
0001
1000
0001
,  // measure 4
1000
0001
1000
0001
,  // measure 5
1000
0001
1000
0001
,  // measure 6
1000
0001
1000
0001
,  // measure 7
1000
0001
1000
0001
,  // measure 8
1000
0001
1000
0001
,  // measure 9
1000
0001
1000
0001
,  // measure 10
1000
0100
0010
0100
,  // measure 11
0001
0010
0100
1000
,  // measure 12
0100
0010
0100
0001
,  // measure 13
0100
0010
1000
0010
,  // measure 14
0100
0001
0100
0010
,  // measure 15
1000
0010
0100
0001
,  // measure 16
0100
0010
1000
0010
,  // measure 17
0100
0001
0100
0010
,  // measure 18
0200
0000
0000
0000
,  // measure 19
1300
0000
0100
0000
0010
0000
0001
0010
,  // measure 20
0100
0000
1000
0000
0100
0000
0010
1000
,  // measure 21
0100
0000
0100
0000
0010
0000
0001
0010
,  // measure 22
0100
0001
0100
1000
,  // measure 23
1000
0000
0001
0000
1000
0000
0001
1000
,  // measure 24
0001
0000
0100
0000
0010
0000
0001
0010
,  // measure 25
0001
0000
1000
0000
0010
0000
0100
0010
,  // measure 26
0100
0000
0001
0000
0010
0000
0100
1000
,  // measure 27
0100
0000
0010
0000
0100
0000
0100
1000
,  // measure 28
0100
0000
0010
0000
0100
0000
0001
0100
,  // measure 29
0001
0000
1000
0000
0010
0000
0001
0100
,  // measure 30
0020
0000
0000
0000
0000
0000
0000
0030
,  // measure 31
1000
0100
0010
0001
,  // measure 32
0010
0100
1000
1001
,  // measure 33
0001
0010
0100
1000
,  // measure 34
0100
0100
1000
1100
,  // measure 35
0100
0010
0001
0010
,  // measure 36
0100
1000
0100
0110
,  // measure 37
0001
0010
0100
0001
,  // measure 38
0100
0010
1000
1001
,  // measure 39
0100
0000
0010
0000
0100
0000
0001
0010
,  // measure 40
0100
0000
0001
0000
0100
0000
1000
0100
,  // measure 41
1000
0000
0010
0000
0100
0000
0001
0100
,  // measure 42
0010
1000
0100
0010
,  // measure 43
0001
0000
0010
0000
0100
0000
1000
0100
,  // measure 44
1000
0000
0010
0000
0100
0000
0001
0100
,  // measure 45
1000
0000
0100
0000
0010
0000
0001
0100
,  // measure 46
0010
0000
1000
0000
0100
0000
0010
0100
,  // measure 47
0001
0100
1000
0010
,  // measure 48
0100
0010
0010
1000
,  // measure 49
0010
0000
0001
0100
,  // measure 50
0010
0100
1000
0100
,  // measure 51
0001
0100
1000
0010
,  // measure 52
0100
0001
0100
0010
,  // measure 53
1000
0010
0100
0001
,  // measure 54
0100
0010
1000
0010
,  // measure 55
0100
0001
0100
0010
,  // measure 56
1000
0100
0001
0100
,  // measure 57
0010
1000
0010
0100
,  // measure 58
0001
0100
0010
1000
,  // measure 59
0010
0100
1000
0010
,  // measure 60
0100
0001
0100
0010
,  // measure 61
1000
0100
0010
0001
,  // measure 62
0202
0000
0000
0000
,  // measure 63
0303
0000
0000
0000
;

//---------------dance-single - ----------------
#NOTES:
     dance-single:
     :
     Challenge:
     11:
     0.947,1.000,1.000,0.058,1.000,572.000,108.000,6.000,0.000,0.000:  // measure 1
0000
0000
0000
0000
,  // measure 2
1010
0101
1010
0101
,  // measure 3
1010
0101
1010
0101
,  // measure 4
1010
0101
1010
0101
,  // measure 5
1010
0101
1010
0101
,  // measure 6
1010
0101
1010
0101
,  // measure 7
1010
0101
1010
0101
,  // measure 8
1010
0101
1010
0101
,  // measure 9
1010
0000
0101
0000
1010
0110
0101
1010
,  // measure 10
1000
0100
1000
0100
1000
0000
0000
0000
0001
0100
0001
0100
0001
0100
0001
0100
,  // measure 11
0001
0100
0001
0100
0001
0000
0000
0000
1000
0001
1000
0001
1000
0001
1000
0001
,  // measure 12
1000
0001
1000
0001
1000
0000
0000
0000
0010
0100
0010
0100
0010
0100
0010
0100
,  // measure 13
0010
0100
0010
0100
0010
0100
0000
0000
0001
0100
1000
0100
0001
0100
0010
0100
,  // measure 14
1000
0100
0010
0100
1000
0100
0010
0100
0010
0100
0001
0100
0010
1000
0100
0010
,  // measure 15
0100
0001
0010
0100
0001
0010
0100
1000
0010
0100
0101
0010
1000
0010
0100
0001
,  // measure 16
0100
0010
1000
0010
0100
0010
0001
0100
0010
0100
1000
0010
0100
0010
0100
0001
,  // measure 17
1000
0100
1000
0100
1000
0100
1000
0100
1000
0100
1000
0100
1000
0100
1000
0000
,  // measure 18
1001
0000
0000
1001
0000
0000
1001
0000
1010
0000
0101
0000
1010
0000
0101
0000
,  // measure 19
1000
0100
0000
0010
0100
0000
0001
0010
0000
0100
0010
0000
1001
0000
1100
0000
,  // measure 20
0010
0100
0000
0001
0010
0000
0100
0010
0000
1000
0100
0000
0011
0000
1001
0000
,  // measure 21
0100
0010
0000
0100
1000
0000
0100
0010
0000
0100
0001
0000
1100
0000
0101
0000
,  // measure 22
1000
0000
0100
0000
0010
0000
0001
1001
0000
0000
0000
0000
0000
0000
0000
0000
,  // measure 23
0001
0010
0000
0100
0010
0000
0100
1000
0000
0100
0010
0000
0110
0000
1010
0000
,  // measure 24
0100
0001
0000
0100
1000
0000
0100
0010
0000
0001
0100
0000
0101
0000
1100
0000
,  // measure 25
0010
0100
0000
0001
0100
0000
1000
0010
0000
0100
0010
0000
0001
0000
0101
0000
,  // measure 26
1000
0000
0100
0000
0010
0000
0001
1001
0000
0000
0000
0000
0000
0000
0000
0000
,  // measure 27
1000
0100
0000
0010
0100
0000
0001
0100
0000
0010
1000
0000
1000
0010
1000
0000
,  // measure 28
0100
0010
0000
0100
0001
0000
0100
0010
0000
1000
0100
0000
0010
0100
0010
0000
,  // measure 29
0001
0100
0000
1000
0010
0000
0100
0001
0000
0100
0010
0000
1000
0100
1000
0000
,  // measure 30
1000
0000
0100
0000
0010
0000
0001
1001
0000
0000
0000
0000
0000
0000
0000
0000
,  // measure 31
1000
0100
0010
0100
0001
0100
0000
1000
0100
0010
0100
0001
0100
1000
0100
0010
,  // measure 32
0100
0001
0010
0100
1000
0010
0100
0001
0100
0010
0100
1000
0010
0000
0000
0000
,  // measure 33
0001
0010
0100
0010
0001
0000
0100
0001
1000
0100
0010
0100
1000
0010
0100
0001
,  // measure 34
0100
0010
0100
1000
0001
0100
0010
0100
1000
0100
0010
0100
0001
0000
0000
0000
,  // measure 35
1000
0001
1000
0001
1000
0000
0001
0010
0100
0001
0100
0010
1000
0100
0001
0100
,  // measure 36
0010
0100
0001
0010
0100
1000
0010
0100
0001
0100
1000
0010
0100
0000
0000
0000
,  // measure 37
1000
0100
0010
0100
1000
0000
0001
0010
0100
0001
0100
0010
1000
0100
0010
0100
,  // measure 38
1000
0000
0100
0010
0001
0010
0100
1000
0110
0000
0110
0000
0110
0000
0000
0000
,  // measure 39
1000
0100
0000
0010
0100
0000
0001
0010
0000
0100
0010
0000
1100
0000
1100
0000
,  // measure 40
0010
0100
0000
0100
0010
0000
0100
0001
0000
0001
0100
0000
0101
0000
0101
0000
,  // measure 41
1000
0001
0000
0001
1000
0000
1000
0001
0000
0001
1000
0000
1001
0000
1001
0000
,  // measure 42
1000
0000
0100
0000
0010
0000
0001
1001
0000
0000
0000
0000
0000
0000
0000
0000
,  // measure 43
0001
0010
0000
0100
0010
0000
1000
0100
0000
0010
0100
0000
1001
0000
0101
0000
,  // measure 44
1000
0010
0000
0100
0001
0000
0100
0010
0000
1000
0100
0000
0110
0000
0110
0000
,  // measure 45
0001
1000
0000
1000
0001
0000
0100
0010
0000
0010
0100
0000
1010
0000
1100
0000
,  // measure 46
1000
0000
0100
0000
0010
0000
0001
1001
0000
0000
1000
0000
0100
0000
0010
0000
,  // measure 47
1001
0000
0000
0000
1010
0000
0000
0101
0000
0000
0100
0000
0010
0000
0100
0000
,  // measure 48
1010
0000
0000
0000
1001
0000
0000
0101
0000
0000
0001
0000
0010
0000
0100
0000
,  // measure 49
1001
0000
0000
0000
1010
0000
0000
0000
0101
0000
0000
0000
0110
0000
0000
2200
,  // measure 50
0000
0000
0000
0000
3300
1000
0001
1000
,  // measure 51
1001
0000
0000
0000
0110
0000
0000
0101
0000
0000
0100
0000
0010
0000
0100
0000
,  // measure 52
1010
0000
0000
0000
0101
0000
0000
1001
0000
0000
1000
0000
0100
0000
0010
0000
,  // measure 53
1001
0000
0000
0000
0110
0000
0000
0000
0101
0000
0000
0000
1010
0000
0000
0202
,  // measure 54
0000
0000
0000
0000
0000
0000
0000
0303
0000
0000
1000
0000
0100
0000
0001
0000
,  // measure 55
0110
0000
0000
0000
0101
0000
0000
1100
0000
0000
0001
0000
0010
0000
0100
0000
,  // measure 56
1010
0000
0000
0000
0101
0000
0000
0101
0000
0000
1000
0000
0010
0000
0100
0000
,  // measure 57
1001
0000
0000
0000
0110
0000
0000
0000
0101
0000
0000
0000
1100
0000
0000
0220
,  // measure 58
0000
0000
0000
0330
0000
1000
0100
0010
,  // measure 59
0001
0100
0001
0100
0001
0100
0001
0100
0001
1000
0001
1000
0001
1000
0001
1000
,  // measure 60
0001
0010
0001
0010
0001
0010
0001
0010
0001
1000
0010
0100
0001
0010
0100
1000
,  // measure 61
0010
0100
0001
0100
0010
1000
0100
0001
0100
0010
1000
0010
0100
1000
0100
0010
,  // measure 62
0100
0001
0100
0010
1000
0010
1000
0101
0010
0100
1000
0100
0010
0100
0001
1000
,  // measure 63
1001
0000
0000
0000
;
