#TITLE:Sharpnel Sound Megamix 3;
#SUBTITLE:;
#ARTIST:DJ Sharpnel remixed by GUHROOVY;
#TITLETRANSLIT:;
#SUBTITLETRANSLIT:;
#ARTISTTRANSLIT:;
#CREDIT:;
#BANNER:sharpnel megamix 3 bn.png;
#BACKGROUND:sharpnel megamix 3 bg.png;
#LYRICSPATH:;
#CDTITLE:;
#MUSIC:Sharpnel Sound Megamix 3.ogg;
#OFFSET:-0.555;
#SAMPLESTART:45.685;
#SAMPLELENGTH:18.048;
#SELECTABLE:YES;
#DISPLAYBPM:213.000;
#BPMS:0.000=212.760,544.000=106.380,546.000=212.756,746.000=212.752,1322.000=212.756,1446.000=106.000,1447.000=53.000,1448.000=105.800,1449.000=212.750,2113.000=79.700,2116.000=106.378,2180.000=53.300,2181.000=212.779,2569.000=212.770,2897.000=212.762,3281.000=212.756;
#STOPS:;
#BGCHANGES:;
// cache tags:
#FIRSTBEAT:32.000;
#LASTBEAT:3517.000;
#SONGFILENAME:Songs/SHARPNELSTREAMZ v2/Sharpnel Sound Megamix 3/Sharpnel Sound Megamix 1.sm;
#HASMUSIC:1;
#HASBANNER:1;
#MUSICLENGTH:1015.434;
// end cache tags

//---------------dance-single - 19 (TYLR)----------------
#NOTES:
     dance-single:
     19 (TYLR):
     Challenge:
     19:
     1.000,1.000,0.170,0.364,1.000,9874.000,173.000,370.000,80.000,4.000:
0000
0000
0000
0000
,
0000
0000
0000
0000
,
0000
0000
0000
0000
,
0000
0000
0000
0000
,
0000
0000
0000
0000
,
0000
0000
0000
0000
,
0000
0000
0000
0000
,
0000
0000
0000
0000
,
1000
0001
0010
0000
0100
0100
2000
0000
,
3001
0100
2000
0000
3100
0001
2000
0000
,
3100
0010
0001
0001
0100
0100
0001
0001
,
0010
0000
0010
0100
1000
0001
0100
0010
,
0000
0010
0000
1000
0010
0000
0100
0100
,
0001
0000
1000
0001
0000
0100
0010
0010
,
1000
0100
0010
0001
0000
0100
0001
0001
,
0010
0000
0000
0100
0000
0000
0000
0000
1000
0000
0100
0000
0010
0000
0001
0000
,
0000
1000
0010
0000
0100
0100
0002
0000
,
1003
0100
0002
0000
0103
1000
0002
0000
,
0103
0010
1000
1000
0100
0100
1000
1000
,
0001
0000
0001
0100
0001
0010
0100
1000
,
0000
1000
0000
0100
1000
0000
0001
0001
,
0100
0000
0010
1000
0000
0001
1000
1000
,
0010
0100
0001
1000
0000
0100
1000
0001
,
0010
0000
0000
0001
0000
0000
0000
0000
1000
0000
0010
0000
0100
0000
0001
0000
,
1000
0000
1000
0000
0100
0000
0010
0000
0001
0000
0001
0000
0200
0000
0001
0300
,
0010
0000
0010
0000
0200
0000
1000
0300
0001
0000
0001
0000
0200
0000
0001
0300
,
1000
1000
0100
1000
0010
0010
0100
0010
,
1000
1000
0001
1000
0010
0010
0100
0001
,
1000
1000
0100
0010
0001
0001
0100
0001
,
0010
0010
0100
1000
0001
0001
0100
0001
,
0010
0010
0100
1000
0001
0001
0010
0001
,
1000
1000
0010
0100
0001
0001
1000
0010
,
1000
0000
1000
0000
0100
0000
0010
0000
0001
0000
0001
0000
0200
0000
0001
0300
,
0010
0000
0010
0000
0200
0000
1000
0300
0001
0000
0001
0000
0200
0000
0001
0300
,
1000
1000
0100
1000
0010
0010
0100
0010
,
1000
1000
0001
1000
0010
0010
0100
0001
,
1000
1000
0100
0010
0001
0001
0100
0001
,
0010
0010
0100
1000
0001
0001
0100
0001
,
0010
0010
0100
1000
0001
0001
0010
0001
,
1000
0000
1000
0000
0010
0000
0100
0000
0001
0000
0001
0000
1000
0010
1000
0010
,
0100
0001
0100
0000
0010
0000
1000
0000
0001
0000
0001
0000
0020
0000
0130
0000
,
1000
0100
1000
0000
0020
0000
0130
0000
0001
0000
0001
0000
0020
0000
0130
0000
,
1000
0100
1000
0000
0001
0000
0001
0000
0100
0000
0100
0000
0001
0000
0001
0000
,
0010
0100
0010
0000
0001
0000
1000
0000
0001
0000
0100
0000
0010
0000
1000
0000
,
0100
1000
0100
0000
0010
0000
0001
0000
0100
0000
0001
0000
0010
0000
0010
0000
,
0100
1000
0100
0000
0010
0000
0001
0000
1000
0000
0001
0000
0010
0000
0010
0000
,
0100
1000
0100
0000
0010
0000
0010
0000
0001
0000
0100
0000
0001
0000
0010
0000
,
0100
1000
0100
0000
0010
0000
0001
0000
0100
0000
0001
0000
1000
0000
0010
0000
,
0100
0001
0100
0000
0010
0000
1000
0000
0100
0000
0100
0000
0020
0000
0031
0000
,
0100
0001
0100
0000
0020
0000
1030
0000
0001
0000
0001
0000
0020
0000
0130
0000
,
1000
0100
1000
0000
0001
0000
0001
0000
0100
0000
0100
0000
0001
0000
0001
0000
,
0010
0100
0010
0000
0001
0000
0100
0000
0010
0000
1000
0000
0001
0000
0010
0000
,
0100
1000
0100
0000
0010
0000
0001
0000
0100
0000
0001
0000
0010
0000
0010
0000
,
0100
1000
0100
0000
0010
0000
0001
0000
1000
0000
0001
0000
0010
0000
0010
0000
,
0100
1000
0100
0000
0010
0000
0010
0000
0001
0000
0100
0000
0001
0000
0001
0000
,
0010
0010
0010
0010
,
0001
0100
0010
0000
1000
0001
0010
0000
0001
1000
0010
0000
0100
0001
0010
0000
,
0100
1000
0100
1000
0001
0100
0010
1000
0001
0000
0001
0100
0001
1000
0010
0100
,
0000
0000
0000
0100
0000
0000
0001
0000
0100
0000
0000
0000
0010
0000
1000
0000
0001
0000
0000
0000
0010
0000
0100
0000
0000
0000
1000
0000
0001
0000
1000
0000
,
0010
0100
0001
1000
0000
0001
0100
0010
1000
0000
0001
0000
1000
0010
0100
0001
,
0000
1000
0100
0000
0010
0001
1000
0000
0100
0010
0001
0000
1000
0100
0010
0000
,
0001
1000
0010
0100
0001
0100
0010
1000
0001
0000
0001
0010
0100
1000
0001
0100
,
0000
0000
0000
0100
0000
0000
0001
0000
0100
0000
0000
0000
0010
0000
1000
0000
0001
0000
0000
0000
0010
0000
0100
0000
0000
0000
1000
0000
0001
0000
1000
0000
,
0010
0100
0001
1000
0000
0001
0100
0010
1000
0000
0001
0000
0010
0100
1000
0001
,
1000
0010
0100
0000
0001
1000
0100
0000
1000
0001
0100
0000
0010
1000
0100
0000
,
0010
0001
0010
0001
1000
0010
0100
0001
1000
0000
1000
0010
1000
0001
0100
0010
,
0000
0000
0000
0010
0000
0000
1000
0000
0010
0000
0000
0000
0100
0000
0001
0000
1000
0000
0000
0000
0100
0000
0010
0000
0000
0000
0001
0000
1000
0000
0001
0000
,
0100
0010
1000
0001
0000
1000
0010
0100
0001
0000
1000
0000
0001
0100
0010
1000
,
0000
0001
0010
0000
0100
1000
0001
0000
0010
0100
1000
0000
0001
0010
0100
0000
,
1000
0001
0100
0010
1000
0010
0100
0001
1000
0000
1000
0100
0010
0001
1000
0010
,
0000
0000
0000
0010
0000
0000
1000
0000
0010
0000
0000
0000
0100
0000
0001
0000
1000
0000
0000
0000
0100
0000
0010
0000
0000
0000
0001
0000
1000
0000
0001
0000
,
0100
0010
1000
0001
0000
1000
0010
0100
0001
0000
1000
0000
0001
0010
0100
1000
,
0020
0000
0000
0000
,
0230
0000
0000
0000
0300
0000
0000
0000
0002
0003
0002
0000
0003
0000
2000
0000
,
0000
0000
0000
0000
,
3100
0000
0000
0000
0020
0030
0000
0000
0020
0000
0000
0000
0032
0000
0000
0000
,
2003
0000
0000
0000
,
3020
0000
0000
0000
0030
0000
0000
0000
0200
0300
0200
0000
0000
0000
0000
0000
,
0302
0000
0000
0000
,
0003
0000
0000
0000
0000
0000
0000
0000
1000
0100
1000
0000
0004
0000
0000
0000
,
0013
0100
0010
0000
0001
0000
0010
0001
0000
0010
0001
0000
0000
0000
0001
0000
,
1000
0010
1000
0010
0100
0001
0100
0001
1000
0000
1000
0000
0100
0000
0010
0000
,
0001
1000
0001
1000
0100
0010
0100
0010
0001
0010
0100
1000
0001
1000
0100
0010
,
0001
0000
0001
0000
0200
0000
0301
0000
0200
0000
0301
0000
4000
0400
0000
3000
,
0310
0001
0010
0001
1000
0000
0001
1000
0000
0001
1000
0000
0100
0000
1000
0000
,
0001
0100
0001
0100
0010
1000
0010
1000
0001
0000
0001
0000
0010
0000
0001
0000
,
0100
0010
0100
0010
1000
0010
0100
0001
1000
0001
1000
0100
0010
0001
1000
0001
,
0400
0340
4030
3400
0340
0430
4300
3004
,
0203
0000
0310
0000
1000
0000
0010
0100
0000
0001
1000
0000
0010
0000
1000
0000
,
0002
0000
0013
0000
0100
0000
0010
0001
0000
0010
0100
0000
1000
0000
0001
0000
,
0020
0000
0031
0000
1000
0000
0001
0100
0000
0001
0100
0000
0100
0000
0010
0000
,
1000
0010
0200
0301
0200
0310
2000
3001
,
0020
0000
0130
0000
1000
0000
0100
0010
0000
0001
1000
0000
0001
0000
1000
0000
,
0020
0000
0130
0000
0001
0000
0100
0010
0000
1000
0001
0000
1000
0000
0001
0000
,
0020
0000
0130
0000
0010
0000
0001
1000
0000
0001
1000
0000
1000
0000
0010
0000
,
0100
0000
0001
0000
0100
0000
0001
0000
0010
0001
0010
0000
2100
0000
3100
0000
,
0020
0000
0031
0000
1000
0000
0001
0100
0000
0010
1000
0000
0001
0000
1000
0000
,
0200
0000
0310
0000
0001
0000
0010
0100
0000
1000
0001
0000
0100
0000
0001
0000
,
2000
0000
3100
0000
1000
0000
0001
0010
0000
0001
0010
0000
0010
0000
0100
0000
,
1000
0001
0200
0310
0200
0301
0020
0130
,
2000
0000
3001
0000
1000
0000
0100
0010
0000
0001
1000
0000
0001
0000
1000
0000
,
0020
0000
0130
0000
0001
0000
0100
0010
0000
1000
0001
0000
1000
0000
0001
0000
,
0020
0000
0130
0000
0010
0000
0001
1000
0000
0001
1000
0000
1000
0000
0010
0000
,
0100
0000
0001
0000
0100
0000
0001
0000
0010
0001
0010
0001
0100
0001
0100
0010
,
1000
0000
1000
0000
0001
1000
0000
0000
0100
0000
0100
0000
0010
0100
0000
0000
,
1000
0100
1000
0000
0001
0100
0001
1000
0100
0010
0001
1000
0000
1000
0000
0001
,
0200
0000
0000
0300
0100
0000
0100
0000
0010
0000
0010
0000
1000
0010
0000
0000
,
0100
0001
0100
0000
0010
1000
0010
0100
0001
1000
0100
0010
0000
0010
0000
0001
,
1000
0000
1000
0000
0001
1000
0000
0000
0100
0000
0100
0000
0010
0100
0000
0000
,
1000
0100
1000
0000
0001
0100
0001
1000
0100
0010
0001
1000
0000
1000
0000
0001
,
0200
0000
0000
0300
0100
0000
0100
0000
0010
0000
0010
0000
1000
0010
0000
0000
,
0100
0001
0100
0001
0100
0000
0001
0000
0100
0000
0000
0000
2020
3030
0000
0000
,
1001
0000
0001
0000
1000
0001
0000
0000
0010
0000
0010
0000
0100
0010
0000
0000
,
0001
0010
0001
0000
1000
0010
1000
0001
0010
0100
1000
0001
0000
0001
0000
1000
,
0020
0000
0000
0030
0010
0000
0010
0000
0100
0000
0100
0000
0001
0100
0000
0000
,
0010
1000
0010
0000
0100
0001
0100
0010
1000
0001
0010
0100
0000
0100
0000
1000
,
0001
0000
0001
0000
1000
0001
0000
0000
0010
0000
0010
0000
0100
0010
0000
0000
,
0001
0010
0001
0000
1000
0010
1000
0001
0010
0100
1000
0001
0000
0001
0000
1000
,
0020
0000
0000
0030
0010
0000
0010
0000
0100
0000
0100
0000
0001
0100
0000
0000
,
0010
1000
0010
1000
0010
1000
0010
1000
0001
0000
1000
0000
2200
3300
0000
0000
,
0001
0010
0100
0000
1000
0001
0100
0000
0001
1000
0100
0000
0010
0001
0100
0000
,
0010
1000
0010
1000
0001
0010
0100
1000
0001
0000
0001
0010
0001
1000
0100
0010
,
0000
0000
0000
0010
0000
0000
0001
0000
0010
0000
0000
0000
0100
0000
1000
0000
0001
0000
0000
0000
0100
0000
0010
0000
0000
0000
1000
0000
0001
0000
1000
0000
,
0100
0010
0001
1000
0000
0001
0010
0100
1000
0000
0001
0000
1000
0100
0010
0001
,
0000
1000
0010
0000
0100
0001
1000
0000
0010
0100
0001
0000
1000
0010
0100
0000
,
0001
1000
0100
0010
0001
0010
0100
1000
0001
0000
0001
0100
0010
1000
0001
0010
,
0000
0000
0000
0010
0000
0000
0001
0000
0010
0000
0000
0000
0100
0000
1000
0000
0001
0000
0000
0000
0100
0000
0010
0000
0000
0000
1000
0000
0001
0000
1000
0000
,
0100
0010
0001
1000
0000
0001
0010
0100
1000
0000
0001
0000
0100
0010
1000
0001
,
1000
0100
0010
0000
0001
1000
0010
0000
1000
0001
0010
0000
0100
1000
0010
0000
,
0100
0001
0100
0001
1000
0100
0010
0001
1000
0000
1000
0100
1000
0001
0010
0100
,
0000
0000
0000
0100
0000
0000
1000
0000
0100
0000
0000
0000
0010
0000
0001
0000
1000
0000
0000
0000
0010
0000
0100
0000
0000
0000
0001
0000
1000
0000
0001
0000
,
0010
0100
1000
0001
0000
1000
0100
0010
0001
0000
1000
0000
0001
0010
0100
1000
,
0000
0001
0100
0000
0010
1000
0001
0000
0100
0010
1000
0000
0001
0100
0010
0000
,
1000
0001
0010
0100
1000
0100
0010
0001
1000
0000
1000
0010
0100
0001
1000
0100
,
0000
0000
0000
0100
0000
0000
1000
0000
0100
0000
0000
0000
0010
0000
0001
0000
1000
0000
0000
0000
0010
0000
0100
0000
0000
0000
0001
0000
1000
0000
0001
0000
,
0010
0100
1000
0001
0000
1000
0100
0010
0001
0000
1000
0000
0001
0100
0010
0000
,
1001
0000
0000
0000
2000
0000
3020
0000
1030
0100
0010
0001
1000
0100
0010
0001
,
1000
0010
0100
0001
0010
0100
1000
0001
0010
0100
1000
0001
0100
0010
1000
0001
,
1000
0100
0010
0001
1000
0001
0010
0100
1000
0001
0100
0010
1000
0001
0100
0010
,
1000
0001
0010
0100
1000
0100
0010
0001
1000
0100
0010
0001
0010
0001
0100
0001
,
0100
0010
1000
0001
1000
0010
0100
0001
1000
0100
0010
0001
1000
0100
0010
0001
,
1000
0010
0100
0001
0010
0100
1000
0001
0010
0100
1000
0001
0100
0010
1000
0001
,
1000
0010
0100
0001
1000
0100
0010
0001
1000
0010
0100
0001
1000
0010
0100
0001
,
1000
0100
0010
0001
0100
0001
0010
0100
1000
0001
0100
0010
1000
0010
0100
0001
,
0100
0001
1000
0001
0010
0100
1000
0001
1000
0010
0100
0001
1000
0010
0100
0001
,
0010
0100
1000
0001
0100
0010
1000
0001
0010
0100
0010
0001
0100
0010
1000
0010
,
0100
0001
1000
0100
0010
0100
1000
0001
0100
0010
0100
0001
0010
0100
1000
0100
,
0010
0001
1000
0001
0100
0010
1000
0010
0100
0001
1000
0100
0010
0100
1000
0001
,
0100
0010
0100
0001
0010
0100
1000
0001
0010
0100
1000
0001
0010
0100
1000
0001
,
1000
0010
0100
0001
0010
0100
1000
0001
0010
0100
1000
0001
0100
0010
1000
0001
,
1000
0010
0100
0001
1000
0100
0010
0001
1000
0010
0100
0001
1000
0010
0100
0001
,
1000
0100
0010
0001
0100
0001
0010
0100
1000
0001
0100
0010
1000
0010
0100
0001
,
0100
0001
1000
0001
0010
0100
1000
0001
1000
0010
0100
0001
1000
0010
0100
0001
,
0010
0100
1000
0001
0100
0010
1000
0001
0010
0100
0010
0001
0100
0010
1000
0010
,
0100
0001
1000
0100
0010
0100
1000
0001
0100
0010
0100
0001
0010
0100
1000
0100
,
0010
0001
1000
0001
0100
0010
1000
0010
0100
0001
1000
0100
0010
0100
1000
0001
,
0100
0010
0100
0001
0010
0100
1000
0001
0010
0100
1000
0001
0010
0100
1000
0001
,
1000
0010
0100
0001
0010
0100
1000
0001
0010
0100
1000
0001
0100
0010
1000
0001
,
1000
0010
0100
0001
1000
0100
0010
0001
1000
0010
0100
0001
1000
0010
0100
0001
,
1000
0100
0010
0001
0100
0001
0010
0100
2000
0000
0000
0000
0001
0000
0001
0000
,
3001
0000
1000
0000
0001
1000
0001
1000
0001
0010
0100
1000
0001
0010
0100
1000
,
0001
0100
0010
1000
0100
0010
0001
1000
0100
0010
0001
1000
0010
0100
0001
1000
,
0001
0010
0100
1000
0001
1000
0100
0010
0001
1000
0010
0100
0001
1000
0010
0100
,
0001
1000
0100
0010
0001
0010
0100
1000
0001
0010
0100
1000
0100
1000
0010
1000
,
0010
0100
0001
1000
0001
0100
0010
1000
0001
0010
0100
1000
0001
0010
0100
1000
,
0001
0100
0010
1000
0100
0010
0001
1000
0100
0010
0001
1000
0010
0100
0001
1000
,
0001
0100
0010
1000
0001
0010
0100
1000
0001
0100
0010
1000
0001
0100
0010
1000
,
0001
0010
0100
1000
0010
1000
0100
0010
0001
1000
0010
0100
0001
0100
0010
1000
,
0010
1000
0001
1000
0100
0010
0001
1000
0001
0100
0010
1000
0001
0100
0010
1000
,
0100
0010
0001
1000
0010
0100
0001
1000
0100
0010
0100
1000
0010
0100
0001
0100
,
0010
1000
0001
0010
0100
0010
0001
1000
0010
0100
0010
1000
0100
0010
0001
0010
,
0100
1000
0001
1000
0010
0100
0001
0100
0010
1000
0001
0010
0100
0010
0001
1000
,
0010
0100
0010
1000
0100
0010
0001
1000
0100
0010
0001
1000
0100
0010
0001
1000
,
0001
0100
0010
1000
0100
0010
0001
1000
0100
0010
0001
1000
0010
0100
0001
1000
,
0001
0100
0010
1000
0001
0010
0100
1000
0001
0100
0010
1000
0001
0100
0010
1000
,
0001
0010
0100
1000
0010
1000
0100
0010
0001
1000
0010
0100
0001
0100
0010
1000
,
0010
1000
0001
1000
0100
0010
0001
1000
0001
0100
0010
1000
0001
0100
0010
1000
,
0100
0010
0001
1000
0010
0100
0001
1000
0100
0010
0100
1000
0010
0100
0001
0100
,
0010
1000
0001
0010
0100
0010
0001
1000
0010
0100
0010
1000
0100
0010
0001
0010
,
0100
1000
0001
1000
0010
0100
0001
0100
0010
1000
0001
0010
0100
0010
0001
1000
,
0010
0100
0010
1000
0100
0010
0001
1000
0100
0010
0001
1000
0100
0010
0001
1000
,
0001
0100
0010
1000
0100
0010
0001
1000
0100
0010
0001
1000
0010
0100
0001
1000
,
0001
0100
0010
1000
0001
0010
0100
1000
0001
0100
0010
1000
0001
0100
0010
1000
,
0001
0010
0100
1000
0010
1000
0100
0010
0001
1000
0001
1000
0010
0000
0010
0000
,
0010
0000
1000
0000
0100
0010
0100
0010
0001
0000
0000
0000
0000
0000
1000
0000
,
1000
0000
0000
0100
0000
0000
0010
0000
0000
0100
1000
0001
,
0200
0000
0000
0000
0000
0000
0000
0000
0000
0000
0000
0000
0000
0000
0000
0300
1010
0000
0000
0000
0010
0000
0000
0000
0100
0000
0000
0000
0001
0000
0000
0000
,
1000
0100
1000
0000
0001
0000
0100
0000
0010
1000
0010
0000
1000
0000
0100
0000
,
0010
0001
0010
0000
0100
0000
1000
0000
0001
0100
0001
0000
1000
0000
0010
0000
,
0100
0001
0100
0000
0010
0000
1000
0000
0001
0010
0001
0000
1000
0000
0100
0000
,
0010
0001
0010
0000
0100
0000
1000
0000
0001
0100
0001
0000
1000
0000
0100
0000
,
0010
0001
0010
0000
0100
0000
1000
0000
0001
0100
0001
0000
1000
0000
0100
0000
,
0010
0001
0010
0000
0100
0000
1000
0000
0010
0100
0010
0000
1000
0000
0001
0000
,
0010
0100
0010
0000
0001
0000
1000
0000
0100
1000
0100
0000
1000
0000
0001
0000
,
0100
0010
0100
0000
0010
0000
1000
0000
1001
0000
0001
0000
0010
0000
0100
0000
,
1000
0100
1000
0000
0010
0000
1000
0000
0001
1000
0001
0000
1000
0000
0100
0000
,
0010
0001
0010
0000
0100
0000
1000
0000
0001
0100
0001
0000
1000
0000
0010
0000
,
0100
0001
0100
0000
0010
0000
1000
0000
0001
0010
0001
0000
1000
0000
0100
0000
,
0010
0001
0010
0000
0100
0000
1000
0000
0001
0100
0001
0000
1000
0000
0100
0000
,
0010
0001
0010
0000
0100
0000
1000
0000
0001
0100
0001
0000
1000
0000
0100
0000
,
0010
0001
0010
0000
0100
0000
1000
0000
0001
0100
0001
0100
0010
1000
0010
1000
,
0001
0010
0001
0010
0100
1000
0100
1000
0001
1000
0100
0010
0001
1000
0001
0010
,
0100
1000
0010
0100
0001
0100
0010
1000
0001
0010
0001
0010
0100
1000
0010
0100
,
0010
1000
0100
0010
0100
1000
0010
0100
0001
1000
0100
0010
0100
0010
0001
0010
,
0100
1000
0010
0100
0001
0100
0010
1000
0001
0010
0001
0010
0100
1000
0010
0100
,
0010
1000
0100
0010
0100
1000
0010
0100
0001
1000
0100
0010
0100
0010
0001
0010
,
0100
1000
0001
0100
0010
1000
0010
1000
0001
0010
0001
0010
0100
1000
0010
0100
,
0010
1000
0100
0010
0100
1000
0010
0100
0001
1000
0100
0010
0100
0010
0001
0010
,
0100
1000
0010
0100
0001
0100
0010
1000
0001
0010
0001
0010
0100
1000
0010
0100
,
0010
1000
0100
0010
0100
1000
0010
0100
0001
1000
0100
0010
0100
0010
0001
0010
,
0100
1000
0001
0100
0010
1000
0100
1000
0001
0100
0001
0100
0010
1000
0100
0010
,
0100
1000
0010
0100
0010
1000
0100
0010
0001
1000
0010
0100
0010
0100
0001
0100
,
0010
1000
0100
0010
0001
0010
0100
1000
0001
0100
0001
0100
0010
1000
0100
0010
,
0100
1000
0010
0100
0010
1000
0100
0010
0001
1000
0010
0100
0010
0100
0001
0100
,
0010
1000
0001
0010
0100
1000
0100
1000
0001
0100
0001
0100
0010
1000
0100
0010
,
0100
1000
0010
0100
0010
1000
0100
0010
0001
1000
0010
0100
0010
0100
0001
0100
,
0010
1000
0100
0010
0001
0010
0100
1000
0001
0100
0001
0100
0010
1000
0100
0010
,
0100
1000
0010
0100
0010
1000
0100
0010
0001
1000
0010
0100
0010
0100
0001
0100
,
0010
1000
0001
0010
0100
1000
0010
1000
0100
0010
0001
1000
0001
1000
0010
1000
,
0100
0010
0001
0010
0100
1000
0010
1000
0100
0010
0001
0010
0100
1000
0010
0100
,
0001
0100
0010
1000
0100
0010
0100
0010
0001
0010
0100
1000
0100
1000
0001
1000
,
0010
0100
0001
0100
0010
1000
0100
1000
0010
0100
0001
0100
0010
1000
0100
0010
,
0001
0010
0100
1000
0010
0100
0010
0100
0001
0010
0001
1000
0001
1000
0010
1000
,
0100
0010
0001
0010
0100
1000
0010
0100
0001
0010
0001
1000
0001
1000
0010
1000
,
0100
0010
0001
0010
0100
1000
0010
0100
0001
0010
0001
1000
0001
1000
0010
1000
,
0100
0010
0001
0010
0100
1000
0010
0100
0001
0100
0010
1000
0100
0010
0001
0010
,
0100
1000
0001
0100
0010
1000
0100
1000
0010
0100
0001
1000
0001
1000
0100
1000
,
0010
0100
0001
0100
0010
1000
0100
1000
0010
0100
0001
0100
0010
1000
0100
0010
,
0001
0010
0100
1000
0010
0100
0010
0100
0001
0100
0010
1000
0010
1000
0001
1000
,
0100
0010
0001
0010
0100
1000
0010
1000
0100
0010
0001
0010
0100
1000
0010
0100
,
0001
0100
0010
1000
0100
0010
0100
0010
0001
0100
0001
1000
0001
1000
0100
1000
,
0010
0100
0001
0100
0010
1000
0100
0010
0001
0100
0001
1000
0001
1000
0100
1000
,
0010
0100
0001
0100
0010
1000
0100
0010
0001
0100
0001
1000
0001
1000
0100
1000
,
0010
0100
0001
0100
0010
1000
0100
0010
0001
0010
0100
1000
0010
0100
0001
0100
,
0010
1000
0001
0010
0100
1000
0010
1000
0200
0000
0000
0000
0010
0000
0300
0100
,
2000
0000
0000
3000
2000
0000
0000
0000
0001
0000
0000
0000
3000
0000
0000
0000
0100
0000
0000
0000
0000
0000
0000
0000
0001
0000
0000
0000
0000
0000
1000
0000
,
0100
0000
0100
0000
0020
0000
0000
0000
0230
0000
0000
0000
1000
0000
0300
0100
,
0020
0000
0000
0030
0020
0000
0000
0000
0001
0000
0000
0000
0000
0000
0030
0000
1100
0000
0000
0000
0000
0000
0000
0000
0001
0000
0000
0000
0000
0000
0010
0000
,
0100
0000
0100
0000
2000
0000
0000
0000
3002
0000
0000
0000
0010
0000
0003
0001
,
2000
0000
0000
3000
2000
0000
0000
0000
0010
0000
0000
0000
3000
0000
0000
0000
1000
0000
0000
0000
0000
0000
0000
0000
0100
0000
0000
0000
0000
0000
0010
0000
,
0001
0000
0000
0001
0000
0000
2000
0000
0000
0000
0000
0000
3100
0000
0000
0000
0010
0000
0001
0000
0010
0000
0001
0000
,
0100
0000
0010
1000
0010
1000
0100
0010
0001
0100
0001
0010
,
0100
0000
0000
0000
0000
0000
0000
0000
0000
0000
0000
0000
0000
0000
0000
0000
0000
0000
0000
0000
0000
0000
0000
0000
0000
0000
0000
0000
0000
0000
0000
0000
0100
0000
0000
0000
0000
0000
0000
0000
0000
0000
0000
0000
0000
0000
0000
0000
2000
0000
0000
0000
0000
0000
0000
0000
0000
0000
0000
0000
0000
0000
0000
0000
0000
0000
0000
0000
0000
0000
0000
0000
0000
0000
0000
0000
0000
0000
0000
0000
0000
0000
0000
0000
0000
0000
0000
0000
0000
0000
0000
0000
0000
0000
0000
0000
30M2
0000
0000
0000
0000
0000
0000
0000
0M00
0000
0000
0000
0000
0000
0000
0000
0000
0000
0000
0000
0000
0000
0000
0000
M000
0000
0000
0000
0000
0000
0000
0000
0000
0000
0000
0000
0M00
0000
0000
0000
0000
0000
0000
0000
0000
0000
0000
0000
0010
0000
0000
0000
0000
0000
0000
0000
0000
0000
0000
0000
0M00
0000
0000
0000
0000
0000
0000
0000
0000
0000
0000
0000
M000
0000
0000
0000
0000
0000
0003
0000
0000
0000
0000
0000
0001
0000
0000
0000
00M0
0000
0000
0000
0000
0000
0000
0000
,
2000
0000
0000
0000
0000
0000
0000
0000
0000
0000
0000
0000
0000
0000
0000
0000
0M00
0000
3000
0000
0000
0000
0000
0000
2000
0000
0000
0000
0000
0000
0000
0000
0000
0000
0000
0000
0000
0000
0000
0000
00M0
0000
0000
0000
0000
0000
0000
0000
0001
0000
0000
0000
0000
0000
0000
0000
0000
0000
0000
0000
0000
0000
0000
0000
0000
0000
0000
0000
0000
0000
0000
0000
3M00
0000
0000
0000
0000
0000
0000
0000
0000
0000
0000
0000
0000
0000
0000
0000
0000
0000
0000
0000
0000
0000
0000
0000
010M
0000
0000
0000
0000
0000
0000
0000
0000
0000
0000
0000
0000
0000
0000
0000
0000
0000
0000
0000
0000
0000
0000
0000
0000
0000
0000
0000
0000
0000
0000
0000
00M0
0000
0000
0000
0000
0000
0000
0000
0000
0000
0000
0000
0000
0000
0000
0000
0001
0000
0000
0000
0000
0000
0000
0000
0000
0000
0000
0000
0000
0000
0000
0000
M000
0000
0000
0000
0000
0000
0000
0000
0000
0000
0000
0000
0000
0000
0000
0000
0000
0000
0000
0000
1000
0000
0000
0000
0000
0000
0000
0000
0000
0000
0000
0000
,
010M
0000
0100
M000
0020
0000
0000
0000
023M
0000
0000
0000
1000
0000
0300
0100
,
0020
0000
0000
0030
0020
0000
0000
0000
0001
0000
0000
0000
0000
0000
0030
0000
1000
0000
0000
0000
0000
0000
0000
0000
0001
0000
0000
0000
0000
0000
0010
0000
,
0100
0000
0100
0000
2000
0000
0000
0000
3200
0000
0000
0000
0010
0000
0300
0100
,
2000
0000
0000
3000
2000
0000
0000
0000
0001
0000
0000
0000
3000
0000
0000
0000
0100
0000
0000
0000
0000
0000
0000
0000
0001
0000
0000
0000
0000
0000
1000
0000
,
0100
0000
0000
0000
0100
0000
0000
0000
0020
0000
0000
0000
0000
0000
0000
0000
0032
0000
0000
0000
0000
0000
0000
0000
0100
0000
0000
0000
0000
0003
0001
0000
,
0020
0000
0000
0030
0020
0000
0000
0000
0100
0000
0000
0000
0000
0000
0030
0000
1000
0000
0000
0000
0000
0000
0000
0000
0001
0000
0000
0000
0000
0000
1000
0000
,
0100
0000
0000
0000
0100
0000
0000
0000
0020
0000
0000
0000
0000
0000
0000
0000
M031
0M00
M000
0000
00M0
0000
M000
0000
01M0
0000
0000
000M
0000
M000
0000
0000
,
00M1
0000
0000
M000
0001
0000
0M00
0000
0010
0000
0000
000M
0000
0000
M000
0000
0100
0000
0000
00M0
0000
0000
0000
0000
100M
0000
0000
0000
0000
0000
0M00
0000
,
0001
0001
10M0
0000
0100
0000
0010
0000
,
0001
0001
0100
0000
0010
0000
1000
0000
,
0010
0010
0100
0000
0001
0000
0010
0000
,
0100
0100
1000
0000
0001
0000
0100
0000
,
0010
0010
1000
0000
0100
0000
0010
0000
,
0100
0100
1000
0000
0001
0000
0100
0000
,
0010
0000
0000
0000
0010
0000
0000
0000
1000
0000
0000
0000
0000
0000
0000
0000
00M1
M000
00M0
0000
0M01
0000
0000
M000
0010
0000
0M00
0000
001M
0000
0000
M000
,
0100
0000
000M
0000
M100
0000
0000
00M0
1000
0000
000M
0000
10M0
0000
0000
0M00
0001
0000
0000
00M0
0001
0000
M000
0000
0100
0000
00M0
0000
0100
0000
0000
0000
,
001M
0010
1M00
1000
0100
0100
0010
0010
,
0001
0001
1000
1000
0010
0010
1000
1000
,
0100
0000
0100
0000
0010
0000
0010
0000
0001
0010
0001
0010
0001
1000
0001
1000
,
0001
0100
0001
0100
0010
1000
0010
1000
0001
1000
0001
1000
0100
1000
0100
1000
,
0100
0010
0100
0010
0001
0010
0001
0010
0001
1000
0001
0100
0010
1000
0001
1000
,
0100
0010
0001
0010
0100
1000
0010
0100
0001
0000
0100
0000
0010
0000
1000
0000
,
0001
0000
0001
0000
0010
0000
0000
0000
0001
0010
0001
0010
0100
1000
0010
0100
,
0010
1000
0100
0010
0100
1000
0010
0100
0001
1000
0100
0010
0100
0010
0001
0010
,
0100
1000
0010
0100
0001
0100
0010
1000
0001
0010
0001
0010
0100
1000
0010
0100
,
0010
1000
0100
0010
0100
1000
0010
0100
0001
1000
0100
0010
0100
0010
0001
0010
,
0100
1000
0001
0100
0010
1000
0010
1000
0001
0010
0001
0010
0100
1000
0010
0100
,
0010
1000
0100
0010
0100
1000
0010
0100
0001
1000
0100
0010
0100
0010
0001
0010
,
0100
1000
0010
0100
0001
0100
0010
1000
0001
0010
0001
0010
0100
1000
0010
0100
,
0010
1000
0100
0010
0100
1000
0010
0100
0001
1000
0100
0010
0100
0010
0001
0010
,
0100
1000
0001
0100
0010
1000
0100
1000
0001
0100
0001
0100
0010
1000
0100
0010
,
0100
1000
0010
0100
0010
1000
0100
0010
0001
1000
0010
0100
0010
0100
0001
0100
,
0010
1000
0100
0010
0001
0010
0100
1000
0001
0100
0001
0100
0010
1000
0100
0010
,
0100
1000
0010
0100
0010
1000
0100
0010
0001
1000
0010
0100
0010
0100
0001
0100
,
0010
1000
0001
0010
0100
1000
0100
1000
0001
0100
0001
0100
0010
1000
0100
0010
,
0100
1000
0010
0100
0010
1000
0100
0010
0001
1000
0010
0100
0010
0100
0001
0100
,
0010
1000
0100
0010
0001
0010
0100
1000
0001
0100
0001
0100
0010
1000
0100
0010
,
0100
1000
0010
0100
0010
1000
0100
0010
0001
1000
0010
0100
0010
0100
0001
0100
,
0010
1000
0001
0010
0100
1000
0010
1000
0100
0010
0001
1000
0001
1000
0010
1000
,
0100
0010
0001
0010
0100
1000
0010
1000
0100
0010
0001
0010
0100
1000
0010
0100
,
0001
0100
0010
1000
0100
0010
0100
0010
0001
0010
0100
1000
0100
1000
0001
1000
,
0010
0100
0001
0100
0010
1000
0100
1000
0010
0100
0001
0100
0010
1000
0100
0010
,
0001
0010
0100
1000
0010
0100
0010
0100
0001
0010
0001
1000
0001
1000
0010
1000
,
0100
0010
0001
0010
0100
1000
0010
0100
0001
0010
0001
1000
0001
1000
0010
1000
,
0100
0010
0001
0010
0100
1000
0010
0100
0001
0010
0001
1000
0001
1000
0010
1000
,
0100
0010
0001
0010
0100
1000
0010
0100
0001
0100
0010
1000
0100
0010
0001
0010
,
0100
1000
0001
0100
0010
1000
0100
1000
0010
0100
0001
1000
0001
1000
0100
1000
,
0010
0100
0001
0100
0010
1000
0100
1000
0010
0100
0001
0100
0010
1000
0100
0010
,
0001
0010
0100
1000
0010
0100
0010
0100
0001
0100
0010
1000
0010
1000
0001
1000
,
0100
0010
0001
0010
0100
1000
0010
1000
0100
0010
0001
0010
0100
1000
0010
0100
,
0001
0100
0010
1000
0100
0010
0100
0010
0001
0100
0001
1000
0001
1000
0100
1000
,
0010
0100
0001
0100
0010
1000
0100
0010
0001
0100
0001
1000
0001
1000
0100
1000
,
0010
0100
0001
0100
0010
1000
0100
0010
0001
0100
0001
1000
0001
1000
0100
1000
,
0010
0100
0001
0100
0010
1000
0100
0010
0001
1000
0001
1000
0001
1000
0001
1000
,
0001
1000
0001
1000
0001
1000
0001
1000
0100
0010
0001
0100
0001
1000
0100
1000
,
0010
0100
0001
1000
0001
0100
0010
1000
0010
0100
0001
0010
0001
1000
0010
1000
,
0100
1000
0001
0100
0001
1000
0100
0010
0001
0100
0001
1000
0100
1000
0010
1000
,
0100
0010
0001
0100
0001
1000
0100
0010
0100
1000
0001
0100
0001
1000
0010
1000
,
0100
1000
0001
0100
0001
1000
0010
1000
0100
0010
0001
0100
0001
1000
0100
1000
,
0010
0100
0001
1000
0001
0100
0010
1000
0010
0100
0001
0010
0001
1000
0010
1000
,
0100
1000
0001
0100
0001
1000
0100
0010
0001
0100
0001
1000
0100
1000
0010
1000
,
0100
0010
0001
0100
0001
1000
0100
0010
0100
1000
0001
0100
0001
1000
0010
1000
,
0100
1000
0001
0100
0001
1000
0010
1000
0100
0010
0001
0100
0001
1000
0100
1000
,
0010
0100
0001
1000
0001
0100
0010
1000
0010
0100
0001
0010
0001
1000
0010
1000
,
0100
1000
0001
0100
0001
1000
0100
0010
0001
0100
0001
1000
0100
1000
0010
1000
,
0100
0010
0001
0100
0001
1000
0100
0010
0100
1000
0001
0100
0001
1000
0010
1000
,
0100
1000
0001
0100
0001
1000
0010
1000
0100
0010
0001
0100
0001
1000
0100
1000
,
0010
0100
0001
1000
0001
0100
0010
1000
0010
0100
0001
0010
0001
1000
0010
1000
,
0100
1000
0001
0100
0001
1000
0100
0010
0001
0100
0001
1000
0100
1000
0010
0100
,
0001
0010
0001
0100
0010
0100
0001
1000
0100
1000
0001
0100
0001
1000
0010
1000
,
0100
0000
0010
0000
0001
0000
1000
0000
0010
0100
0001
0010
0001
1000
0010
1000
,
0100
0010
0001
1000
0001
0010
0100
1000
0100
0010
0001
0100
0001
1000
0100
1000
,
0010
1000
0001
0010
0001
1000
0010
0100
0001
0010
0001
1000
0010
1000
0100
1000
,
0010
0100
0001
0010
0001
1000
0010
0100
0010
1000
0001
0010
0001
1000
0100
1000
,
0010
1000
0001
0010
0001
1000
0100
1000
0010
0100
0001
0010
0001
1000
0010
1000
,
0100
0010
0001
1000
0001
0010
0100
1000
0100
0010
0001
0100
0001
1000
0100
1000
,
0010
1000
0001
0010
0001
1000
0010
0100
0001
0010
0001
1000
0010
1000
0100
1000
,
0010
0100
0001
0010
0001
1000
0010
0100
0010
1000
0001
0010
0001
1000
0100
1000
,
0010
1000
0001
0010
0001
1000
0100
1000
0010
0100
0001
0010
0001
1000
0010
1000
,
0100
0010
0001
1000
0001
0010
0100
1000
0100
0010
0001
0100
0001
1000
0100
1000
,
0010
1000
0001
0010
0001
1000
0010
0100
0001
0010
0001
1000
0010
1000
0100
1000
,
0010
0100
0001
0010
0001
1000
0010
0100
0010
1000
0001
0010
0001
1000
0100
1000
,
0010
1000
0001
0010
0001
1000
0100
1000
0010
0100
0001
0010
0001
1000
0010
1000
,
0100
0010
0001
1000
0001
0010
0100
1000
0100
0010
0001
0100
0001
1000
0100
1000
,
0010
1000
0001
0010
0001
1000
0010
0100
0001
0010
0001
1000
0010
1000
0100
1000
,
0010
0100
0001
0010
0001
1000
0010
0100
0010
1000
0001
0010
0001
1000
0100
1000
,
0010
1000
0001
0010
0001
1000
0100
1000
0002
0000
0000
0000
0000
0000
0000
0000
,
0003
0000
0000
0000
,
0000
0000
0000
0000
,
0000
0000
0000
0000
,
0000
0000
0000
0000
,
1000
0000
0000
0000
,
0000
0000
0000
0100
,
0000
0000
0000
0000
,
0000
0000
0000
0010
0000
0000
0000
0000
,
0000
0000
0000
0000
,
0020
0000
0032
0000
1003
0000
0000
1000
,
0000
0000
0000
0000
1000
1000
1000
0000
,
0020
0000
0230
0000
0301
0000
0000
0001
,
0000
0000
0000
0000
0001
0001
0001
0000
,
0200
0000
0320
0000
1030
0000
0000
1000
,
0000
0000
0000
0000
1000
1000
1000
0000
,
0002
0000
0023
0000
0130
0000
0000
1000
,
0000
0000
0000
0000
0000
0000
0000
0000
0000
0001
0100
0001
0100
0000
0000
0000
0000
0000
0000
0000
0000
0010
0000
0000
,
0000
0000
0000
0000
0000
0000
0000
0000
0000
1000
0001
1000
0001
0000
0000
0000
0000
0000
0000
0000
0000
0010
0000
0000
,
0000
0000
0000
0000
0000
0000
0000
0000
0000
0100
1000
0100
1000
0000
0000
0000
0000
0000
0000
0000
0000
0001
0000
0000
,
0000
0000
0000
0000
0000
0000
0000
0000
0000
0100
0001
0100
0001
0000
0000
0000
0000
0000
0000
0000
0000
1000
0000
0000
,
0000
0000
0000
0000
0000
0000
0000
0000
0000
0001
0010
0001
0010
0000
0000
0000
0000
0000
0000
0000
0000
0100
0000
0000
,
0000
0000
0000
0000
0000
0000
0000
0000
0000
1000
0100
1000
0100
0000
0000
0000
0000
0000
0000
0000
0000
0010
0000
0000
,
0000
0000
0000
0000
0000
0000
0000
0000
0000
0001
1000
0001
1000
0000
0000
0000
0000
0000
0000
0000
0000
0001
0000
0000
,
0000
0000
0000
0000
0000
0000
0000
0000
0000
1000
0010
1000
0010
0000
0000
0100
0001
0100
0001
0000
0000
1000
0000
0000
,
0001
0000
0000
0010
0000
0000
0001
0000
0000
0000
0000
0000
1000
0000
0000
0000
0000
0000
0001
0000
0010
0000
0001
0000
0010
0000
0000
0000
0000
0000
0100
0000
1000
0000
0100
0000
1000
0000
0000
0000
0000
0000
0001
0000
0000
0000
0000
0000
,
0100
0000
0000
0001
0000
0000
0100
0000
0000
0000
0000
0000
0010
0000
0000
0000
0000
0000
1000
0000
0001
0000
1000
0000
0001
0000
0000
0000
0000
0000
0010
0000
0100
0000
0010
0000
0100
0000
0000
0000
0000
0000
1000
0000
0000
0000
0000
0000
,
0001
0000
0000
0100
0000
0000
0001
0000
0000
0000
0000
0000
1000
0000
0000
0000
0000
0000
0010
0000
0100
0000
0010
0000
0100
0000
0000
0000
0000
0000
0001
0000
0100
0000
0001
0000
0100
0000
0000
0000
0000
0000
0010
0000
0000
0000
0000
0000
,
1000
0000
0000
0001
0000
0000
1000
0000
0000
0000
0000
0000
0100
0000
0000
0000
0000
0000
0010
0000
0001
0000
0010
0000
0100
0000
0000
0000
0000
0000
1000
0000
0001
0000
1000
0000
0001
0000
0000
0000
0000
0000
0100
0000
0001
0000
1000
0000
,
0010
0000
0000
0100
0001
1000
0001
0000
0000
0010
0100
1000
0001
0000
0000
0010
0001
0010
0100
0000
0000
1000
0001
1000
,
0001
0000
0000
0100
0001
1000
0010
0000
0000
0100
0001
1000
0001
0000
0000
1000
0100
0010
0001
0000
0000
1000
0001
0010
,
0100
0000
0000
0000
0000
0000
1000
0000
0001
0000
1000
0000
0010
0000
0000
0000
0000
0000
0100
0000
0001
0000
1000
0000
0200
0000
0000
0000
0000
0000
0000
0000
0000
0000
0000
0000
0310
0001
0010
0100
0000
0000
0000
0000
0000
0000
0000
0000
,
2000
0000
3002
0000
1003
0100
0010
0001
0010
0001
1000
0001
0100
0010
1000
0010
,
0100
0001
1000
0001
0010
0100
1000
0001
0010
0001
1000
0001
0100
0010
0100
0010
,
1000
0010
1000
0001
0010
0100
1000
0001
0100
0001
0010
0100
0010
0001
1000
0001
,
0010
0100
1000
0001
0100
0010
1000
0010
0100
0001
0010
0100
1000
0001
1000
0100
,
0010
0001
1000
0001
1000
0010
0100
0001
0100
0001
1000
0001
1000
0100
1000
0100
,
0010
0001
1000
0001
0100
0010
0100
0001
1000
0001
0100
0010
1000
0001
1000
0100
,
0010
0001
0010
0100
1000
0010
0100
0001
0010
0100
1000
0100
0010
0001
1000
0001
,
1000
0010
0100
0001
1000
0001
0010
0001
1000
0010
0100
0001
1000
0100
1000
0100
,
0010
0001
0010
0001
1000
0010
0100
0001
0100
0001
1000
0001
0010
0100
1000
0100
,
0010
0001
1000
0001
0100
0010
1000
0001
0100
0001
1000
0001
0010
0100
0010
0100
,
1000
0100
1000
0001
0100
0010
1000
0001
0010
0001
0100
0010
0100
0001
1000
0001
,
0100
0010
1000
0001
0010
0100
1000
0100
0010
0001
0100
0010
1000
0001
1000
0010
,
0100
0001
1000
0001
1000
0100
0010
0001
0010
0001
1000
0001
1000
0010
1000
0010
,
0100
0001
1000
0001
0010
0100
0010
0001
1000
0001
0010
0100
1000
0001
1000
0010
,
0100
0001
0100
0010
1000
0001
0100
0001
1000
0010
1000
0010
0100
0001
1000
0010
,
1000
0100
0010
0001
0100
0001
0010
0100
1000
0001
1000
0010
0100
0001
0100
0010
,
1000
0001
0100
0010
1000
0100
0010
0001
0010
0001
1000
0001
0100
0010
1000
0010
,
0100
0001
1000
0001
0010
0100
1000
0001
0010
0001
1000
0001
0100
0010
0100
0010
,
1000
0010
1000
0001
0010
0100
1000
0001
0100
0001
0010
0100
0010
0001
1000
0001
,
0010
0100
1000
0001
0100
0010
1000
0010
0100
0001
0010
0100
1000
0001
1000
0100
,
0010
0001
1000
0001
1000
0010
0100
0001
0100
0001
1000
0001
1000
0100
1000
0100
,
0010
0001
1000
0001
0100
0010
0100
0001
1000
0001
0100
0010
1000
0001
1000
0100
,
0010
0001
0010
0100
1000
0010
0100
0001
0010
0100
1000
0100
0010
0001
1000
0001
,
1000
0010
0100
0001
1000
0001
0010
0001
1000
0010
0100
0001
1000
0100
1000
0100
,
0010
0001
0010
0001
1000
0010
0100
0001
0100
0001
1000
0001
0010
0100
1000
0100
,
0010
0001
1000
0001
0100
0010
1000
0001
0100
0001
1000
0001
0010
0100
0010
0100
,
1000
0100
1000
0001
0100
0010
1000
0001
0010
0001
0100
0010
0100
0001
1000
0001
,
0100
0010
1000
0001
0010
0100
1000
0100
0010
0001
0100
0010
1000
0001
1000
0010
,
0100
0001
1000
0001
1000
0100
0010
0001
0010
0001
1000
0001
1000
0010
1000
0010
,
0100
0001
1000
0001
0010
0100
0010
0001
1000
0001
0010
0100
1000
0001
1000
0010
,
0100
0001
0100
0010
1000
0001
0100
0001
1000
0010
1000
0010
0100
0001
1000
0010
,
1000
0100
0010
0001
0100
0001
0010
0100
1000
0001
1000
0010
0100
0001
0100
0010
,
1000
0001
0100
0010
1000
0001
1000
0001
1000
0100
1000
0100
0010
0001
0010
0001
,
1000
0001
1000
0001
1000
0010
1000
0010
0100
0001
0100
0001
1000
0010
1000
0010
,
0100
0001
0100
0001
1000
0001
0100
0010
1000
0001
0100
0001
0010
0100
1000
0100
,
0010
0001
1000
0001
0010
0100
1000
0010
0100
0001
1000
0001
0100
0010
1000
0100
,
0010
0001
0010
0001
1000
0010
0100
0001
1000
0100
1000
0100
0010
0001
0010
0001
,
1000
0001
1000
0001
1000
0010
1000
0010
0100
0001
0100
0001
1000
0010
1000
0010
,
0100
0001
0100
0001
1000
0001
0100
0010
1000
0001
0100
0001
0010
0100
1000
0100
,
0010
0001
1000
0001
0010
0100
1000
0010
0100
0001
0100
0010
1000
0001
0010
0001
,
0100
0001
0010
0100
1000
0010
0100
0001
1000
0100
1000
0100
0010
0001
0010
0001
,
1000
0001
1000
0001
1000
0010
1000
0010
0100
0001
0100
0001
1000
0010
1000
0010
,
0100
0001
0100
0001
1000
0001
0100
0010
1000
0001
0100
0001
0010
0100
1000
0100
,
0010
0001
1000
0001
0010
0100
1000
0010
0100
0001
1000
0001
0100
0010
1000
0100
,
0010
0001
0010
0001
1000
0010
0100
0001
1000
0100
1000
0100
0010
0001
0010
0001
,
1000
0001
1000
0001
1000
0010
1000
0010
0100
0001
0100
0001
1000
0010
1000
0010
,
0100
0001
0100
0001
1000
0001
0100
0010
1000
0001
0100
0001
0010
0100
1000
0100
,
0010
0001
0010
0100
1000
0001
1000
0001
1000
0001
1000
0001
0100
0000
0000
0010
,
1000
0000
0010
0000
0101
0000
0001
0000
1002
0000
1000
0003
1001
0000
0001
0000
,
0010
0100
1100
1000
0001
1010
0001
1010
,
0001
1000
0100
0011
1000
0100
0010
0100
,
1000
0000
0010
0000
2002
0000
0000
3003
1001
0000
0000
0000
0100
0000
0000
0001
,
0010
0000
0100
0000
1100
0000
1000
0000
2001
0000
0001
3000
1001
0000
1000
0000
,
0010
0100
0101
0001
0010
1100
0001
1100
,
0001
0010
0100
1001
0001
0100
0010
0100
,
0001
0000
0010
0000
2002
0000
0000
3003
1001
0000
0000
0000
1000
0000
0010
0000
,
1000
0010
0101
0000
1001
0000
1001
0001
,
0011
1100
1001
0101
,
1010
0010
0101
0000
1001
0000
1001
1000
,
1100
0011
0110
1001
,
0101
0001
1001
0000
0110
0000
0011
0001
,
1010
0101
1100
0011
,
1100
1000
0101
0000
1010
0000
0101
0001
,
0110
1001
1100
0011
,
0110
0000
0100
0000
1100
0000
1000
0000
0001
0010
0001
0000
1000
0000
0001
0000
,
0100
0010
0100
0000
0001
0000
1000
0000
0100
0010
0100
0000
1000
0000
0001
0000
,
0010
0001
0010
0000
0100
0000
1000
0000
0001
0100
0001
0000
1000
0000
0010
0000
,
0100
0001
0100
0000
0010
0000
1000
0000
0100
0010
0100
0000
1000
0000
0001
0000
,
0001
0000
0100
0000
0010
0000
1000
0000
0001
0100
0001
0000
1000
0000
0100
0000
,
0010
0001
0010
0000
0100
0000
1000
0000
0001
0100
0001
0000
1000
0000
0010
0000
,
0100
0001
0100
0000
0010
0000
1000
0000
0001
0010
0001
0000
1000
0000
0100
0000
,
0010
0001
0010
0000
0100
0000
1000
0000
0010
0100
0010
0000
1000
0000
0001
0000
,
0001
0000
0010
0000
0110
0000
0100
0000
0110
0000
0010
0000
0001
1000
0100
0000
,
1000
0000
0001
0000
0011
0000
0010
0000
0011
0000
0001
0000
1000
0001
0100
0000
,
0010
0000
0010
0000
1010
0000
1000
0000
1010
0000
0010
0000
0100
0001
0010
0000
,
0100
0000
1000
0000
1001
0000
0001
0000
1001
0000
1000
0000
0010
0100
0001
0000
,
1000
0000
1000
0000
1001
0000
0001
0000
1001
0000
1000
0000
0100
0010
0001
0000
,
1000
0000
0001
0000
0011
0000
0010
0000
0110
0000
0100
0000
1000
0001
1000
0000
,
0100
0000
0010
0000
0011
0000
0001
0000
0011
0000
0010
0000
0100
1000
0010
0000
,
0100
0001
1001
1000
0001
0100
0010
1000
,
0010
0000
1000
0000
0001
0010
0100
1000
0001
0010
0100
1000
0001
0100
0001
0100
,
0010
1000
0100
0010
0001
0010
0100
1000
0001
0010
0001
1000
0001
1000
0010
0100
,
0001
1000
0010
1000
0001
0010
0100
1000
0001
0010
0100
1000
0001
0010
0100
1000
,
0100
1000
0010
0100
0001
1000
0100
0010
0100
0010
0001
0010
0100
1000
0001
0010
,
0001
1000
0001
0100
0001
0010
0100
1000
0001
0010
0100
1000
0001
0100
0001
0100
,
0010
1000
0100
0010
0001
0010
0100
1000
0001
1000
0100
1000
0010
0100
0010
1000
,
0001
1000
0100
1000
0001
0010
0100
1000
0001
0010
0100
1000
0001
0010
0100
1000
,
0001
1000
0001
1000
0010
0000
0100
0000
0010
0000
1000
0000
0000
0000
0001
0000
,
0000
0000
1001
1000
1100
0100
1100
1000
,
1001
0001
0101
0100
1010
0000
0101
0100
,
1010
1010
1001
0001
0011
0010
0011
0001
,
1001
1000
1010
0010
0101
0000
1010
0010
,
0101
0101
1001
1000
1100
0100
0110
0010
,
0110
0100
1100
1000
0011
0000
1100
1000
,
0011
0011
1001
1000
1001
0001
1001
1000
,
1001
0001
0101
0100
0110
0010
1010
1000
,
1001
1001
0011
0001
0001
1000
0001
0001
,
0100
0000
0001
0000
0001
0000
0010
0000
0001
0000
0001
0000
1000
0000
0000
0001
,
1000
0000
0001
0000
0100
0000
0010
0000
0010
0000
1000
0000
0001
0010
0100
0000
,
1000
0000
0000
0000
0100
0000
0000
0000
1000
0000
0000
0000
0000
0000
0000
0000
0001
0000
0000
0000
0100
0000
0000
0000
0001
0000
0000
0000
0010
0000
0000
0000
0100
0000
0000
0000
1000
0000
0000
0000
0001
0000
0000
0000
0000
0000
0000
0000
0200
0300
0000
0000
0000
0000
0000
0000
0001
0000
0000
0000
1000
0000
0000
0000
,
0100
0010
0000
0000
0001
0010
0100
1000
0100
1000
0001
0010
0100
1000
0100
1000
,
0001
1000
0100
0010
0001
1000
0010
0100
0010
0100
0001
0100
0010
1000
0010
1000
,
0001
1000
0010
0100
0001
0010
0100
1000
0100
1000
0001
1000
0100
0010
0100
0010
,
0001
0010
0100
1000
0001
1000
0001
0100
0010
1000
0001
1000
0010
0100
0001
0010
,
0100
1000
0010
0100
0001
1000
0001
1000
0010
0100
0001
1000
0001
1000
0010
1000
,
0001
1000
0100
0010
0001
1000
0001
0100
0010
0100
0001
1000
0010
1000
0001
0010
,
0001
1000
0001
0100
0010
1000
0001
1000
0010
0100
0001
0010
0100
1000
0001
1000
,
0100
0010
0001
0100
0020
0000
0030
0000
0000
0000
0000
0000
1010
0000
0000
0000
,
0001
1000
0001
1000
0001
1000
0001
0000
0000
0000
0000
0000
0000
0000
0000
0000
0000
0000
0100
0000
0000
0000
0000
0000
,
0000
0000
0100
0000
0000
0000
0100
0000
0001
0000
1000
0000
0001
0100
0010
1000
,
0100
1000
0010
0100
0001
1000
0100
0000
0010
0001
0010
0000
0100
1000
0001
0000
,
0100
0001
1000
0000
0010
0100
0001
0000
1000
0001
0100
0000
0010
1000
0001
1000
,
0010
0100
0001
1000
0100
0010
0001
0000
1000
0100
1000
0000
0001
1000
0001
0000
,
0100
0010
1000
0000
0001
1000
0001
0000
1000
0001
1000
0000
0100
0010
0001
0010
,
0100
1000
0001
1000
0010
0100
0010
0000
1000
0001
0100
0000
0001
1000
0001
0000
,
0010
0100
1000
0000
0001
0010
0100
0000
0010
0001
1000
0000
0001
0100
0010
1000
,
0001
1000
0010
0100
0001
1000
0001
0000
1000
0000
0001
0000
1000
0100
0010
0000
,
0001
0200
0301
0020
0031
0200
0301
0020
,
0031
0000
0001
0000
1000
0010
1000
0010
1000
0010
0100
0001
0100
0001
0100
0001
,
1000
0010
1000
0010
0100
0001
1000
0001
1000
0010
1000
0010
0100
0001
0100
0001
,
1000
0010
1000
0001
0010
0100
0010
0100
0010
0001
1000
0100
1000
0100
1000
0001
,
0010
0001
0010
0001
0010
0100
1000
0001
0010
0100
0010
0001
1000
0100
1000
0001
,
0010
0001
1000
0001
0100
0010
0100
0010
0100
0001
1000
0010
1000
0010
1000
0001
,
0100
0010
0100
0010
0100
0001
1000
0001
0100
0010
1000
0010
0100
0001
1000
0001
,
0100
0010
0100
0001
0010
0100
0010
0100
0010
0001
1000
0010
1000
0010
1000
0001
,
0010
0100
0010
0100
0010
0001
1000
0100
1000
0100
1000
0001
0010
0001
0010
0100
,
1000
0001
1000
0001
1000
0010
0100
0001
0100
0001
0010
0100
1000
0100
1000
0100
,
1000
0010
0100
0001
1000
0001
1000
0010
0100
0001
0100
0010
1000
0001
1000
0010
,
0100
0001
0100
0010
1000
0001
0010
0100
1000
0001
0010
0001
1000
0010
0100
0001
,
1000
0001
0100
0010
1000
0001
1000
0001
1000
0010
0100
0001
0010
0100
1000
0001
,
1000
0100
0010
0001
1000
0001
0010
0100
1000
0001
0100
0010
0100
0001
0010
0100
,
1000
0001
1000
0100
0010
0001
1000
0001
0100
0001
1000
0010
1000
0001
0100
0001
,
1000
0001
1000
0001
0010
0100
1000
0001
0010
0001
0100
0010
1000
0010
0100
0001
,
0010
0100
1000
0001
0010
0001
0100
0010
1000
0010
0100
0001
0010
0000
0002
0000
,
0203
0000
0000
0000
0320
0000
0000
0030
1010
0000
0000
0000
1000
0000
0000
0000
1000
0000
0000
0000
0001
0000
0000
0000
1000
0000
0000
0000
1000
0000
0000
0000
,
1000
1000
0010
0010
0010
1000
0010
0010
,
0010
0010
0100
0100
0100
0001
0100
0100
,
0100
0100
001M
1000
1000
1000
0001
0010
,
0100
1000
0001
0001
0001
0010
0001
0001
,
0001
0001
1000
1000
1000
0001
1000
1000
,
1000
1000
0010
0010
0010
1000
0010
0010
,
0010
0010
M100
0001
1000
1000
0001
0010
,
0100
1000
0001
0001
0001
1000
0001
0001
,
0001
0001
0100
0100
0100
0001
0100
0100
,
0100
0100
0010
0010
0010
1000
0010
0010
,
0010
0010
M100
0001
0001
0001
1000
0100
,
0010
0001
1000
1000
1000
0100
1000
1000
,
1000
1000
0001
0001
0001
1000
0001
0001
,
0001
0001
0101
0000
0000
0000
0000
0000
,
0100
0000
0110
0000
0000
0010
1000
0000
,
0100
0000
0011
1000
0001
0100
0010
1000
,
0001
0100
0001
0000
1000
0000
0010
0000
0100
0000
0010
0000
1000
0001
1000
0000
,
0100
0010
0001
1000
0001
0000
0100
0001
1000
0000
0010
0000
0100
0010
0000
1000
,
0001
0100
0010
1000
0001
0000
0010
0000
0100
0000
0100
0000
1000
0100
1000
0001
,
0010
0001
1000
0010
0100
0000
0100
0000
0001
0000
1000
0000
0100
0010
0100
0000
,
1000
0001
0010
0100
1000
0000
0001
0000
0100
0000
0100
0000
0010
1000
0001
1000
,
0010
0100
0001
1000
0100
0000
0010
0000
0100
0000
0010
0000
0001
0000
0001
0000
,
1000
0010
1000
0010
0100
0000
0101
0000
0101
0000
0101
0000
0101
0000
0000
0000
,
1001
0000
0000
0000
1100
0000
0100
0000
0010
0000
0001
1000
0100
0000
0010
0000
,
0001
1000
0001
1000
0010
0000
0010
0000
0100
0000
0010
0000
1000
0000
0001
0000
,
1000
0000
1000
0000
0100
0000
1000
0001
0100
0010
1000
0000
0001
1000
0000
0001
,
0100
0010
1000
0001
0010
0000
0010
0000
0100
0000
0010
0000
0001
0000
1000
0000
,
0001
0100
0001
0100
0010
0000
0010
0000
1000
0000
0001
0000
0100
0000
0100
0000
,
0001
1000
0001
1000
0100
1000
0100
1000
0001
0010
0001
1000
0001
0100
0010
1000
,
0001
1000
0010
1000
0100
0010
0001
0010
0100
1000
0001
1000
0100
0010
0100
1000
,
0001
0010
0100
1000
0001
0000
1001
0000
1001
0000
1001
0000
1001
0000
0000
0000
,
MMMM
0210
0000
0300
,
2001
0001
0000
0000
,
3020
0000
0000
0000
,
0230
0000
0000
0000
,
0302
0000
0000
0000
,
2003
0000
0000
0000
,
3200
0000
0000
0000
,
0320
0000
0032
0023
,
0230
0000
0000
0000
,
1300
0000
0000
0100
1000
0000
0002
0000
0000
0000
0000
0000
0003
0000
1000
0000
0010
0000
0100
0000
0010
0000
1000
0000
,
0200
0000
0000
0000
0310
0100
2000
0000
0000
3002
0000
0000
,
0103
0010
2000
0000
3001
1000
0020
0000
0000
0230
0000
0000
,
0302
0000
M000
0000
,
1003
0000
0000
0010
1000
0000
0002
0000
0000
0000
0000
0000
0000
0000
1003
0000
0010
0000
0100
0000
0010
0000
1000
0000
,
0200
0000
0000
0000
0310
0100
2000
0000
0000
0000
0000
0000
,
3001
0100
0020
0000
1030
0010
0200
0000
0000
0302
0000
0000
,
1003
0000
0001
0000
1000
0000
0001
0000
1000
0000
0010
0000
1000
0000
0010
0000
0100
0000
0001
0000
1000
0000
0001
0000
0010
0000
0100
0000
1000
0000
0001
0000
0100
0000
0000
0000
0000
0000
0000
0000
0010
0000
0000
0000
0000
0000
0000
0000
4000
3000
0040
0030
4000
3000
0040
0030
0400
0300
0004
0003
0400
0300
0004
0003
,
10M0
0000
0000
0000
00M0
0000
0000
0000
1000
0000
0000
0000
0000
0000
0000
0000
0001
0000
1000
0000
0010
0000
0100
0000
0004
0003
4000
3000
0400
0300
0040
0030
,
0001
1000
0001
1000
0100
0000
1000
0000
0010
0000
1000
0000
0001
0000
0100
0000
,
0010
0000
0000
0100
0001
0100
0001
0000
0000
0100
0000
0000
0010
0000
0000
1000
0000
0000
0001
0000
0000
0010
0000
0000
,
0100
0010
0001
1000
0001
1000
0001
0100
,
0010
0000
0000
1000
0000
0000
0001
0000
0000
0100
0001
0100
0001
0000
0000
1000
0001
1000
0001
0000
0000
1000
0100
1000
,
0100
1000
0010
0100
0001
1000
0001
0010
,
0100
0000
0000
1000
0000
0000
0001
0000
0000
0100
0000
0000
0001
0000
0000
0100
0000
0000
0010
0000
0000
0100
0001
0100
,
0001
0100
0001
1000
0001
1000
0100
1000
,
0001
0000
0000
0000
0010
0000
0000
0000
0100
0000
1000
0000
0100
0000
1000
0000
0001
0000
1000
0000
0010
0000
0100
0000
0004
0003
4000
3000
0400
0300
0040
0030
,
0001
1000
0001
1000
0010
0000
0100
0000
0001
0000
1000
0000
0100
0000
0010
0000
,
0100
0000
0000
0010
0000
0000
0001
0000
0000
0100
0000
0000
0001
0000
0000
1000
0000
0000
0100
0000
0000
0010
0001
0010
,
0001
1000
0010
0100
0001
1000
0010
1000
,
0001
0000
0000
0010
0000
0000
0100
0000
0000
1000
0100
1000
0100
0000
0000
1000
0001
1000
0001
0000
0000
0100
0001
0100
,
0001
1000
0100
0010
0001
1000
0001
0100
,
0010
0000
0000
1000
0000
0000
0100
0000
0000
0010
0000
0000
0100
0000
0000
0010
0001
0010
0001
0000
0000
1000
0000
0000
,
0001
1000
0100
0010
0100
0010
0001
1000
,
0100
0000
0000
0000
1000
0000
0000
0000
0001
0000
0100
0000
0001
0000
1000
0000
0010
0000
1000
0000
0001
0000
1000
0000
0400
0300
0040
0030
0004
0003
0040
0030
,
0100
1000
0001
1000
0001
0000
0010
0000
0100
0000
1000
0000
0010
0000
1000
0000
,
0001
0000
0000
0010
0100
0010
0100
0000
0000
0010
0000
0000
0001
0000
0000
1000
0000
0000
0010
0000
0000
0100
0000
0000
,
0010
1000
0001
0010
0001
0010
0100
1000
,
0001
0000
0000
0100
0000
0000
0001
0000
0000
1000
0010
1000
0010
0000
0000
0100
0010
0100
0010
0000
0000
0100
0001
0100
,
0001
0000
0000
0000
0000
0000
0000
0000
0000
0000
0000
0000
0000
0000
0000
0000
0000
0000
0000
0000
0000
0000
0000
0000
1000
0000
0000
0000
0000
0000
0000
0000
0000
0000
0000
0000
0000
0000
0000
0000
0000
0000
0000
0000
0000
0000
0000
0000
0200
0000
0300
0000
0000
0000
0000
0000
0000
0000
0000
0000
0000
0000
0000
0000
0000
0000
0000
0000
0000
0000
0000
0000
0010
0000
0000
0000
0000
0000
0000
0000
0000
0000
0000
0000
0000
0000
0000
0000
0000
0000
0000
0000
0000
0000
0000
0000
0002
0000
0003
0000
0000
0000
0000
0000
0000
0000
0000
0000
0000
0000
0000
0000
0000
0000
0000
0000
0000
0000
0000
0000
1000
0000
0000
0000
0000
0000
0000
0000
0000
0000
0000
0000
0000
0000
0000
0000
0000
0000
0000
0000
0000
0000
0000
0000
0002
0000
0003
0000
0000
0000
0000
0000
0000
0000
0000
0000
0000
0000
0000
0000
0000
0000
0000
0000
0000
0000
0000
0000
0100
0000
0000
0000
0000
0000
0000
0000
0000
0000
0000
0000
0000
0000
0000
0000
0000
0000
0000
0000
0000
0000
0000
0000
,
0020
0000
0030
0000
0000
0000
0000
0000
0000
0000
0000
0000
0000
0000
0000
0000
0000
0000
0000
0000
0000
0000
0000
0000
1000
0000
0000
0000
0000
0000
0000
0000
0000
0000
0000
0000
0000
0000
0000
0000
0000
0000
0000
0000
0000
0000
0000
0000
0002
0000
0000
0003
0000
0000
0000
0000
0000
0000
0000
0000
0000
0000
0000
0000
0000
0000
0000
0000
0000
0000
0000
0000
0010
0000
0000
0000
0000
0000
0000
0000
0000
0000
0000
0000
0000
0000
0000
0000
0000
0000
0000
0000
0000
0000
0000
0000
0002
0000
0000
0003
0000
0000
0000
0000
0000
0000
0000
0000
0000
0000
0000
0000
0000
0000
0000
0000
0000
0000
0000
0000
0010
0000
0000
0000
0000
0000
0000
0000
0000
0000
0000
0000
0000
0000
0000
0000
0000
0000
0000
0000
0000
0000
0000
0000
0200
0000
0000
0300
0000
0000
0000
0000
0000
0000
0000
0000
0000
0000
0000
0000
0000
0000
0000
0000
0000
0000
0000
0000
1000
0000
0000
0000
0000
0000
0000
0000
0000
0000
0000
0000
0000
0000
0000
0000
0000
0000
0000
0000
0000
0000
0000
0000
,
0002
0000
0000
0003
0000
0000
0000
0000
0000
0000
0000
0000
0000
0000
0000
0000
0000
0000
0000
0000
0000
0000
0000
0000
0100
0000
0000
0000
0000
0000
0000
0000
0000
0000
0000
0000
0000
0000
0000
0000
0000
0000
0000
0000
0000
0000
0000
0000
0020
0000
0000
0000
0030
0000
0000
0000
0000
0000
0000
0000
0000
0000
0000
0000
0000
0000
0000
0000
0000
0000
0000
0000
1000
0000
0000
0000
0000
0000
0000
0000
0000
0000
0000
0000
0000
0000
0000
0000
0000
0000
0000
0000
0000
0000
0000
0000
0020
0000
0000
0000
0030
0000
0000
0000
0000
0000
0000
0000
0000
0000
0000
0000
0000
0000
0000
0000
0000
0000
0000
0000
1000
0000
0000
0000
0000
0000
0000
0000
0000
0000
0000
0000
0000
0000
0000
0000
0000
0000
0000
0000
0000
0000
0000
0000
0002
0000
0000
0000
0003
0000
0000
0000
0000
0000
0000
0000
0000
0000
0000
0000
0000
0000
0000
0000
0000
0000
0000
0000
0100
0000
0000
0000
0000
0000
0000
0000
0000
0000
0000
0000
0000
0000
0000
0000
0000
0000
0000
0000
0000
0000
0000
0000
,
0002
0000
0000
0000
0003
0000
0000
0000
0000
0000
0000
0000
0000
0000
0000
0000
0000
0000
0000
0000
0000
0000
0000
0000
1000
0000
0000
0000
0000
0000
0000
0000
0000
0000
0000
0000
0000
0000
0000
0000
0000
0000
0000
0000
0000
0000
0000
0000
0010
0000
0000
0000
0000
0000
0000
0000
0000
0000
0000
0000
0100
0000
0000
0000
0000
0000
0000
0000
0000
0000
0000
0000
0010
0000
0000
0000
0000
0000
0000
0000
0000
0000
0000
0000
0100
0000
0000
0000
0000
0000
0000
0000
0000
0000
0000
0000
0001
0000
0000
0000
0000
0000
0000
0000
0000
0000
0000
0000
1000
0000
0000
0000
0000
0000
0000
0000
0000
0000
0000
0000
0001
0000
0000
0000
0000
0000
0000
0000
0000
0000
0000
0000
0010
0000
0000
0000
0000
0000
0000
0000
0000
0000
0000
0000
0400
0000
0000
0000
0000
0000
0300
0000
0000
0000
0000
0000
4000
0000
0000
0000
0000
0000
3000
0000
0000
0000
0000
0000
0400
0000
0000
0000
0000
0000
0300
0000
0000
0000
0000
0000
0040
0000
0000
0000
0000
0000
0030
0000
0000
0000
0000
0000
,
0001
0000
0000
1000
0000
0000
0010
0000
0000
0100
0000
0000
0002
0003
0000
0000
0000
0000
1000
0000
0000
0000
0000
0000
0200
0300
0000
0000
0000
0000
1000
0000
0000
0000
0000
0000
0020
0030
0000
0000
0000
0000
0100
0000
0000
0000
0000
0000
,
0020
0000
0000
0000
0030
0000
0000
0000
0000
0000
0000
0000
0000
0000
0000
0000
0000
0000
0000
0000
0000
0000
0000
0000
0100
0000
0000
0000
0000
0000
0000
0000
0000
0000
0000
0000
0000
0000
0000
0000
0000
0000
0000
0000
0000
0000
0000
0000
0002
0000
0000
0000
0000
0000
0003
0000
0000
0000
0000
0000
0000
0000
0000
0000
0000
0000
0000
0000
0000
0000
0000
0000
0010
0000
0000
0000
0000
0000
0000
0000
0000
0000
0000
0000
0000
0000
0000
0000
0000
0000
0000
0000
0000
0000
0000
0000
0002
0000
0000
0000
0000
0000
0003
0000
0000
0000
0000
0000
0000
0000
0000
0000
0000
0000
0000
0000
0000
0000
0000
0000
1000
0000
0000
0000
0000
0000
0000
0000
0000
0000
0000
0000
0000
0000
0000
0000
0000
0000
0000
0000
0000
0000
0000
0000
0020
0000
0000
0000
0000
0000
0030
0000
0000
0000
0000
0000
0000
0000
0000
0000
0000
0000
0000
0000
0000
0000
0000
0000
0100
0000
0000
0000
0000
0000
0000
0000
0000
0000
0000
0000
0000
0000
0000
0000
0000
0000
0000
0000
0000
0000
0000
0000
,
0002
0000
0003
0000
0000
0000
0000
0000
0001
0000
0000
0000
1000
0000
0000
0000
0200
0000
0000
0300
0000
0000
0000
0000
1000
0000
0000
0000
0000
0000
0000
0000
0002
0000
0000
0003
0000
0000
0000
0000
0100
0000
0000
0000
0000
0000
0000
0000
0020
0000
0000
0030
0000
0000
0000
0000
0100
0000
0000
0000
0000
0000
0000
0000
,
0002
0000
0000
0000
0000
0000
0000
0000
0000
0003
0000
0000
0000
0000
0000
0000
0000
0000
0000
0000
0000
0000
0000
0000
1000
0000
0000
0000
0000
0000
0000
0000
0000
0000
0000
0000
0000
0000
0000
0000
0000
0000
0000
0000
0000
0000
0000
0000
0200
0000
0000
0000
0000
0000
0000
0000
0000
0000
0000
0000
0300
0000
0000
0000
0000
0000
0000
0000
0000
0000
0000
0000
0010
0000
0000
0000
0000
0000
0000
0000
0001
0000
0000
0000
0000
0000
0000
0000
0010
0000
0000
0000
0000
0000
0000
0000
0002
0000
0000
0000
0000
0000
0000
0000
0000
0000
0000
0000
0003
0000
0000
0000
0000
0000
0000
0000
0000
0000
0000
0000
0010
0000
0000
0000
0000
0000
0000
0000
0100
0000
0000
0000
0000
0000
0000
0000
0010
0000
0000
0000
0000
0000
0000
0000
0200
0000
0000
0000
0000
0000
0000
0000
0000
0000
0000
0000
0300
0000
0000
0000
0000
0000
0000
0000
0000
0000
0000
0000
1000
0000
0000
0000
0000
0000
0000
0000
0100
0000
0000
0000
0000
0000
0000
0000
1000
0000
0000
0000
0000
0000
0000
0000
,
0200
0000
0000
0300
0000
0000
1000
0000
0000
0000
0000
0000
0020
0000
0000
0000
0030
0000
0100
0000
0000
0000
0000
0000
0002
0000
0000
0000
0003
0000
1000
0000
0000
0000
0000
0000
0002
0000
0000
0000
0003
0000
0010
0000
0000
0000
0000
0000
,
0200
0000
0300
1000
0000
0000
0002
0000
0000
0103
0000
0000
0002
0000
0000
0103
0000
0000
0020
0000
0000
1030
0000
0000
,
0020
0000
1030
0000
0001
0010
0100
1000
0001
1000
0100
0010
0001
1000
0001
0100
,
0010
1000
0010
0100
0002
0000
0000
0000
1003
0100
1000
0100
0040
0034
0043
0034
,
0403
0304
0403
0304
10M3
0000
0001
0000
1000
0000
0010
0100
0001
1000
0010
0000
,
1000
0000
0000
0000
0000
0000
0001
0000
0010
0000
0001
0000
0010
0000
0000
0000
0000
0000
0100
0000
0000
0000
0000
0000
1000
0000
0000
0000
0000
0000
0001
0000
0000
1000
0000
0000
0001
0000
0000
0100
0000
0000
0010
0000
0000
0000
0000
0000
,
1000
0010
0100
0001
1000
0000
0001
0000
0010
0000
0001
1000
0001
0100
0010
0000
,
1000
0010
0100
0001
1000
0000
0001
0000
0010
0000
0001
0000
0100
0000
0010
0000
,
1000
0000
0000
0000
0000
0000
1000
0000
0000
0000
0000
0000
0001
0000
1000
0000
0001
0000
1000
0000
0000
0000
0000
0000
0100
0000
0000
0000
0000
0000
1000
0000
0000
0001
0000
0000
0010
0000
0000
0100
0000
0000
1000
0000
0000
0000
0000
0000
,
0001
1000
0001
0100
0010
0000
1000
0000
0001
0000
1000
0010
1000
0001
0100
0000
,
0001
1000
0010
1000
0001
0000
1000
0000
0100
0000
1000
0001
1000
0100
0010
0000
,
0100
0000
1000
0000
0001
0000
0010
0000
0001
0000
1000
0000
0001
0000
0100
0000
0010
0000
1000
0000
0001
0000
1000
0000
0004
0003
0040
0030
0400
0300
4000
3000
,
0001
0100
0001
0100
M010
0000
1000
0000
0001
0000
0100
0010
1000
0001
0100
0000
,
0001
1000
0100
1000
0001
0000
0010
0000
0001
0000
1000
0001
0100
0010
1000
0000
,
0001
0000
0010
0000
0001
0000
0010
0000
0000
0000
0000
0000
0100
0000
0000
0000
0000
0000
1000
0000
0000
0000
0000
0000
0010
0000
0000
0000
0000
0000
0100
0000
0000
0010
0000
0000
1000
0000
0000
0001
0000
0000
0100
0000
0000
0000
0000
0000
,
0001
0000
0000
1000
0000
0000
0010
0000
0000
1000
0000
0000
0100
0000
0000
0000
0000
0000
1000
0000
0000
0000
0000
0000
0100
0000
0000
0000
0000
0000
0010
0000
0001
0000
0010
0000
0001
0000
0000
0000
0000
0000
1000
0000
0000
0000
0000
0000
,
0010
0000
0010
0000
0100
0000
0001
0000
0010
0000
0001
1000
0100
0010
0001
0000
,
1000
0000
0000
0001
0000
0000
1000
0000
0000
0010
0000
0000
0100
0000
0000
0000
0000
0000
0001
0000
0000
0000
0000
0000
1000
0000
0000
0000
0000
0000
0001
0000
0000
0000
0000
0000
0100
0000
0010
0000
0100
0000
0010
0000
0000
0000
0000
0000
,
1000
0010
0100
0001
1000
0000
0100
0000
0010
0000
0001
1000
0001
0010
0100
0000
,
0010
0000
0001
0000
1000
0000
0100
0000
1000
0000
0001
0000
1000
0000
0010
0000
0100
0000
0001
0000
1000
0000
0001
0000
4000
3000
0400
0300
0040
0030
0004
0003
,
0100
0001
0100
0001
10M0
0000
0001
0000
1000
0000
0010
0100
0001
1000
0010
0000
,
1000
0000
0001
0000
0010
0000
0001
0000
1000
0000
0010
1000
0010
0100
0001
0000
,
1000
0001
0010
0001
1000
0000
0001
0000
0100
0000
0010
1000
0010
0100
0001
0000
,
1000
0000
0000
0100
0000
0000
0010
0000
0000
0001
0000
0000
1000
0000
0000
0000
0000
0000
0001
0000
0000
0000
0000
0000
0010
0000
0000
0000
0000
0000
0100
0000
1000
0000
0100
0000
1000
0000
0000
0000
0000
0000
0001
0000
0000
0000
0000
0000
,
0100
0000
0000
0000
0000
0000
0100
0000
0000
0000
0000
0000
0010
0000
1000
0000
0010
0000
1000
0000
0000
0000
0000
0000
0001
0000
0000
0000
0000
0000
1000
0000
0000
0100
0000
0000
0010
0000
0000
0001
0000
0000
1000
0000
0000
0000
0000
0000
,
0001
1000
0001
0100
0010
0000
1000
0000
0001
0000
1000
0010
1000
0001
0100
0000
,
0001
1000
0010
1000
0001
0000
1000
0000
0100
0000
1000
0001
1000
0100
0010
0000
,
0100
0000
1000
0000
0001
0000
0010
0000
0001
0000
1000
0000
0001
0000
0100
0000
0010
0000
1000
0000
0001
0000
1000
0000
0004
0003
0040
0030
0400
0300
4000
3000
,
0001
0100
0001
0100
M010
0000
1000
0000
0001
0000
0100
0010
1000
0001
0100
0000
,
0001
1000
0100
1000
0001
0000
0010
0000
0001
0000
1000
0001
0100
0010
1000
0000
,
0001
0000
0010
0000
0100
0000
1000
0000
0010
0000
0100
0010
1000
0001
0100
0000
,
0001
0000
0000
1000
0000
0000
0010
0000
0000
1000
0000
0000
0100
0000
0000
0000
0000
0000
1000
0000
0000
0000
0000
0000
0100
0000
0000
0000
0000
0000
0010
0000
0001
0000
0010
0000
0001
0000
0000
0000
0000
0000
1000
0000
0000
0000
0000
0000
,
0010
0000
0010
0000
0100
0000
0001
0000
0010
0000
0001
1000
0100
0010
0001
0000
,
1000
0001
1000
0010
0100
0000
0001
0000
1000
0000
0001
0100
0001
1000
0010
0000
,
1000
0001
0100
0001
1000
0000
0001
0000
0010
0000
0001
1000
0001
0010
0100
0000
,
0010
0000
0001
0000
1000
0000
0100
0000
1000
0000
0001
0000
1000
0000
0010
0000
0100
0000
0001
0000
1000
0000
0001
0000
4000
3000
0400
0300
0040
0030
0004
0003
,
1000
0001
1000
0001
0010
0000
0001
0000
1000
0010
0100
0001
1000
0000
0001
0000
,
1000
0100
0010
0100
1000
0000
0001
0000
1000
0010
0100
0001
1000
0000
0010
0000
,
1000
0001
1000
0100
0010
0000
0001
0000
1000
0001
1000
0010
0100
0000
0010
0000
,
1000
0100
0010
0001
1000
0000
0001
0000
0100
0010
1000
0001
0010
0000
0001
0000
,
1000
0010
1000
0100
0010
0000
0100
0000
1000
0001
0100
0010
1000
0000
0001
0000
,
1000
0010
0100
0001
1000
0000
0001
0000
1000
0100
0010
0001
1000
0000
0001
0000
,
1000
0010
0100
0001
1000
0000
0001
0000
1000
0100
0010
0001
1000
0000
0001
0000
,
0100
0010
1000
0001
0010
0000
0001
0000
1000
0010
0100
0001
1000
0000
0001
0000
,
0100
0000
0000
0000
0010
0000
0000
0000
1000
0000
0000
0000
0001
0000
0000
0000
0020
0030
0000
0000
0000
0000
0000
0000
0001
0000
0000
0000
0000
0000
0000
0000
1000
0000
0000
0000
0001
0000
0000
0000
0100
0000
0000
0000
0010
0000
0000
0000
1000
0000
0000
0000
0000
0000
0000
0000
0001
0000
0000
0000
0000
0000
0000
0000
,
1000
0010
0100
0001
1000
0000
0001
0000
0010
0100
1000
0001
0010
0000
0100
0000
,
0010
0001
1000
0010
1000
0000
0001
0000
0010
0001
1000
0010
0100
0000
0001
0000
,
1000
0001
0100
0010
1000
0000
0001
0000
0010
0001
1000
0010
0100
0000
0001
0000
,
1000
0001
0100
0010
1000
0000
0001
0000
1000
0001
0010
0100
1000
0000
0001
0000
,
1000
0100
0010
0001
1000
0000
0001
0000
0100
0010
1000
0001
0010
0000
0001
0000
,
1000
0001
0100
0010
1000
0000
0001
0000
1000
0100
0010
0001
1000
0010
0100
0001
,
1000
0000
0001
0000
0010
0000
0100
0000
2000
0000
0000
0000
0000
0000
0000
3000
2200
0000
0000
0000
0000
0000
0000
3300
2220
0000
0000
0000
0000
0000
0000
3330
,
2222
0000
0000
0000
0000
0000
0000
3333
1001
0000
0000
0000
0001
0000
0000
0000
1000
0000
0100
0000
0010
0000
0001
0000
1000
0000
0000
0000
0010
0000
0000
0000
,
0100
0001
0010
0100
1000
0000
0001
0000
0100
0010
1000
0001
0010
0000
0001
0000
,
0010
0100
1000
0001
0100
0000
0010
0000
0100
0010
1000
0001
0010
0000
0100
0000
,
1000
0001
0100
0010
1000
0000
0001
0000
0010
0100
1000
0001
0010
0000
0100
0000
,
0010
0001
1000
0001
0100
0000
0010
0000
0100
0001
0010
0100
1000
0000
0001
0000
,
0100
0010
0100
0001
0010
0000
0001
0000
1000
0100
0010
0001
1000
0000
0001
0000
,
0100
0010
1000
0001
1000
0000
0100
0000
0010
0001
1000
0001
0100
0000
0001
0000
,
1000
0001
1000
0100
0010
0000
0001
0000
1000
0001
1000
0010
0100
0000
0001
0000
,
1000
0000
0000
0000
0001
0000
0000
0000
0100
0000
0000
0000
0010
0000
0000
0000
2000
3000
0000
0000
0000
0000
0000
0000
0001
0000
0000
0000
0000
0000
0000
0000
1000
0000
0000
0000
0100
0000
0000
0000
0010
0000
0000
0000
0001
0000
0000
0000
1000
0000
0000
0000
0000
0000
0000
0000
0010
0000
0000
0000
0000
0000
0000
0000
,
0100
0001
0010
0100
1000
0000
0001
0000
0100
0010
1000
0001
0010
0000
0001
0000
,
0010
0100
1000
0001
0100
0000
0010
0000
0100
0010
1000
0001
0010
0000
0100
0000
,
1000
0001
0100
0010
1000
0000
0001
0000
0010
0100
1000
0001
0010
0000
0100
0000
,
0010
0001
1000
0001
0100
0000
0010
0000
0100
0001
0010
0100
1000
0000
0001
0000
,
0100
0010
0100
0001
0010
0000
0001
0000
1000
0100
0010
0001
1000
0000
0001
0000
,
0100
0010
1000
0001
1000
0000
0100
0000
0010
0001
1000
0001
0100
0000
0001
0000
,
1000
0000
0001
0000
0010
0000
0100
0000
2000
0000
0000
0000
0000
0000
0000
3000
2200
0000
0000
0000
0000
0000
0000
3300
2220
0000
0000
0000
0000
0000
0000
3330
,
2222
0000
0000
0000
0000
0000
0000
3333
1001
0000
0000
0000
0001
0000
0000
0000
1000
0000
0100
0000
0010
0000
0001
0000
1000
0000
0000
0000
0010
0000
0000
0000
,
0100
0001
0010
0100
1000
0000
0001
0000
0100
0010
1000
0001
0010
0000
0001
0000
,
0010
0100
1000
0001
0100
0000
0010
0000
0100
0010
1000
0001
0010
0000
0100
0000
,
1000
0001
0100
0010
1000
0000
0001
0000
0010
0100
1000
0001
0010
0000
0100
0000
,
0010
0001
1000
0001
0100
0000
0010
0000
0100
0001
0010
0100
1000
0000
0001
0000
,
0100
0010
0100
0001
0010
0000
0001
0000
1000
0100
0010
0001
1000
0000
0001
0000
,
0100
0010
1000
0001
1000
0000
0100
0000
0010
0001
1000
0001
0100
0000
0001
0000
,
1000
0001
0010
0100
1000
0000
0001
0000
1000
0010
0100
0001
1000
0000
0100
0000
,
1000
0000
0000
0000
0001
0000
0000
0000
0010
0000
0000
0000
0001
0000
0000
0000
2000
3000
0000
0000
0000
0000
0000
0000
0001
0000
0000
0000
0000
0000
0000
0000
1000
0000
0000
0000
0100
0000
0000
0000
0010
0000
0000
0000
0001
0000
0000
0000
1000
0000
0000
0000
0000
0000
0000
0000
0010
0000
0000
0000
0000
0000
0000
0000
,
0100
0001
0010
0100
1000
0000
0001
0000
0100
0010
1000
0001
0010
0000
0001
0000
,
0010
0100
1000
0001
0100
0000
0010
0000
0100
0010
1000
0001
0010
0000
0100
0000
,
1000
0001
0100
0010
1000
0000
0001
0000
0010
0100
1000
0001
0010
0000
0100
0000
,
0010
0001
1000
0001
0100
0000
0010
0000
0100
0001
0010
0100
1000
0000
0001
0000
,
0100
0010
0100
0001
0010
0000
0001
0000
1000
0100
0010
0001
1000
0000
0001
0000
,
0100
0010
1000
0000
1010
0000
1010
0000
1001
0000
1001
0000
0011
0000
0011
0000
,
0110
0000
0110
0000
0100
1000
0001
0100
0010
0100
0001
1000
0001
0010
0100
1000
,
0001
0000
0000
0000
0100
0000
0000
0000
0010
0000
0000
0000
1000
0000
0000
0000
0002
0003
0000
0000
0000
0000
0000
0000
0000
0000
0000
0000
0000
0000
0000
0000
0000
0000
0000
0000
0000
0000
0000
0000
0000
0000
0000
0000
0000
0000
0000
0000
0000
0000
0000
0000
0000
0000
0000
0000
0000
0000
0000
0000
0000
0000
0000
0000
,
0000
0000
0000
0000
,
0000
0000
0000
0000
1000
0000
1000
0000
0001
0100
0010
1000
0001
0000
0001
0000
,
1000
0100
0010
0001
0000
0000
0000
0000
0000
0000
0000
0000
0000
0000
0000
0000
,
0000
0000
0000
0000
0100
0000
0100
0000
0010
1000
0001
0010
0000
0000
0000
0000
,
0000
0000
0000
0000
,
0000
0000
0000
0000
0100
0000
0100
0000
1000
0001
0100
0010
1000
0000
1000
0000
,
0001
0010
0100
1000
0000
0000
0000
0000
0000
0000
0000
0000
0000
0000
0000
0000
,
0000
0000
0000
0000
0001
0000
0001
0000
1000
0010
0100
0001
0000
0000
0000
0000
,
0000
0000
0000
0000
,
0000
0000
0000
0000
0010
0000
0010
0000
0100
1000
0001
0100
0001
0000
0001
0000
,
1000
0100
0010
0001
0000
0000
0000
0000
0000
0000
0000
0000
0000
0000
0000
0000
,
0000
0000
0000
0000
1000
0000
1000
0000
0001
0100
0010
1000
0000
0000
0000
0000
,
0000
0000
0000
0000
,
0000
0000
0000
0000
0002
0000
2003
0000
3001
0010
0100
1000
0020
0000
0230
0000
,
0301
1000
0100
1000
0002
0000
0203
0000
0310
1000
0001
0010
0200
0000
2300
0000
,
3001
0100
0001
0100
0002
0000
0000
0000
0000
0000
0000
0000
0000
0000
0000
0000
,
0000
1003
0200
2300
,
3002
0000
0103
0010
0000
1000
0100
0000
,
0010
0001
0010
0100
0000
1000
0001
0000
,
1000
0010
0100
0000
0002
0000
0000
0000
,
2003
3200
2300
0000
,
3001
0000
1000
0010
0000
0100
0001
0000
,
0100
0010
0100
0001
0000
0010
0100
0000
,
1000
0001
0200
0000
0010
0000
0001
0000
,
0000
0310
2000
3002
,
0023
0000
0130
1000
0000
0001
0100
0000
,
0010
0100
0001
0010
0000
0100
1000
0000
,
0001
1000
0200
0000
0320
0000
0031
0000
,
2000
0000
0000
0000
3020
0000
0000
0000
0230
0000
0000
0000
0301
0010
0100
1000
,
0001
0100
0001
1000
0100
0010
0001
1000
0010
0100
0001
1000
0100
1000
0001
0100
,
0010
1000
0001
1000
0100
0010
0001
1000
0010
1000
0001
0010
0001
1000
0100
0010
,
0001
1000
0001
0000
1001
0000
0000
0000
0000
0000
0000
0000
0000
0000
0000
0000
,
0000
0000
0000
0000
0MM0
0MM0
0MM0
0MM0
,
0MM0
0MM0
1001
0001
1000
0001
0001
0010
,
0001
0100
0010
1000
0100
0010
0010
0001
,
0100
0010
1000
0100
0010
0001
0001
1000
,
0010
0100
0001
0010
0100
1000
1000
0001
,
0100
0010
1000
0100
0010
0100
0100
1000
,
0001
0100
0001
0010
0100
0010
0010
0001
,
1000
0010
1000
0100
0010
0001
0001
1000
,
0001
0100
0001
0010
0100
1000
1000
0001
,
0100
0010
1010
1000
0001
0100
0100
0010
,
1000
0001
1000
0100
0010
0001
0001
1000
,
0010
0100
0001
0010
0100
0010
0010
0001
,
1000
0100
1000
0010
0100
0001
0001
1000
,
0100
0010
0001
0100
0010
1000
1000
0001
,
0010
0001
1000
0100
0010
0001
0001
1000
,
0010
0100
0001
0010
0100
1000
1000
0001
,
0100
0010
1000
0100
0010
0100
0100
1000
,
0001
0010
0011
0001
1000
0001
0001
0010
,
0001
0000
0100
0000
0010
0000
1000
0000
0100
0000
0010
0000
0010
0000
0002
0003
,
0100
0000
0020
0030
1000
0000
0100
0000
0020
0030
0001
0000
0001
0000
2000
3000
,
0010
0000
0200
0300
0002
0003
0010
0000
0200
0300
2000
3000
1000
0000
0001
0000
,
0200
0300
0010
0000
1000
0000
0100
0000
0020
0030
0100
0000
0100
0000
2000
3000
,
0001
0000
0200
0300
0001
0000
0010
0000
0200
0300
0020
0030
0010
0000
0002
0003
,
2000
3000
0020
0030
2000
3000
0100
0000
0020
0030
0002
0003
0001
0000
2000
3000
,
0002
0003
0200
0300
0002
0003
0010
0000
0100
0000
2000
3000
1000
0000
0001
0000
,
0200
0300
0010
0000
1010
0000
1000
0000
0002
0003
0100
0000
0100
0000
0020
0030
,
2000
3000
0002
0003
1000
0000
0100
0000
0020
0030
0002
0003
0001
0000
2000
3000
,
0020
0030
0200
0300
0002
0003
0010
0000
0200
0300
0020
0030
0010
0000
0002
0003
,
2000
3000
0200
0300
2000
3000
0010
0000
0100
0000
0002
0003
0001
0000
1000
0000
,
0200
0300
0010
0000
0001
0000
0100
0000
0020
0030
2000
3000
1000
0000
0002
0003
,
0020
0030
0002
0003
2000
3000
0100
0000
0020
0030
0002
0003
0001
0000
2000
3000
,
0020
0030
0200
0300
0101
0000
0101
0000
1001
0000
1001
0000
1100
0000
1100
0000
,
0100
0010
0001
1000
0002
0000
0000
0000
0000
0000
0000
0000
0103
0010
1000
0100
,
0010
0001
0100
0010
1000
0100
1000
0001
0100
0010
1000
0001
0100
0001
0010
0001
,
1000
0001
0100
0001
1000
0100
0010
0001
1000
0001
0010
0100
1000
0001
0010
0001
,
1000
0001
0010
0100
1000
0001
0010
0001
0100
0001
1000
0001
0010
0001
0100
0001
,
1000
0100
0010
0100
1000
0001
0100
0001
0010
0001
1000
0001
0100
0001
0010
0001
,
1000
0010
0100
0010
1000
0100
0010
0001
0100
0001
1000
0100
0010
0001
0100
0001
,
1000
0010
0100
0010
1000
0001
0010
0001
0100
0001
1000
0001
0010
0001
0100
0001
,
1000
0100
0010
0100
1000
0001
0100
0001
0010
0001
1000
0001
0100
0001
0010
0001
,
1000
0001
0010
0001
1000
0010
0100
0001
0010
0001
1000
0010
0100
0001
0010
0001
,
0100
0010
1000
0001
1000
0100
1000
0001
0100
0010
1000
0001
0100
0001
0010
0001
,
1000
0001
0100
0001
1000
0100
0010
0001
1000
0001
0010
0100
1000
0001
0010
0001
,
1000
0001
0010
0100
1000
0001
0010
0001
0100
0001
1000
0001
0010
0001
0100
0001
,
1000
0100
0010
0100
1000
0001
0100
0001
0010
0001
1000
0001
0100
0001
0010
0001
,
1000
0010
0100
0010
1000
0100
0010
0001
0100
0001
1000
0100
0010
0001
0100
0001
,
1000
0010
0100
0010
1000
0001
0010
0001
0100
0001
1000
0001
0010
0001
0100
0001
,
1000
0100
0010
0100
1000
0001
0100
0001
0010
0001
1000
0001
0100
0001
0010
0001
,
1000
0001
0010
0001
1000
0010
0100
0001
0010
0001
1000
0010
0100
0001
0010
0001
,
0100
0010
1000
0001
1000
0100
1000
0001
0100
0010
1000
0001
0100
0001
0010
0001
,
1000
0001
0100
0001
1000
0100
0010
0001
1000
0001
0010
0100
1000
0001
0010
0001
,
1000
0001
0010
0100
1000
0001
0010
0001
0100
0001
1000
0001
0010
0001
0100
0001
,
1000
0100
0010
0100
1000
0001
0100
0001
0010
0001
1000
0001
0100
0001
0010
0001
,
1000
0010
0100
0010
1000
0100
0010
0001
0100
0001
1000
0100
0010
0001
0100
0001
,
1000
0010
0100
0010
1000
0001
0010
0001
0100
0001
1000
0001
0010
0001
0100
0001
,
1000
0100
0010
0100
1000
0001
0100
0001
0010
0001
1000
0001
0100
0001
0010
0001
,
1000
0001
0010
0001
1000
0010
0100
0001
0010
0001
1000
0010
0100
0001
0010
0001
,
0100
0010
1000
0001
1000
0100
1000
0001
0100
0010
1000
0001
0100
0001
0010
0001
,
1000
0001
0100
0001
1000
0100
0010
0001
1000
0001
0010
0100
1000
0001
0010
0001
,
1000
0001
0010
0100
1000
0001
0010
0001
0100
0001
1000
0001
0010
0001
0100
0001
,
1000
0100
0010
0100
1000
0001
0100
0001
0010
0001
1000
0001
0100
0001
0010
0001
,
1000
0010
0100
0010
1000
0100
0010
0001
0100
0001
1000
0100
0010
0001
0100
0001
,
1000
0010
0100
0010
1000
0001
0010
0001
0100
0001
1000
0001
0010
0001
0100
0001
,
1000
0100
0010
0100
1000
0001
0100
0001
0010
0001
1000
0001
0100
0001
0010
0001
,
0100
0000
0010
0000
1000
0000
0100
0000
0020
0000
0000
0000
0000
0000
0000
0030
0200
0000
0000
0000
0000
0000
0000
0000
1300
0000
0100
0000
1000
0000
0100
0000
,
1000
0100
1000
0100
1000
0010
0100
0001
0010
0100
1000
0010
0100
0001
0010
0001
,
0100
0010
1000
0010
0100
0001
1000
0001
0010
0001
0100
0001
1000
0001
0010
0001
,
0100
0010
1000
0010
0100
0001
0010
0100
1000
0010
0100
0001
0010
0100
1000
0010
,
0100
0001
1000
0001
0100
0010
1000
0100
0010
0001
0100
0010
1000
0100
0010
0001
,
0100
0001
0010
0100
1000
0001
0100
0010
1000
0100
0010
0001
0100
0010
1000
0100
,
0010
0001
0100
0001
0010
0001
1000
0001
0100
0001
0010
0001
1000
0001
0100
0001
,
0010
0001
0100
0010
1000
0100
0010
0001
0100
0010
1000
0100
0010
0001
0100
0010
,
1000
0001
0100
0001
0010
0100
1000
0010
0100
0010
1000
0100
0010
0001
0100
0001
,
0010
0100
1000
0001
1000
0100
0010
0001
0100
0010
1000
0100
0010
0001
0100
0001
,
0010
0100
1000
0100
0010
0001
1000
0001
0100
0001
0010
0001
1000
0001
0100
0001
,
0010
0100
1000
0100
0010
0001
0100
0010
1000
0100
0010
0001
0100
0010
1000
0100
,
0010
0001
1000
0001
0010
0100
1000
0010
0100
0001
0010
0100
1000
0010
0100
0001
,
0010
0001
0100
0010
1000
0001
0010
0100
1000
0010
0100
0001
0010
0100
1000
0010
,
0100
0001
0010
0001
0100
0001
1000
0001
0010
0001
0100
0001
1000
0001
0010
0001
,
0100
0001
0010
0100
1000
0010
0100
0001
0010
0100
1000
0010
0100
0001
0010
0100
,
1000
0001
0010
0001
0100
0010
1000
0100
0010
0100
1000
0010
0100
0001
0010
0001
,
0100
0010
1000
0001
1000
0010
0100
0001
0010
0100
1000
0010
0100
0001
0010
0001
,
0100
0010
1000
0010
0100
0001
1000
0001
0010
0001
0100
0001
1000
0001
0010
0001
,
0100
0010
1000
0010
0100
0001
0010
0100
1000
0010
0100
0001
0010
0100
1000
0010
,
0100
0001
1000
0001
0100
0010
1000
0100
0010
0001
0100
0010
1000
0100
0010
0001
,
0100
0001
0010
0100
1000
0001
0100
0010
1000
0100
0010
0001
0100
0010
1000
0100
,
0010
0001
0100
0001
0010
0001
1000
0001
0100
0001
0010
0001
1000
0001
0100
0001
,
0010
0001
0100
0010
1000
0100
0010
0001
0100
0010
1000
0100
0010
0001
0100
0010
,
1000
0001
0100
0001
0010
0100
1000
0010
0100
0010
1000
0100
0010
0001
0100
0001
,
0010
0100
1000
0001
1000
0100
0010
0001
0100
0010
1000
0100
0010
0001
0100
0001
,
0010
0100
1000
0100
0010
0001
1000
0001
0100
0001
0010
0001
1000
0001
0100
0001
,
0010
0100
1000
0100
0010
0001
0100
0010
1000
0100
0010
0001
0100
0010
1000
0100
,
0010
0001
1000
0001
0010
0100
1000
0010
0100
0001
0010
0100
1000
0010
0100
0001
,
0010
0001
0100
0010
1000
0001
0010
0100
1000
0010
0100
0001
0010
0100
1000
0010
,
0100
0001
0010
0001
0100
0001
1000
0001
0010
0001
0100
0001
1000
0001
0010
0001
,
0100
0001
0010
0100
1000
0010
0100
0001
0010
0100
1000
0010
0100
0001
0010
0100
,
1000
0001
0010
0001
0200
0000
0000
0000
0302
0000
0000
0000
1003
0001
1000
0001
,
1000
0001
1000
0001
0010
0000
0010
0000
0001
0100
0010
1000
0001
0000
0001
0000
,
1000
0100
0010
0100
1000
0000
1000
0000
0001
0100
0010
1000
0001
0000
0001
0000
,
1000
0100
1000
0010
0100
0000
0100
0000
0010
1000
0001
0010
0100
0000
0100
0000
,
1000
0100
0010
0001
1000
0000
1000
0000
0010
0100
0001
1000
0001
0000
0001
0000
,
1000
0100
1000
0010
0100
0000
0100
0000
0010
1000
0100
0010
0001
0000
0001
0000
,
1000
0001
0100
0010
0100
0000
0100
0000
0001
1000
0100
0010
0100
0000
0100
0000
,
1000
0010
0100
0001
1000
0000
1000
0000
0001
0100
0010
1000
0001
0000
0001
0000
,
0010
0100
1000
0001
1000
0000
1000
0000
0001
0100
0010
1000
0001
0000
0001
0000
,
0100
0010
1000
0001
0100
0000
0100
0000
0001
1000
0100
0010
0001
0000
0001
0000
,
1000
0010
0100
0010
1000
0000
1000
0000
0100
0010
0001
1000
0001
0000
0001
0000
,
0100
0010
1000
0001
1000
0000
1000
0000
0010
1000
0001
0010
0100
0000
0100
0000
,
1000
0001
0100
0010
1000
0000
1000
0000
0001
0100
0010
1000
0001
0000
0001
0000
,
1000
0100
1000
0010
0100
0000
0100
0000
0001
1000
0100
0010
0001
0000
0001
0000
,
1000
0010
0100
0010
1000
0000
1000
0000
0010
0100
0001
1000
0100
0000
0100
0000
,
1000
0001
0010
0100
1000
0000
1000
0000
0001
0010
0100
1000
0001
0100
0001
0100
,
0010
1000
0010
1000
0001
1000
0001
1000
0001
1000
0001
1000
0001
1000
0010
1000
,
0100
0010
0100
1000
0002
0000
1000
0000
1003
0100
0010
0000
0002
0000
1003
0100
,
0010
0000
0002
0000
2003
0000
3001
0100
0001
0100
0020
0000
2030
0000
3001
0010
,
0100
0000
2000
0000
3002
0000
0100
0000
0103
0010
1000
0000
0002
0000
0103
0010
,
1000
0000
0002
0000
2003
0000
3100
0010
0100
0010
0002
0000
1003
0000
1010
0000
,
0110
0000
0101
0000
20M1
0000
0001
0000
3001
0010
0100
0000
2000
0000
3001
0010
,
0100
0000
2000
0000
3002
0000
1003
0010
1000
0010
0200
0000
0302
0000
1003
0100
,
0010
0000
0002
0000
2003
0000
0010
0000
3010
0100
0001
0000
2000
0000
3010
0100
,
0001
0000
2000
0000
3001
0100
0001
0100
0010
0000
1000
0000
0004
0000
0000
0000
,
0043
0000
0000
0000
0000
0000
0000
0000
0000
0000
0000
0000
0000
0000
0000
0030
1100
0000
0000
0000
0000
0000
0000
0000
2000
0000
0000
0000
0000
0000
0000
0000
3001
0000
0000
0000
0010
0000
0000
0000
0100
0000
0000
0000
0000
0000
0000
0000
2000
0000
0000
0000
0000
0000
0000
0000
3001
0000
0000
0000
0010
0000
0000
0000
,
0100
0000
2000
0000
3002
0000
1003
0010
1000
0010
0200
0000
0302
0000
1003
0100
,
0010
0000
0002
0000
2003
0000
0010
0000
3010
0100
0001
0000
2000
0000
3010
0100
,
0001
0000
2000
0000
3002
0000
0010
0000
0013
0100
2000
0000
3001
0000
0101
0000
,
0110
0000
1010
0000
1M02
0000
1000
0000
1003
0100
0010
0000
0002
0000
1000
0000
,
1003
0100
0010
0000
0002
0000
1000
0000
1003
0100
0010
0000
0002
0000
1000
0000
,
1003
0100
0010
0000
0001
0000
0000
0000
0100
0000
0000
0000
0040
4000
0000
0030
,
3001
0000
0000
0000
0001
0000
0000
0000
0001
0000
0000
0000
1000
0000
0000
0100
0000
0000
1000
0000
0000
0100
0000
0000
0010
0000
0000
0001
0000
0000
0010
0000
0000
0001
0000
0000
1000
0000
0000
0001
0000
0000
0100
0000
0000
0010
0000
0000
,
1000
0100
0010
0001
2000
0000
0000
0000
3001
0000
0020
0000
0000
0000
0230
0000
,
0000
2300
0000
0000
0000
0000
0000
3100
,
1000
0010
0200
0000
0301
0020
0000
0032
,
0000
0203
0000
0000
0000
0000
0320
0000
,
2030
0000
0000
0000
3002
0000
0000
0003
0001
0000
0002
0000
0000
0003
0002
0000
,
0000
0023
0000
0032
0000
2003
0000
3020
,
0000
0030
0020
0000
0000
0000
0000
0030
0010
0000
0020
0000
0000
0000
1030
0000
,
0100
0020
0000
0000
0000
0000
0030
0000
,
0001
0000
2001
0000
3001
0020
0000
0230
,
0000
2300
0000
0000
0000
0000
0000
3001
,
0010
0001
2000
0000
3010
0200
0000
0302
,
0000
0023
0000
0000
0030
0000
0200
0000
,
2300
0000
0000
0000
3020
0000
0000
0030
0010
0000
0020
0000
0000
0030
0010
0000
,
0020
0230
0320
2030
,
3200
0000
0000
0000
0320
0000
0000
0030
0010
0000
0020
0000
0000
0000
0031
0000
,
0002
0000
0000
0000
0013
0001
0010
0001
0010
0001
0010
0001
1000
0001
1000
0001
,
1000
0001
1000
0001
1000
0010
0100
0001
0010
0001
0100
0010
1000
0001
0010
0001
,
1000
0010
0100
0001
1000
0100
1000
0001
0010
0001
1000
0010
1000
0001
0100
0001
,
1000
0100
0010
0001
0100
0001
1000
0010
0100
0001
0010
0100
0010
0001
0100
0010
,
1000
0001
1000
0010
0100
0001
1000
0001
0100
0010
1000
0001
1000
0100
1000
0100
,
0010
0001
0010
0001
1000
0010
0100
0001
0010
0100
0010
0001
1000
0010
0100
0010
,
1000
0100
0010
0001
1000
0010
0100
0001
0010
0001
1000
0001
0100
0010
1000
0010
,
0100
0001
1000
0001
0010
0100
1000
0001
0010
0100
0010
0001
1000
0001
0100
0010
,
1000
0001
0010
0100
1000
0100
0010
0001
1000
0001
0100
0001
1000
0010
1000
0010
,
0100
0001
0100
0001
0010
0100
1000
0001
0010
0001
0100
0010
0100
0001
0010
0100
,
1000
0010
0100
0010
1000
0001
0010
0100
1000
0001
0010
0001
1000
0010
0100
0001
,
1000
0001
1000
0001
0010
0001
0100
0010
1000
0100
0010
0100
1000
0010
0100
0001
,
1000
0001
0100
0001
0010
0100
1000
0001
0010
0001
1000
0001
0100
0010
0100
0010
,
1000
0001
1000
0001
0010
0100
0010
0001
1000
0001
0100
0001
1000
0010
1000
0001
,
0010
0100
1000
0001
1000
0010
1000
0001
0010
0100
1000
0001
1000
0100
1000
0010
,
0100
0010
1000
0001
0010
0100
0010
0001
1000
0001
0100
0010
1000
0001
1000
0100
,
0010
0100
1000
0010
0100
0001
0100
0010
1000
0001
0010
0100
0010
0001
1000
0001
,
1000
0010
0100
0001
1000
0100
0010
0001
0100
0001
0010
0100
1000
0001
0100
0001
,
1000
0100
0010
0001
1000
0010
1000
0001
0100
0001
1000
0100
1000
0001
0010
0001
,
1000
0010
0100
0001
0010
0001
1000
0100
0010
0001
0100
0010
0100
0001
0010
0100
,
1000
0001
1000
0100
0010
0001
1000
0001
0010
0100
1000
0001
1000
0010
1000
0010
,
0100
0001
0100
0001
1000
0100
0010
0001
0100
0010
0100
0001
1000
0100
0010
0100
,
1000
0010
0100
0001
1000
0100
0010
0001
0100
0001
1000
0001
0010
0100
1000
0100
,
0010
0001
1000
0001
0100
0010
1000
0001
0100
0010
0100
0001
1000
0001
0010
0100
,
1000
0001
0100
0001
0010
0100
1000
0001
0010
0001
0100
0010
1000
0001
1000
0100
,
0010
0001
0010
0001
0100
0010
1000
0001
0100
0001
0010
0100
0010
0001
0100
0010
,
1000
0100
0010
0100
1000
0001
0100
0010
1000
0001
0100
0001
1000
0100
0010
0001
,
1000
0001
1000
0001
0100
0001
0010
0100
1000
0010
0100
0010
1000
0100
0010
0001
,
1000
0001
0010
0001
0100
0010
1000
0001
0100
0001
1000
0001
0010
0100
0010
0100
,
1000
0001
1000
0001
0100
0010
0100
0001
1000
0001
0010
0001
1000
0100
1000
0001
,
0100
0010
1000
0001
1000
0100
1000
0001
0100
0010
1000
0001
1000
0010
1000
0100
,
0010
0100
1000
0001
0100
0010
0100
0001
1000
0001
0010
0100
1000
0001
1000
0010
,
0100
0010
1000
0100
0010
0001
0010
0100
1000
0001
0100
0010
0100
0001
1000
0001
,
1000
0100
0010
0001
1000
0010
0100
0001
1000
0010
1000
0001
0100
0001
0100
0010
,
1000
0010
0100
0001
1000
0001
1000
0100
0010
0001
1000
0100
1000
0001
0010
0100
,
1000
0001
0010
0001
1000
0000
0010
0000
0100
0000
0001
0000
1000
0000
0100
0000
,
0010
0001
1000
0100
1000
0001
0100
0001
,
1000
0000
0010
0000
0100
0001
0100
0010
1000
0001
1000
0100
1000
0001
0100
0010
,
0100
0001
0010
0001
0100
0010
0100
0001
0010
0100
0010
0001
0100
0010
1000
0100
,
1000
0010
0100
0001
0010
0000
0100
0000
1000
0000
1001
0000
0001
0000
0100
0000
,
0101
0000
0000
0000
0000
0000
0001
0000
0000
0000
0000
0000
0011
0000
0000
0000
0000
0000
0100
0000
1000
0000
0100
0000
1000
0000
0000
0000
0000
0000
0001
0000
0000
1000
0000
0000
0100
0000
0000
0000
0000
0000
0010
0000
0000
0001
0000
0000
,
1000
0001
1000
0001
1000
0001
0200
0000
0000
0000
0000
0000
0000
0000
0000
0000
0000
0000
0000
0000
0000
0000
0000
0000
,
0000
0000
0000
0000
,
0000
0000
0000
0000
,
0000
0300
0000
0000
;

//---------------dance-single - MEGADIX----------------
#NOTES:
     dance-single:
     MEGADIX:
     Edit:
     21:
     1.000,1.000,0.022,0.050,1.000,13152.000,22.000,51.000,15.000,0.000:
0000
0000
0000
0000
,
0000
0000
0000
0000
,
0000
0000
0000
0000
,
0000
0000
0000
0000
,
0000
0000
0000
0000
,
0000
0000
0000
0000
,
0000
0000
0000
0000
,
0000
0000
0000
0000
,
1000
0001
0010
0000
0100
0100
2000
0000
,
3001
0100
2000
0000
3100
0001
2000
0000
,
3100
0010
0001
0001
0100
0100
0001
0001
,
0010
0000
0010
0100
1000
0001
0100
0010
,
0000
0010
0000
1000
0010
0000
0100
0100
,
0001
0000
1000
0001
0000
0100
0010
0010
,
1000
0100
0010
0001
0000
0100
0001
0001
,
0010
0000
0000
0100
0000
0000
0000
0000
1000
0000
0100
0000
0010
0000
0001
0000
,
0000
1000
0010
0000
0100
0100
0002
0000
,
1003
0100
0002
0000
0103
1000
0002
0000
,
0103
0010
1000
1000
0100
0100
1000
1000
,
0001
0000
0001
0100
0001
0010
0100
1000
,
0000
1000
0000
0100
1000
0000
0001
0001
,
0100
0000
0010
1000
0000
0001
1000
1000
,
0010
0100
0001
1000
0000
0100
1000
0001
,
0010
0000
0000
0001
0000
0000
0000
0000
1000
0000
0010
0000
0100
0000
0001
0000
,
1000
0100
0010
0001
1000
0100
1000
0100
0010
0001
1000
0010
0100
0001
0100
0001
,
1000
0100
0010
0001
0100
0010
0100
0010
1000
0001
0100
0010
1000
0001
1000
0001
,
1000
0100
1000
0001
1000
0010
1000
0001
0100
0001
0010
0001
1000
0001
0100
0001
,
0010
0100
0010
0001
0010
0100
1000
0010
0100
0001
0010
0001
1000
0001
0010
0100
,
0010
0001
0100
0010
1000
0010
0100
0001
0010
0100
0010
0001
1000
0010
0100
0010
,
1000
0100
1000
0001
0010
0001
0100
0001
1000
0010
0100
0001
1000
0001
0010
0100
,
1000
0001
1000
0010
1000
0100
0010
0001
1000
0001
0100
0001
0010
0100
1000
0001
,
0100
0010
0100
0001
1000
0001
0100
0010
1000
0100
0010
0100
1000
0001
0010
0100
,
0010
0001
0100
0001
1000
0010
1000
0010
0100
0001
1000
0100
0010
0001
0010
0001
,
1000
0010
0100
0001
0010
0100
0010
0100
1000
0001
0010
0100
1000
0001
1000
0001
,
1000
0010
1000
0001
1000
0100
1000
0001
0010
0001
0100
0001
1000
0001
0010
0001
,
0100
0010
0100
0001
0100
0010
1000
0100
0010
0001
0100
0001
1000
0001
0100
0010
,
0100
0001
0010
0100
1000
0100
0010
0001
0100
0010
0100
0001
1000
0100
0010
0100
,
1000
0010
1000
0001
0100
0001
0010
0001
1000
0100
0010
0001
1000
0001
0100
0010
,
1000
0001
1000
0100
1000
0010
0100
0001
1000
0001
0010
0001
0100
0010
1000
0001
,
0010
0100
0010
0001
1000
0001
0010
0100
1000
0010
0100
0010
1000
0001
0100
0001
,
1000
0100
0010
0001
1000
0001
0100
0010
1000
0100
0010
0001
0100
0010
0100
0001
,
1000
0100
0010
0001
0100
0010
0100
0001
1000
0100
0010
0001
0100
0010
0100
0001
,
1000
0100
0010
0001
1000
0001
0100
0001
0010
0001
1000
0001
0100
0010
1000
0100
,
0010
0001
0010
0100
0010
0001
1000
0001
0100
0010
1000
0100
0010
0100
1000
0010
,
0100
0001
0010
0001
1000
0100
0010
0001
0100
0010
0100
0001
1000
0010
1000
0100
,
0010
0001
0010
0100
1000
0010
0100
0001
0100
0010
1000
0001
0010
0001
0100
0001
,
1000
0100
0010
0001
0010
0100
1000
0010
0100
0001
1000
0001
0010
0100
1000
0010
,
0100
0001
0100
0001
1000
0100
1000
0100
0010
0001
0100
0010
1000
0100
0010
0001
,
0100
0001
0100
0001
1000
0001
0010
0100
1000
0010
0100
0001
0010
0100
0010
0001
,
1000
0010
0100
0001
0010
0100
0010
0001
1000
0010
0100
0001
0010
0100
0010
0001
,
1000
0010
0100
0001
1000
0001
0010
0001
0100
0001
1000
0001
0010
0100
1000
0010
,
0100
0001
0100
0010
0100
0001
1000
0001
0010
0100
1000
0010
0100
0010
1000
0100
,
0010
0001
0100
0001
1000
0010
0100
0001
0010
0100
0010
0001
1000
0100
1000
0010
,
0100
0001
0100
0010
1000
0100
0010
0001
0010
0100
1000
0001
0100
0001
0010
0001
,
1000
0010
0100
0001
0100
0010
1000
0100
0010
0001
1000
0001
0100
0010
1000
0100
,
0010
0001
0010
0001
1000
0010
1000
0010
0100
0001
1000
0001
0010
0001
1000
0001
,
0100
0010
1000
0010
0100
0001
1000
0001
0010
0100
1000
0100
0010
0001
1000
0001
,
0100
0010
1000
0001
0010
0100
1000
0001
0100
0010
1000
0001
0010
0100
0010
0001
,
1000
0010
0100
0001
0010
0001
1000
0001
0100
0001
0010
0001
1000
0100
1000
0010
,
1000
0001
1000
0100
1000
0010
1000
0001
0100
0010
1000
0001
1000
0100
0010
0001
,
0100
0010
0100
0001
1000
0010
1000
0001
0010
0100
0010
0001
1000
0100
1000
0001
,
1000
0010
0100
0001
1000
0100
0010
0001
1000
0010
0100
0001
1000
0100
0010
0100
,
1000
0001
0100
0010
1000
0100
0010
0100
1000
0001
0100
0010
1000
0100
0010
0100
,
1000
0001
0100
0010
1000
0001
0100
0010
1000
0001
0010
0001
0100
0001
1000
0001
,
0010
0100
1000
0100
0010
0001
1000
0001
0100
0010
1000
0010
0100
0001
1000
0001
,
0010
0100
1000
0001
0100
0010
1000
0001
0010
0100
1000
0001
0100
0010
0100
0001
,
1000
0100
0010
0001
0100
0001
1000
0001
0010
0001
0100
0001
1000
0010
1000
0100
,
1000
0001
1000
0010
1000
0100
1000
0001
0010
0100
1000
0001
1000
0010
0100
0001
,
0010
0100
0010
0001
1000
0100
1000
0001
0100
0010
0100
0001
1000
0010
1000
0001
,
1000
0100
0010
0001
1000
0010
0100
0001
1000
0100
0010
0001
1000
0010
0100
0010
,
1000
0001
0010
0100
1000
0010
0100
0010
1000
0001
0010
0100
1000
0010
0100
0010
,
1000
0001
0010
0100
1000
0001
0010
0100
1000
0001
0100
0001
0010
0001
1000
0001
,
0100
0010
1000
0001
0100
0010
1000
0001
0100
0010
1000
0001
0100
0010
1000
0001
,
1000
0100
0010
0001
1000
0100
0010
0001
0100
0010
0100
0010
1000
0001
0100
0010
,
1000
0100
0010
0001
1000
0100
0010
0001
1000
0100
0010
0001
1000
0100
0010
0001
,
1000
0001
0100
0010
1000
0001
0100
0010
1000
0100
0010
0100
1000
0001
1000
0001
,
1000
0010
0100
0001
1000
0010
0100
0001
1000
0010
0100
0001
1000
0010
0100
0001
,
0010
0100
1000
0001
0010
0100
1000
0001
0100
0010
0100
0010
1000
0001
0010
0001
,
1000
0100
0010
0001
1000
0100
0010
0001
1000
0100
0010
0001
1000
0100
0010
0001
,
0100
0010
1000
0010
0100
0001
1000
0001
0010
0100
1000
0010
0100
0001
0010
0100
,
1000
0100
0010
0001
1000
0100
0010
0001
1000
0100
0010
0001
1000
0100
0010
0001
,
1000
0010
0100
0001
1000
0010
0100
0001
0010
0100
0010
0100
1000
0001
0010
0100
,
1000
0010
0100
0001
1000
0010
0100
0001
1000
0010
0100
0001
1000
0010
0100
0001
,
1000
0001
0010
0100
1000
0001
0010
0100
1000
0010
0100
0010
1000
0001
1000
0001
,
1000
0100
0010
0001
1000
0100
0010
0001
1000
0100
0010
0001
1000
0100
0010
0001
,
0100
0010
1000
0001
0100
0010
1000
0001
0010
0100
0010
0100
1000
0001
0100
0001
,
1000
0010
0100
0001
1000
0010
0100
0001
1000
0010
0100
0001
1000
0010
0100
0001
,
0010
0100
1000
0010
0100
0010
1000
0100
0010
0001
0100
0001
0010
0100
1000
0001
,
0100
0010
0100
0001
0100
0010
1000
0100
0010
0001
0100
0010
1000
0001
1000
0001
,
0010
0100
0010
0001
0010
0100
1000
0010
0100
0001
0010
0100
0010
0001
1000
0001
,
0100
0010
1000
0010
0100
0001
0010
0100
1000
0010
0100
0001
1000
0001
1000
0100
,
0010
0100
1000
0100
0010
0001
0100
0001
1000
0001
0010
0100
1000
0010
0100
0001
,
1000
0100
0010
0001
0010
0100
1000
0010
0100
0001
0010
0100
1000
0001
1000
0001
,
1000
0010
0100
0001
0100
0010
1000
0100
0010
0001
0100
0010
1000
0001
1000
0001
,
0010
0100
1000
0001
0010
0100
1000
0010
0100
0001
0010
0100
1000
0001
1000
0001
,
0100
0010
1000
0010
0100
0001
0010
0001
1000
0100
1000
0010
0100
0001
1000
0001
,
0010
0100
0010
0001
0010
0100
1000
0010
0100
0001
0010
0100
1000
0001
1000
0001
,
0100
0010
0100
0001
0100
0010
1000
0100
0010
0001
0100
0010
0100
0001
1000
0001
,
0010
0100
1000
0100
0010
0001
0100
0010
1000
0100
0010
0001
1000
0001
1000
0010
,
0100
0010
1000
0010
0100
0001
0010
0001
1000
0001
0100
0010
1000
0100
0010
0001
,
1000
0010
0100
0001
0100
0010
1000
0100
0010
0001
0100
0010
1000
0001
1000
0001
,
1000
0100
0010
0001
0010
0100
1000
0010
0100
0001
0010
0100
1000
0001
1000
0001
,
0100
0010
1000
0001
0100
0010
1000
0100
0010
0001
0100
0010
1000
0001
1000
0001
,
0010
0100
1000
0100
0010
0001
0100
0001
1000
0010
1000
0100
1000
0010
0100
0001
,
1000
0100
1000
0100
1000
0010
0100
0001
1000
0010
1000
0010
1000
0100
0010
0001
,
1000
0100
1000
0100
0010
0001
1000
0001
0100
0010
1000
0100
1000
0010
0100
0001
,
1000
0010
1000
0010
0100
0001
1000
0001
0010
0100
1000
0001
0100
0010
0100
0001
,
1000
0001
1000
0001
0010
0100
1000
0001
0010
0100
1000
0010
1000
0001
0010
0001
,
1000
0100
1000
0100
0010
0001
0100
0001
1000
0010
1000
0010
0100
0001
0010
0001
,
1000
0100
0010
0100
1000
0001
1000
0010
0100
0001
1000
0010
1000
0100
1000
0001
,
0010
0100
0010
0100
1000
0010
1000
0001
0100
0010
0100
0010
1000
0100
1000
0001
,
0010
0100
0010
0100
0010
0000
0001
0000
1000
0000
0000
0000
2020
0000
3030
0000
,
0001
0010
0001
0010
0001
0100
0010
1000
0001
0100
0001
0100
0001
0010
0100
1000
,
0001
0010
0001
0010
0100
1000
0001
1000
0010
0100
0001
0010
0001
0100
0010
1000
,
0001
0100
0001
0100
0010
1000
0001
1000
0100
0010
0001
1000
0010
0100
0010
1000
,
0001
1000
0001
1000
0100
0010
0001
1000
0100
0010
0001
0100
0001
1000
0100
1000
,
0001
0010
0001
0010
0100
1000
0010
1000
0001
0100
0001
0100
0010
1000
0100
1000
,
0001
0010
0100
0010
0001
1000
0001
0100
0010
1000
0001
0100
0001
0010
0001
1000
,
0100
0010
0100
0010
0001
0100
0001
1000
0010
0100
0010
0100
0001
0010
0001
1000
,
0100
0010
0001
1000
0100
0010
0001
1000
0010
0100
0010
1000
0001
0010
0100
1000
,
0010
0100
0001
0100
0010
1000
0001
1000
0100
0010
0001
0010
0100
1000
0001
1000
,
0010
0100
0001
1000
0100
0010
0001
1000
0010
0100
0001
1000
0100
0010
0100
1000
,
0001
0100
0010
1000
0100
1000
0001
1000
0010
1000
0100
1000
0001
0010
0001
0100
,
0001
1000
0001
0010
0001
0100
0001
1000
0010
0100
0001
1000
0001
0010
0100
1000
,
0010
0100
0010
1000
0001
0100
0001
1000
0100
0010
0100
1000
0001
0010
0001
1000
,
0001
0100
0010
1000
0001
0010
0100
1000
0001
0100
0010
1000
0001
0010
0100
0010
,
0001
1000
0010
0100
0001
0010
0100
0010
0001
1000
0010
0100
0001
0010
0100
0010
,
0001
1000
0010
0100
0001
1000
0010
0100
0001
1000
0100
1000
0010
1000
0001
1000
,
0100
0010
0001
0010
0100
1000
0001
1000
0010
0100
0001
0100
0010
1000
0001
1000
,
0100
0010
0001
1000
0010
0100
0001
1000
0100
0010
0001
1000
0010
0100
0010
1000
,
0001
0010
0100
1000
0010
1000
0001
1000
0100
1000
0010
1000
0001
0100
0001
0010
,
0001
1000
0001
0100
0001
0010
0001
1000
0100
0010
0001
1000
0001
0100
0010
1000
,
0100
0010
0100
1000
0001
0010
0001
1000
0010
0100
0010
1000
0001
0100
0001
1000
,
0001
0010
0100
1000
0001
0100
0010
1000
0001
0010
0100
1000
0001
0100
0010
0100
,
0001
1000
0100
0010
0001
0100
0010
0100
0001
1000
0100
0010
0001
0100
0010
0100
,
0001
1000
0100
0010
0001
1000
0100
0010
0001
1000
0010
1000
0100
1000
0001
1000
,
0001
0000
0000
0000
2000
0000
3020
0000
1030
0100
0010
0001
1000
0100
0010
0001
,
1000
0010
0100
0001
0010
0100
1000
0001
0010
0100
1000
0001
0100
0010
1000
0001
,
1000
0100
0010
0001
1000
0001
0010
0100
1000
0001
0100
0010
1000
0001
0100
0010
,
1000
0001
0010
0100
1000
0100
0010
0001
1000
0100
0010
0001
0010
0001
0100
0001
,
0100
0010
1000
0001
1000
0010
0100
0001
1000
0100
0010
0001
1000
0100
0010
0001
,
1000
0010
0100
0001
0010
0100
1000
0001
0010
0100
1000
0001
0100
0010
1000
0001
,
1000
0010
0100
0001
1000
0100
0010
0001
1000
0010
0100
0001
1000
0010
0100
0001
,
1000
0100
0010
0001
0100
0001
0010
0100
1000
0001
0100
0010
1000
0010
0100
0001
,
0100
0001
1000
0001
0010
0100
1000
0001
1000
0010
0100
0001
1000
0010
0100
0001
,
0010
0100
1000
0001
0100
0010
1000
0001
0010
0100
0010
0001
0100
0010
1000
0010
,
0100
0001
1000
0100
0010
0100
1000
0001
0100
0010
0100
0001
0010
0100
1000
0100
,
0010
0001
1000
0001
0100
0010
1000
0010
0100
0001
1000
0100
0010
0100
1000
0001
,
0100
0010
0100
0001
0010
0100
1000
0001
0010
0100
1000
0001
0010
0100
1000
0001
,
1000
0010
0100
0001
0010
0100
1000
0001
0010
0100
1000
0001
0100
0010
1000
0001
,
1000
0010
0100
0001
1000
0100
0010
0001
1000
0010
0100
0001
1000
0010
0100
0001
,
1000
0100
0010
0001
0100
0001
0010
0100
1000
0001
0100
0010
1000
0010
0100
0001
,
0100
0001
1000
0001
0010
0100
1000
0001
1000
0010
0100
0001
1000
0010
0100
0001
,
0010
0100
1000
0001
0100
0010
1000
0001
0010
0100
0010
0001
0100
0010
1000
0010
,
0100
0001
1000
0100
0010
0100
1000
0001
0100
0010
0100
0001
0010
0100
1000
0100
,
0010
0001
1000
0001
0100
0010
1000
0010
0100
0001
1000
0100
0010
0100
1000
0001
,
0100
0010
0100
0001
0010
0100
1000
0001
0010
0100
1000
0001
0010
0100
1000
0001
,
1000
0010
0100
0001
0010
0100
1000
0001
0010
0100
1000
0001
0100
0010
1000
0001
,
1000
0010
0100
0001
1000
0100
0010
0001
1000
0010
0100
0001
1000
0010
0100
0001
,
1000
0100
0010
0001
0100
0001
0010
0100
1000
0001
1000
0001
1000
0010
0100
0001
,
0100
0001
0010
0100
1000
0001
1000
0001
1000
0100
0010
0001
1000
0100
0010
0001
,
1000
0010
0100
0001
0010
0100
1000
0001
0010
0100
1000
0001
0100
0010
1000
0001
,
1000
0100
0010
0001
1000
0001
0010
0100
1000
0001
0100
0010
1000
0001
0100
0010
,
1000
0001
0010
0100
1000
0100
0010
0001
1000
0100
0010
0001
0010
0001
0100
0001
,
0100
0010
1000
0001
1000
0010
0100
0001
1000
0100
0010
0001
1000
0100
0010
0001
,
1000
0010
0100
0001
0010
0100
1000
0001
0010
0100
1000
0001
0100
0010
1000
0001
,
1000
0010
0100
0001
1000
0100
0010
0001
1000
0010
0100
0001
1000
0010
0100
0001
,
1000
0100
0010
0001
0100
0001
0010
0100
1000
0001
0100
0010
1000
0010
0100
0001
,
0100
0001
1000
0001
0010
0100
1000
0001
1000
0010
0100
0001
1000
0010
0100
0001
,
0010
0100
1000
0001
0100
0010
1000
0001
0010
0100
0010
0001
0100
0010
1000
0010
,
0100
0001
1000
0100
0010
0100
1000
0001
0100
0010
0100
0001
0010
0100
1000
0100
,
0010
0001
1000
0001
0100
0010
1000
0010
0100
0001
1000
0100
0010
0100
1000
0001
,
0100
0010
0100
0001
0010
0100
1000
0001
0010
0100
1000
0001
0010
0100
1000
0001
,
1000
0010
0100
0001
0010
0100
1000
0001
0010
0100
1000
0001
0100
0010
1000
0001
,
1000
0010
0100
0001
1000
0100
0010
0001
1000
0010
0100
0001
1000
0010
0100
0001
,
1000
0100
0010
0001
0100
0001
0010
0100
1000
0001
0100
0010
1000
0010
0100
0001
,
0100
0001
1000
0001
0010
0100
1000
0001
1000
0010
0100
0001
1000
0010
0100
0001
,
0010
0100
1000
0001
0100
0010
1000
0001
0010
0100
0010
0001
0100
0010
1000
0010
,
0100
0001
1000
0100
0010
0100
1000
0001
0100
0010
0100
0001
0010
0100
1000
0100
,
0010
0001
1000
0001
0100
0010
1000
0010
0100
0001
1000
0100
0010
0100
1000
0001
,
0100
0010
0100
0001
0010
0100
1000
0001
0010
0100
1000
0001
0010
0100
1000
0001
,
1000
0010
0100
0001
0010
0100
1000
0001
0010
0100
1000
0001
0100
0010
1000
0001
,
1000
0010
0100
0001
1000
0100
0010
0001
1000
0010
0100
0001
1000
0010
0100
0001
,
1000
0100
0010
0001
0100
0001
0010
0100
1000
0001
1000
0001
0100
0010
1000
0001
,
1000
0000
0000
0001
0000
0000
0010
0000
0000
0100
0000
0000
1000
0000
0000
0001
0000
0000
1000
0000
0000
0001
0000
0000
0100
0000
0000
0000
0010
0000
0000
0000
0100
0000
0000
0000
0001
0000
0000
0000
1000
0000
0000
0000
0100
0000
0000
0000
,
0010
0001
0100
0010
1000
0100
0010
0001
0100
0010
1000
0100
,
0020
0000
0000
0000
0030
0000
0000
0000
0001
0010
0001
1000
0001
0010
0100
1000
,
0001
1000
0010
1000
0001
0100
0010
1000
0001
1000
0100
1000
0001
0010
0100
1000
,
0001
1000
0010
0100
0001
0100
0010
1000
0001
1000
0100
0010
0001
0010
0100
1000
,
0001
1000
0010
0100
0010
0100
0010
1000
0001
1000
0100
0010
0100
1000
0001
1000
,
0001
0100
0010
1000
0010
0100
0001
1000
0001
0010
0100
0010
0001
1000
0100
0010
,
0001
0100
0010
1000
0010
0100
0001
1000
0100
0010
0100
1000
0001
0010
0100
1000
,
0010
0100
0010
1000
0001
0100
0010
1000
0001
0010
0100
0010
0001
1000
0100
1000
,
0010
0100
0010
1000
0001
0100
0010
1000
0100
0010
0001
1000
0010
0100
0001
0010
,
0100
0010
0001
1000
0100
0010
0001
1000
0001
0100
0001
1000
0001
0100
0010
1000
,
0001
1000
0100
1000
0001
0010
0100
1000
0001
1000
0010
1000
0001
0100
0010
1000
,
0001
1000
0100
0010
0001
0010
0100
1000
0001
1000
0010
0100
0001
0100
0010
1000
,
0001
1000
0100
0010
0100
0010
0100
1000
0001
1000
0010
0100
0010
1000
0001
1000
,
0001
0010
0100
1000
0100
0010
0001
1000
0001
0100
0010
0100
0001
1000
0010
0100
,
0001
0010
0100
1000
0100
0010
0001
1000
0010
0100
0010
1000
0001
0100
0010
1000
,
0100
0010
0100
1000
0001
0010
0100
1000
0001
0100
0010
0100
0001
1000
0010
1000
,
0100
0010
0100
1000
0001
0010
0100
1000
0010
0100
0001
1000
0100
0010
0001
0100
,
0010
0100
0001
1000
0010
0100
0001
1000
0001
0010
0001
0010
0100
1000
0010
0100
,
0010
1000
0100
0010
0100
1000
0010
0100
0001
1000
0100
0010
0100
0010
0001
0010
,
0100
1000
0010
0100
0001
0100
0010
1000
0001
0010
0001
0010
0100
1000
0010
0100
,
0010
1000
0100
0010
0100
1000
0010
0100
0001
1000
0100
0010
0100
0010
0001
0010
,
0100
1000
0001
0100
0010
1000
0010
1000
0001
0010
0001
0010
0100
1000
0010
0100
,
0010
1000
0100
0010
0100
1000
0010
0100
0001
1000
0100
0010
0100
0010
0001
0010
,
0100
1000
0010
0100
0001
0100
0010
1000
0001
0010
0001
0010
0100
1000
0010
0100
,
0010
1000
0100
0010
0100
1000
0010
0100
0001
1000
0100
0010
0100
0010
0001
0010
,
0100
1000
0001
0100
0010
1000
0100
1000
0001
0100
0001
0100
0010
1000
0100
0010
,
0100
1000
0010
0100
0010
1000
0100
0010
0001
1000
0010
0100
0010
0100
0001
0100
,
0010
1000
0100
0010
0001
0010
0100
1000
0001
0100
0001
0100
0010
1000
0100
0010
,
0100
1000
0010
0100
0010
1000
0100
0010
0001
1000
0010
0100
0010
0100
0001
0100
,
0010
1000
0001
0010
0100
1000
0100
1000
0001
0100
0001
0100
0010
1000
0100
0010
,
0100
1000
0010
0100
0010
1000
0100
0010
0001
1000
0010
0100
0010
0100
0001
0100
,
0010
1000
0100
0010
0001
0010
0100
1000
0001
0100
0001
0100
0010
1000
0100
0010
,
0100
1000
0010
0100
0010
1000
0100
0010
0001
1000
0010
0100
0010
0100
0001
0100
,
0010
1000
0001
0010
0100
1000
0010
1000
0100
0010
0001
1000
0001
1000
0010
1000
,
0100
0010
0001
0010
0100
1000
0010
1000
0100
0010
0001
0010
0100
1000
0010
0100
,
0001
0100
0010
1000
0100
0010
0100
0010
0001
0010
0100
1000
0100
1000
0001
1000
,
0010
0100
0001
0100
0010
1000
0100
1000
0010
0100
0001
0100
0010
1000
0100
0010
,
0001
0010
0100
1000
0010
0100
0010
0100
0001
0010
0001
1000
0001
1000
0010
1000
,
0100
0010
0001
0010
0100
1000
0010
0100
0001
0010
0001
1000
0001
1000
0010
1000
,
0100
0010
0001
0010
0100
1000
0010
0100
0001
0010
0001
1000
0001
1000
0010
1000
,
0100
0010
0001
0010
0100
1000
0010
0100
0001
0100
0010
1000
0100
0010
0001
0010
,
0100
1000
0001
0100
0010
1000
0100
1000
0010
0100
0001
1000
0001
1000
0100
1000
,
0010
0100
0001
0100
0010
1000
0100
1000
0010
0100
0001
0100
0010
1000
0100
0010
,
0001
0010
0100
1000
0010
0100
0010
0100
0001
0100
0010
1000
0010
1000
0001
1000
,
0100
0010
0001
0010
0100
1000
0010
1000
0100
0010
0001
0010
0100
1000
0010
0100
,
0001
0100
0010
1000
0100
0010
0100
0010
0001
0100
0001
1000
0001
1000
0100
1000
,
0010
0100
0001
0100
0010
1000
0100
0010
0001
0100
0001
1000
0001
1000
0100
1000
,
0010
0100
0001
0100
0010
1000
0100
0010
0001
0100
0001
1000
0001
1000
0100
1000
,
0010
0100
0001
0100
0010
1000
0100
0010
0001
0010
0100
1000
0010
0100
0001
0100
,
0010
1000
0001
0010
0100
1000
0010
1000
0100
0010
0100
1000
0001
0010
0100
1000
,
0010
0100
0010
1000
0001
0100
0010
1000
0001
1000
0100
0010
0001
0100
0010
0100
,
0001
1000
0001
1000
0100
0010
0100
1000
0001
0100
0010
0100
0001
1000
0010
1000
,
0100
0010
0100
1000
0001
0010
0100
1000
0001
0100
0010
1000
0100
0010
0100
1000
,
0001
1000
0001
1000
0010
0100
0001
1000
0100
0010
0100
1000
0001
0010
0100
1000
,
0010
0100
0010
1000
0001
0100
0010
1000
0001
1000
0100
0010
0001
0100
0010
0100
,
0001
1000
0001
1000
0100
0010
0100
1000
0001
0100
0010
1000
0001
0010
0100
1000
,
0010
0100
0010
1000
0100
0010
0100
1000
0001
0010
0100
0010
0001
0100
0010
0100
,
0001
1000
0100
0010
0001
1000
0001
1000
0010
0100
0010
1000
0001
0100
0010
1000
,
0100
0010
0100
1000
0001
0010
0100
1000
0001
1000
0010
0100
0001
0010
0100
0010
,
0001
1000
0001
1000
0010
0100
0010
1000
0001
0010
0100
0010
0001
1000
0100
1000
,
0010
0100
0010
1000
0001
0100
0010
1000
0001
0010
0100
1000
0010
0100
0010
1000
,
0001
1000
0001
1000
0100
0010
0001
1000
0010
0100
0010
1000
0001
0100
0010
1000
,
0100
0010
0100
1000
0001
0010
0100
1000
0001
1000
0010
0100
0001
0010
0100
0010
,
0001
1000
0001
1000
0010
0100
0010
1000
0001
0010
0100
1000
0001
0100
0010
1000
,
0100
0010
0100
1000
0001
0010
0001
1000
0001
0100
0010
0100
0001
0010
0100
0010
,
0001
1000
0001
1000
0010
0100
0001
1000
0001
0010
0100
1000
0001
0100
0001
1000
,
0100
0010
0100
1000
0010
0100
0001
1000
0001
0010
0100
1000
0001
0100
0001
1000
,
0100
0010
0100
1000
0010
0100
0010
1000
0001
0100
0010
1000
0001
0010
0001
1000
,
0010
0100
0010
1000
0100
0010
0100
1000
0001
0100
0010
1000
0001
0010
0001
1000
,
0010
0100
0010
1000
0100
0010
0001
1000
0001
0010
0100
1000
0001
0100
0010
0100
,
0001
1000
0100
0010
0001
0100
0010
1000
0001
1000
0100
0010
0001
1000
0010
1000
,
0001
0010
0100
1000
0010
0100
0001
1000
0001
0100
0010
1000
0001
0010
0100
0010
,
0001
1000
0010
0100
0001
0010
0100
1000
0001
1000
0010
0100
0001
1000
0100
1000
,
0001
0100
0010
1000
0100
0010
0100
1000
0001
1000
0001
1000
0010
1000
0010
1000
,
0001
0100
0001
0100
0010
0100
0010
0100
0001
1000
0001
1000
0001
0010
0001
0010
,
0100
1000
0100
1000
0001
1000
0001
1000
0010
0100
0010
0100
0001
0100
0001
0100
,
0010
1000
0010
1000
0001
0010
0001
0010
0100
0010
0100
0010
0001
1000
0001
1000
,
0010
0100
0010
0100
0010
1000
0010
1000
0001
0010
0001
0010
0001
1000
0001
1000
,
0001
0100
0001
0100
0010
1000
0010
1000
0001
1000
0001
1000
0100
1000
0100
1000
,
0100
0010
0100
0010
0001
0010
0001
0010
0001
1000
0001
0100
0010
1000
0001
1000
,
0100
0010
0001
0010
0100
1000
0010
0100
0001
0010
0100
1000
0001
0100
0010
1000
,
0001
0010
0100
1000
0001
0100
0010
1000
0001
0010
0001
0010
0100
1000
0010
0100
,
0010
1000
0100
0010
0100
1000
0010
0100
0001
1000
0100
0010
0100
0010
0001
0010
,
0100
1000
0010
0100
0001
0100
0010
1000
0001
0010
0001
0010
0100
1000
0010
0100
,
0010
1000
0100
0010
0100
1000
0010
0100
0001
1000
0100
0010
0100
0010
0001
0010
,
0100
1000
0001
0100
0010
1000
0010
1000
0001
0010
0001
0010
0100
1000
0010
0100
,
0010
1000
0100
0010
0100
1000
0010
0100
0001
1000
0100
0010
0100
0010
0001
0010
,
0100
1000
0010
0100
0001
0100
0010
1000
0001
0010
0001
0010
0100
1000
0010
0100
,
0010
1000
0100
0010
0100
1000
0010
0100
0001
1000
0100
0010
0100
0010
0001
0010
,
0100
1000
0001
0100
0010
1000
0100
1000
0001
0100
0001
0100
0010
1000
0100
0010
,
0100
1000
0010
0100
0010
1000
0100
0010
0001
1000
0010
0100
0010
0100
0001
0100
,
0010
1000
0100
0010
0001
0010
0100
1000
0001
0100
0001
0100
0010
1000
0100
0010
,
0100
1000
0010
0100
0010
1000
0100
0010
0001
1000
0010
0100
0010
0100
0001
0100
,
0010
1000
0001
0010
0100
1000
0100
1000
0001
0100
0001
0100
0010
1000
0100
0010
,
0100
1000
0010
0100
0010
1000
0100
0010
0001
1000
0010
0100
0010
0100
0001
0100
,
0010
1000
0100
0010
0001
0010
0100
1000
0001
0100
0001
0100
0010
1000
0100
0010
,
0100
1000
0010
0100
0010
1000
0100
0010
0001
1000
0010
0100
0010
0100
0001
0100
,
0010
1000
0001
0010
0100
1000
0010
1000
0100
0010
0001
1000
0001
1000
0010
1000
,
0100
0010
0001
0010
0100
1000
0010
1000
0100
0010
0001
0010
0100
1000
0010
0100
,
0001
0100
0010
1000
0100
0010
0100
0010
0001
0010
0100
1000
0100
1000
0001
1000
,
0010
0100
0001
0100
0010
1000
0100
1000
0010
0100
0001
0100
0010
1000
0100
0010
,
0001
0010
0100
1000
0010
0100
0010
0100
0001
0010
0001
1000
0001
1000
0010
1000
,
0100
0010
0001
0010
0100
1000
0010
0100
0001
0010
0001
1000
0001
1000
0010
1000
,
0100
0010
0001
0010
0100
1000
0010
0100
0001
0010
0001
1000
0001
1000
0010
1000
,
0100
0010
0001
0010
0100
1000
0010
0100
0001
0100
0010
1000
0100
0010
0001
0010
,
0100
1000
0001
0100
0010
1000
0100
1000
0010
0100
0001
1000
0001
1000
0100
1000
,
0010
0100
0001
0100
0010
1000
0100
1000
0010
0100
0001
0100
0010
1000
0100
0010
,
0001
0010
0100
1000
0010
0100
0010
0100
0001
0100
0010
1000
0010
1000
0001
1000
,
0100
0010
0001
0010
0100
1000
0010
1000
0100
0010
0001
0010
0100
1000
0010
0100
,
0001
0100
0010
1000
0100
0010
0100
0010
0001
0100
0001
1000
0001
1000
0100
1000
,
0010
0100
0001
0100
0010
1000
0100
0010
0001
0100
0001
1000
0001
1000
0100
1000
,
0010
0100
0001
0100
0010
1000
0100
0010
0001
0100
0001
1000
0001
1000
0100
1000
,
0010
0100
0001
0100
0010
1000
0100
0010
0001
1000
0001
1000
0001
1000
0001
1000
,
0001
1000
0001
1000
0001
1000
0001
1000
0100
0010
0001
0100
0001
1000
0100
1000
,
0010
0100
0001
1000
0001
0100
0010
1000
0010
0100
0001
0010
0001
1000
0010
1000
,
0100
1000
0001
0100
0001
1000
0100
0010
0001
0100
0001
1000
0100
1000
0010
1000
,
0100
0010
0001
0100
0001
1000
0100
0010
0100
1000
0001
0100
0001
1000
0010
1000
,
0100
1000
0001
0100
0001
1000
0010
1000
0100
0010
0001
0100
0001
1000
0100
1000
,
0010
0100
0001
1000
0001
0100
0010
1000
0010
0100
0001
0010
0001
1000
0010
1000
,
0100
1000
0001
0100
0001
1000
0100
0010
0001
0100
0001
1000
0100
1000
0010
1000
,
0100
0010
0001
0100
0001
1000
0100
0010
0100
1000
0001
0100
0001
1000
0010
1000
,
0100
1000
0001
0100
0001
1000
0010
1000
0100
0010
0001
0100
0001
1000
0100
1000
,
0010
0100
0001
1000
0001
0100
0010
1000
0010
0100
0001
0010
0001
1000
0010
1000
,
0100
1000
0001
0100
0001
1000
0100
0010
0001
0100
0001
1000
0100
1000
0010
1000
,
0100
0010
0001
0100
0001
1000
0100
0010
0100
1000
0001
0100
0001
1000
0010
1000
,
0100
1000
0001
0100
0001
1000
0010
1000
0100
0010
0001
0100
0001
1000
0100
1000
,
0010
0100
0001
1000
0001
0100
0010
1000
0010
0100
0001
0010
0001
1000
0010
1000
,
0100
1000
0001
0100
0001
1000
0100
0010
0001
0100
0001
1000
0100
1000
0010
0100
,
0001
0010
0001
0100
0010
0100
0001
1000
0100
1000
0001
0100
0001
1000
0010
1000
,
0100
1000
0001
0100
0010
1000
0001
1000
0010
0100
0001
0010
0001
1000
0010
1000
,
0100
0010
0001
1000
0001
0010
0100
1000
0100
0010
0001
0100
0001
1000
0100
1000
,
0010
1000
0001
0010
0001
1000
0010
0100
0001
0010
0001
1000
0010
1000
0100
1000
,
0010
0100
0001
0010
0001
1000
0010
0100
0010
1000
0001
0010
0001
1000
0100
1000
,
0010
1000
0001
0010
0001
1000
0100
1000
0010
0100
0001
0010
0001
1000
0010
1000
,
0100
0010
0001
1000
0001
0010
0100
1000
0100
0010
0001
0100
0001
1000
0100
1000
,
0010
1000
0001
0010
0001
1000
0010
0100
0001
0010
0001
1000
0010
1000
0100
1000
,
0010
0100
0001
0010
0001
1000
0010
0100
0010
1000
0001
0010
0001
1000
0100
1000
,
0010
1000
0001
0010
0001
1000
0100
1000
0010
0100
0001
0010
0001
1000
0010
1000
,
0100
0010
0001
1000
0001
0010
0100
1000
0100
0010
0001
0100
0001
1000
0100
1000
,
0010
1000
0001
0010
0001
1000
0010
0100
0001
0010
0001
1000
0010
1000
0100
1000
,
0010
0100
0001
0010
0001
1000
0010
0100
0010
1000
0001
0010
0001
1000
0100
1000
,
0010
1000
0001
0010
0001
1000
0100
1000
0010
0100
0001
0010
0001
1000
0010
1000
,
0100
0010
0001
1000
0001
0010
0100
1000
0100
0010
0001
0100
0001
1000
0100
1000
,
0010
1000
0001
0010
0001
1000
0010
0100
0001
0010
0001
1000
0010
1000
0100
1000
,
0010
0100
0001
0010
0001
1000
0010
0100
0010
1000
0001
0010
0001
1000
0100
1000
,
0010
1000
0001
0010
0001
1000
0100
1000
0002
0000
0000
0000
0000
0000
0000
0000
,
0003
0000
0000
0000
,
0000
0000
0000
0000
,
0000
0000
0000
0000
,
0000
0000
0000
0000
,
1000
0000
0000
0000
,
0000
0000
0000
0100
,
0000
0000
0000
0000
,
0000
0000
0000
0010
0000
0000
0000
0000
,
0000
0000
0000
0000
,
0020
0000
0000
0000
0032
0000
0000
0000
1003
0010
0100
0001
0100
0001
1000
0010
,
0100
0001
0100
0001
1000
0001
0010
0100
1000
0001
1000
0001
1000
0010
0100
0001
,
1000
0010
1000
0010
0100
0001
0100
0001
1000
0100
0010
0001
0010
0001
1000
0100
,
0010
0001
0010
0001
1000
0001
0100
0010
1000
0001
1000
0001
1000
0100
0010
0001
,
1000
0100
1000
0100
0010
0001
0010
0001
1000
0010
0100
0001
0100
0001
1000
0010
,
0100
0001
0100
0001
1000
0001
0010
0100
1000
0001
1000
0001
1000
0010
0100
0001
,
1000
0010
1000
0010
0100
0001
0100
0001
1000
0100
0010
0001
0010
0001
1000
0100
,
0010
0000
0000
0001
0000
0000
0010
0000
0000
0001
0000
0000
1000
0000
0000
0001
0000
0000
0100
0000
0001
0000
0100
0000
0001
0000
0000
0100
0000
0000
0010
0000
0000
1000
0000
0000
0010
0000
0000
1000
0000
0000
0001
0000
0000
0100
0000
0000
,
0010
0000
0000
1000
0000
0000
0010
0000
0000
1000
0000
0000
0001
0000
0000
1000
0000
0000
0100
0000
1000
0000
0100
0000
1000
0000
0000
0100
0000
0000
0010
0000
0000
0001
0000
0000
0010
0000
0000
0001
0000
0000
1000
0000
0000
0100
0000
0000
,
0010
0000
0000
0001
0000
0000
0010
0000
0000
0001
0000
0000
1000
0000
0000
0001
0000
0000
0100
0000
0001
0000
0100
0000
0001
0000
0000
0100
0000
0000
0010
0000
0000
1000
0000
0000
0010
0000
0000
1000
0000
0000
0001
0000
0000
0100
0000
0000
,
0010
0000
0000
1000
0000
0000
0010
0000
0000
1000
0000
0000
0001
0000
0000
1000
0000
0000
0100
0000
1000
0000
0100
0000
0010
0000
0000
0001
0000
0000
1000
0000
0000
0010
0000
0000
1000
0000
0000
0010
0000
0000
0100
0000
0000
0001
0000
0000
,
1000
0000
0000
0010
0000
0000
1000
0000
0000
0010
0000
0000
0100
0000
0000
0001
0000
0000
1000
0000
0001
0000
1000
0000
0001
0000
0000
0010
0000
0000
0100
0000
0000
1000
0000
0000
0100
0000
0000
1000
0000
0000
0001
0000
0000
0010
0000
0000
,
0100
0000
0000
1000
0000
0000
0100
0000
0000
1000
0000
0000
0001
0000
0000
1000
0000
0000
0010
0000
1000
0000
0010
0000
1000
0000
0000
0010
0000
0000
0100
0000
0000
0001
0000
0000
0100
0000
0000
0001
0000
0000
1000
0000
0000
0010
0000
0000
,
0100
0000
0000
0001
0000
0000
0100
0000
0000
0001
0000
0000
1000
0000
0000
0001
0000
0000
0010
0000
0001
0000
0010
0000
0001
0000
0000
0010
0000
0000
0100
0000
0000
1000
0000
0000
0100
0000
0000
1000
0000
0000
0001
0000
0000
0010
0000
0000
,
0100
0000
0000
1000
0000
0000
0100
0000
0000
1000
0000
0000
0001
0000
0000
1000
0000
0000
0010
0000
1000
0000
0001
0000
0100
0000
0000
0010
0000
0000
0100
0000
0001
0000
1000
0000
0001
0000
0000
1000
0000
0000
0001
0000
0000
0010
0000
0000
,
0100
0000
0000
1000
0000
0000
0100
0000
0000
0010
0000
0000
0001
0000
0000
1000
0000
0000
0100
0000
0010
0000
0001
0000
1000
0000
0000
0001
0000
0000
1000
0000
0100
0000
0010
0000
0001
0000
0000
1000
0000
0000
0010
0000
0000
0100
0000
0000
,
0001
0000
0000
1000
0000
0000
0001
0000
0000
0100
0000
0000
0010
0000
0000
1000
0000
0000
0001
0000
0100
0000
0010
0000
0100
0000
0000
0001
0000
0000
1000
0000
0010
0000
1000
0000
0001
0000
0000
0100
0000
0000
0001
0000
0000
1000
0000
0000
,
0001
0000
0000
0010
0000
0000
0001
0000
0000
1000
0000
0000
0100
0000
0000
0010
0000
0000
0001
0000
1000
0000
0100
0000
0010
0000
0000
0001
0000
0000
1000
0000
0100
0000
1000
0000
0001
0000
0000
0010
0000
0000
0001
0000
0000
1000
0000
0000
,
0001
0000
0000
0100
0000
0000
0001
0000
0000
1000
0000
0000
0010
0000
0000
0100
0000
0000
0001
0000
1000
0000
0001
0000
0100
0000
0000
0010
0000
0000
1000
0000
0010
0000
0100
0000
0001
0000
0000
1000
0000
0000
0001
0000
0100
0000
0010
0000
,
1000
0000
0000
0001
0000
0000
1000
0000
0010
0000
0100
0000
0001
0000
0000
1000
0000
0000
0001
0000
0100
0000
0010
0000
1000
0000
0000
0001
0000
0000
1000
0000
0100
0000
0010
0000
0001
0000
0000
1000
0000
0000
0001
0000
0010
0000
0100
0000
,
1000
0000
0000
0001
0000
0000
1000
0000
0100
0000
0010
0000
0001
0000
0000
1000
0000
0000
0001
0000
0010
0000
0100
0000
1000
0000
0000
0001
0000
0000
0100
0000
0010
0000
1000
0000
0001
0000
0000
1000
0000
0000
0010
0000
0100
0000
0001
0000
,
1000
0000
0000
0001
0000
0000
0010
0000
0100
0000
1000
0000
0001
0000
0000
1000
0000
0000
0100
0000
0010
0000
0001
0000
0200
0000
0000
0000
0000
0000
0000
0000
0000
0000
0000
0000
0310
1000
0010
0100
0000
0000
0000
0000
0000
0000
0000
0000
,
0002
0000
2003
0000
3001
0010
0100
1000
0100
1000
0001
1000
0010
0100
0001
0100
,
0010
1000
0001
1000
0100
0010
0001
1000
0100
1000
0001
1000
0010
0100
0010
0100
,
0001
0100
0001
1000
0100
0010
0001
0100
0001
1000
0010
1000
0100
1000
0010
1000
,
0100
1000
0010
0100
0001
1000
0001
0100
0010
1000
0100
0010
0001
1000
0001
0010
,
0100
0000
0000
1000
0000
0000
0001
0000
1000
0000
0001
0000
1000
0000
0000
0010
0000
0000
0100
0000
0000
0001
0000
0000
0100
0000
0000
0001
0000
0000
1000
0000
0000
0001
0000
0000
1000
0000
0000
0100
0000
0000
1000
0000
0000
0100
0000
0000
,
0010
0001
1000
0001
0100
0010
0100
0001
1000
0001
0100
0010
1000
0001
1000
0100
,
0010
0001
0010
0100
1000
0010
0100
0001
1000
0100
0010
0001
0100
0001
0010
0001
,
0100
0001
0010
0100
1000
0001
0010
0001
1000
0010
0100
0001
1000
0100
1000
0100
,
0010
0000
0000
0001
0000
0000
1000
0000
0001
0000
1000
0000
0001
0000
0000
0100
0000
0000
0010
0000
0000
1000
0000
0000
0010
0000
0000
1000
0000
0000
0001
0000
0000
1000
0000
0000
0100
0000
0000
0010
0000
0000
0001
0000
0000
0010
0000
0000
,
0100
1000
0001
1000
0010
0100
0001
1000
0010
1000
0001
1000
0100
0010
0100
0010
,
0001
0010
0001
1000
0010
0100
0001
1000
0001
0100
0010
1000
0100
1000
0010
1000
,
0100
1000
0010
1000
0001
0100
0001
0010
0100
1000
0010
0100
0001
1000
0001
0100
,
0010
0000
0000
1000
0000
0000
0001
0000
1000
0000
0001
0000
1000
0000
0000
0100
0000
0000
0010
0000
0000
0001
0000
0000
0010
0000
0000
0001
0000
0000
1000
0000
0000
0001
0000
0000
1000
0000
0000
0010
0000
0000
1000
0000
0000
0010
0000
0000
,
0100
0001
1000
0001
0010
0100
0010
0001
1000
0001
0010
0100
1000
0001
1000
0010
,
0100
0001
0100
0010
1000
0001
0100
0001
1000
0010
0100
0001
0010
0001
0100
0001
,
0010
0001
0100
0001
1000
0100
0010
0100
1000
0001
1000
0010
0100
0001
0100
0010
,
0100
0000
0000
0001
0000
0000
1000
0000
0001
0000
1000
0000
0001
0000
0000
0010
0000
0000
0100
0000
0000
1000
0000
0000
0100
0000
0000
1000
0000
0000
0001
0000
0000
1000
0000
0000
0010
0000
0000
0100
0000
0000
0001
0000
0000
0100
0000
0000
,
0010
1000
0001
1000
0100
0010
0001
1000
0100
1000
0001
1000
0010
0100
0010
0100
,
0001
0100
0001
1000
0100
0010
0001
1000
0001
0010
0100
1000
0010
1000
0100
1000
,
0010
1000
0100
0010
0001
1000
0001
0100
0010
1000
0100
0010
0001
1000
0001
0010
,
0100
0000
0000
1000
0000
0000
0001
0000
1000
0000
0001
0000
1000
0000
0000
0010
0000
0000
0100
0000
0000
0001
0000
0000
0100
0000
0000
0001
0000
0000
1000
0000
0000
0001
0000
0000
1000
0000
0000
0100
0000
0000
1000
0000
0000
0100
0000
0000
,
0010
0001
1000
0001
0100
0010
0100
0001
1000
0001
0100
0010
1000
0001
1000
0100
,
0010
0001
0010
0100
1000
0010
0100
0001
1000
0100
0010
0001
0100
0001
0010
0001
,
0100
0001
0010
0100
1000
0001
0010
0001
1000
0010
0100
0001
1000
0100
1000
0100
,
0010
0000
0000
0001
0000
0000
1000
0000
0001
0000
1000
0000
0001
0000
0000
0100
0000
0000
0010
0000
0000
1000
0000
0000
0010
0000
0000
1000
0000
0000
0001
0000
0000
1000
0000
0000
0100
0000
0000
0010
0000
0000
0001
0000
0000
0010
0000
0000
,
0100
1000
0001
1000
0010
0100
0001
1000
0010
1000
0001
1000
0100
0010
0100
0010
,
0001
0010
0001
1000
0010
0100
0001
1000
0001
0100
0010
1000
0100
1000
0010
1000
,
0100
1000
0010
0100
0001
0010
0001
0010
0100
1000
0010
0100
0001
1000
0001
0100
,
0010
0000
0000
1000
0000
0000
0001
0000
1000
0000
0001
0000
1000
0000
0000
0100
0000
0000
0010
0000
0000
0001
0000
0000
0010
0000
0000
0001
0000
0000
1000
0000
0000
0001
0000
0000
1000
0000
0000
0010
0000
0000
1000
0000
0000
0010
0000
0000
,
0100
0001
1000
0001
0010
0100
0010
0001
1000
0001
0010
0100
1000
0001
1000
0010
,
0100
0001
0100
0010
1000
0001
0100
0001
1000
0010
0100
0001
0010
0001
0100
0001
,
0010
0001
0100
0010
1000
0001
1000
0100
0010
0001
1000
0010
0100
0001
0100
0010
,
1000
0000
0000
0001
0000
0000
1000
0000
0001
0000
1000
0000
0001
0000
0000
1000
0000
0000
0001
0000
0000
1000
0000
0000
0001
0000
0000
0010
0000
0000
0001
0000
0000
0010
0000
0000
0100
0000
0000
1000
0000
0000
0100
0000
0000
1000
0000
0000
,
0001
1000
0001
1000
0001
0100
0001
0100
0010
1000
0010
1000
0001
0100
0001
0100
,
0010
1000
0010
1000
0001
1000
0010
0100
0001
1000
0010
1000
0100
0010
0001
0010
,
0100
1000
0001
1000
0100
0010
0001
0100
0010
1000
0001
1000
0010
0100
0001
0010
,
0100
1000
0100
1000
0001
0100
0010
1000
0001
0010
0001
0010
0100
1000
0100
1000
,
0001
1000
0001
1000
0001
0100
0001
0100
0010
1000
0010
1000
0001
0100
0001
0100
,
0010
1000
0010
1000
0001
1000
0010
0100
0001
1000
0010
1000
0100
0010
0001
0010
,
0100
1000
0001
1000
0100
0010
0001
0100
0010
1000
0010
0100
0001
1000
0100
1000
,
0010
1000
0100
0010
0001
0100
0010
1000
0001
0010
0001
0010
0100
1000
0100
1000
,
0001
1000
0001
1000
0001
0100
0001
0100
0010
1000
0010
1000
0001
0100
0001
0100
,
0010
1000
0010
1000
0001
1000
0010
0100
0001
1000
0010
1000
0100
0010
0001
0010
,
0100
1000
0001
1000
0100
0010
0001
0100
0010
1000
0001
1000
0010
0100
0001
0010
,
0100
1000
0100
1000
0001
0100
0010
1000
0001
0010
0001
0010
0100
1000
0100
1000
,
0001
1000
0001
1000
0001
0100
0001
0100
0010
1000
0010
1000
0001
0100
0001
0100
,
0010
1000
0010
1000
0001
1000
0010
0100
0001
1000
0010
1000
0100
0010
0001
0010
,
0100
1000
0100
0010
0001
1000
0001
1000
0001
1000
0001
1000
0010
0100
0010
1000
,
0001
0000
0010
0000
0100
1000
0100
0010
0100
1000
0100
0010
0100
1000
0001
1000
,
0010
1000
0001
0100
0010
1000
0010
0100
0010
1000
0100
0010
0001
1000
0010
0100
,
0001
0100
0010
1000
0001
1000
0100
1000
0001
1000
0100
1000
0001
0100
0010
0100
,
0001
1000
0010
1000
0100
0010
0001
0010
0100
1000
0010
0100
0010
1000
0001
1000
,
0001
0000
1000
0000
0010
1000
0010
0100
0010
1000
0010
0100
0010
1000
0001
1000
,
0100
1000
0001
0010
0100
1000
0100
0010
0100
1000
0010
0100
0001
1000
0100
0010
,
0001
0010
0100
1000
0001
1000
0010
1000
0001
1000
0010
1000
0001
0010
0100
0010
,
0001
1000
0100
1000
0010
0100
0001
0100
0010
1000
0100
0010
0100
1000
0001
1000
,
0001
0010
0100
1000
0001
0000
0000
0000
1001
0000
0000
0000
1001
0000
0001
0000
,
0011
1100
1001
0101
,
1010
0010
0101
0000
1001
0000
1001
1000
,
1100
0011
0110
1001
,
0101
0000
0001
0000
1000
0010
0100
0001
1000
0010
0100
0001
1000
0100
0010
0100
,
1000
0001
1000
0001
1000
0010
0100
0001
1000
0010
0100
0001
1000
0010
0100
0001
,
1000
0001
0010
0001
1000
0100
0010
0001
1000
0100
0010
0001
1000
0010
0100
0010
,
1000
0001
1000
0001
1000
0100
0010
0001
1000
0100
0010
0001
1000
0100
0010
0001
,
1000
0001
0100
0001
1000
0010
0100
0010
1000
0001
1000
0001
1000
0100
0010
0001
,
1000
0001
0100
0001
1000
0010
0100
0001
1000
0001
1000
0001
1000
0100
0010
0001
,
1000
0001
0100
0001
1000
0010
0100
0001
1000
0001
0010
0100
1000
0001
1000
0001
,
0100
0010
0100
0001
1000
0001
0010
0100
1000
0010
0100
0001
1000
0001
1000
0001
,
0010
0100
0010
0001
1000
0001
0100
0010
1000
0100
0010
0001
1000
0001
1000
0001
,
0100
0010
0100
0001
0010
0100
0010
0001
1000
0001
0100
0010
1000
0001
1000
0001
,
1000
0100
0010
0001
0100
0010
1000
0001
1000
0100
0010
0001
1000
0001
1000
0001
,
0010
0100
1000
0001
0100
0010
0100
0001
1000
0001
0010
0100
1000
0010
0100
0010
,
1000
0001
1000
0001
0010
0100
1000
0001
0010
0100
1000
0100
0010
0001
0100
0010
,
0100
0001
1000
0010
0100
0010
1000
0001
0100
0010
0100
0001
1000
0001
0010
0100
,
1000
0001
0010
0100
1000
0010
0100
0010
1000
0001
0100
0010
0100
0001
0010
0100
,
0010
0001
1000
0100
1000
0100
0010
0001
1000
0001
0100
0010
1000
0001
0100
0001
,
1000
0001
0010
0001
1000
0100
1000
0001
0010
0100
1000
0001
0010
0001
0100
0001
,
1000
0010
0100
0001
0100
0001
1000
0010
0100
0001
1000
0001
0010
0100
1000
0001
,
0100
0010
0100
0001
1000
0001
0010
0100
1000
0001
0010
0100
1000
0010
0100
0001
,
0100
0010
1000
0100
1000
0100
0010
0001
1000
0001
0100
0010
1000
0010
0100
0001
,
1000
0001
0010
0001
1000
0100
0010
0001
1000
0100
0010
0001
1000
0010
1000
0010
,
0100
0001
0010
0100
1000
0100
0010
0001
1000
0100
1000
0001
1000
0001
0100
0010
,
1000
0001
0100
0001
1000
0100
0010
0001
1000
0100
0010
0001
1000
0100
0010
0001
,
0010
0001
0100
0010
1000
0001
0010
0100
0010
0100
1000
0100
0010
0001
1000
0100
,
1000
0001
1000
0010
1000
0100
0010
0001
1000
0100
0010
0001
1000
0010
1000
0010
,
0100
0001
0010
0100
1000
0100
0010
0001
1000
0001
0010
0001
0100
0010
0100
0001
,
1000
0001
0010
0001
1000
0100
0010
0001
1000
0100
0010
0001
1000
0100
0010
0001
,
1000
0001
1000
0001
0100
0010
0100
0001
1000
0010
0100
0001
1000
0001
1000
0100
,
0010
0001
1000
0001
1000
0100
0010
0001
1000
0100
1000
0001
1000
0010
0100
0001
,
1000
0010
1000
0001
1000
0001
0010
0100
1000
0001
0010
0001
1000
0001
0100
0010
,
1000
0010
0100
0001
1000
0001
0010
0100
0010
0001
1000
0001
0100
0010
1000
0001
,
0100
0001
1000
0001
0010
0100
1000
0001
0010
0001
1000
0001
0100
0010
1000
0010
,
0100
0001
1000
0001
0010
0100
1000
0100
0010
0001
1000
0001
0100
0010
1000
0001
,
1000
0100
0010
0100
1000
0001
1000
0010
0100
0010
1000
0001
1000
0100
0010
0001
,
1000
0001
0100
0010
0100
0001
1000
0001
0010
0100
1000
0001
1000
0010
0100
0001
,
1000
0001
0010
0100
1000
0010
0100
0001
1000
0100
0010
0001
1000
0010
0100
0001
,
1000
0100
0010
0001
1000
0010
0100
0010
0100
0001
1000
0001
0100
0010
0100
0001
,
1000
0001
0010
0001
1000
0100
0010
0001
0010
0001
1000
0100
0010
0100
1000
0010
,
0100
0001
0100
0001
1000
0100
0010
0001
1000
0001
0100
0001
1000
0010
1000
0001
,
0010
0100
0010
0001
1000
0001
0010
0100
1000
0001
0100
0010
0100
0001
1000
0010
,
1000
0001
0010
0001
1000
0100
0010
0001
0010
0001
1000
0100
0010
0001
0010
0001
,
1000
0001
0010
0100
1000
0001
0100
0010
0100
0010
1000
0010
0100
0001
0100
0001
,
1000
0001
0100
0010
1000
0100
0010
0001
0010
0001
1000
0001
0010
0100
0010
0100
,
1000
0100
0010
0001
1000
0001
1000
0010
0100
0001
1000
0001
0100
0010
1000
0100
,
0010
0001
0100
0010
1000
0001
1000
0001
0100
0010
1000
0001
1000
0001
0100
0001
,
1000
0001
0010
0100
1000
0001
1000
0010
0100
0010
1000
0001
0100
0001
1000
0100
,
1000
0001
1000
0010
0100
0001
1000
0001
0100
0010
1000
0100
0010
0001
1000
0001
,
0010
0100
1000
0010
0100
0001
1000
0010
0100
0001
1000
0010
0100
0001
0100
0010
,
1000
0001
1000
0001
1000
0001
1000
0000
0000
1000
0000
0000
0000
0000
0000
0000
0000
0000
0100
0000
0000
0000
0000
0000
,
0010
0000
0100
0000
0000
0000
0010
0000
0001
0000
1000
0000
0001
0100
0010
1000
,
0100
1000
0010
0100
0001
1000
0010
1000
0001
0100
0010
1000
0001
1000
0100
0010
,
0001
0100
0010
0100
0001
1000
0010
1000
0001
0010
0100
1000
0010
0100
0001
0100
,
0010
1000
0001
1000
0100
0010
0001
1000
0100
0010
0100
1000
0010
0100
0010
1000
,
0001
1000
0100
0010
0001
0100
0010
0100
0001
1000
0010
1000
0100
0010
0001
0100
,
0010
1000
0010
0100
0001
1000
0001
1000
0100
0010
0100
1000
0001
0100
0010
1000
,
0100
0010
0100
1000
0001
0010
0100
1000
0001
0100
0001
1000
0100
0010
0001
0100
,
0010
1000
0010
0100
0001
1000
0001
1000
0100
0010
0100
1000
0001
0100
0010
1000
,
0100
0010
0001
1000
0001
0100
0010
1000
0100
0010
0001
0100
0010
1000
0010
0100
,
0001
1000
0010
1000
0001
0100
0001
0100
0001
0100
0010
1000
0010
1000
0010
1000
,
0001
0100
0001
0100
0010
1000
0001
1000
0001
0100
0001
0100
0010
1000
0010
1000
,
0001
0100
0001
1000
0100
0010
0100
0010
0100
1000
0001
0010
0001
0010
0001
1000
,
0100
1000
0100
1000
0100
0010
0001
1000
0100
0010
0100
1000
0001
0010
0001
1000
,
0100
1000
0001
1000
0010
0100
0010
0100
0010
1000
0001
0100
0001
0100
0001
1000
,
0010
0100
0010
0100
0010
1000
0001
1000
0010
0100
0001
0100
0010
1000
0001
1000
,
0010
0100
0010
1000
0100
0010
0100
0010
0100
1000
0001
0100
0001
0100
0001
1000
,
0100
0010
0100
0010
0100
1000
0001
0010
0001
0010
0001
1000
0100
1000
0100
0010
,
0001
1000
0001
1000
0001
0100
0010
1000
0010
1000
0100
0010
0001
0010
0001
0010
,
0001
0100
0010
1000
0001
1000
0001
0100
0010
1000
0010
0100
0001
1000
0001
0100
,
0010
1000
0010
0100
0001
1000
0100
0010
0001
1000
0100
1000
0001
0100
0010
1000
,
0001
1000
0010
0100
0001
1000
0001
1000
0001
0100
0010
1000
0100
0010
0001
1000
,
0001
0010
0100
1000
0001
1000
0100
0010
0001
1000
0010
0100
0010
1000
0100
0010
,
0001
1000
0001
0010
0100
1000
0001
1000
0010
1000
0001
0100
0001
1000
0010
1000
,
0001
1000
0001
1000
0100
0010
0001
1000
0100
1000
0010
0100
0001
0100
0010
1000
,
0100
0010
0001
1000
0100
1000
0010
0100
0001
0100
0010
1000
0100
1000
0001
1000
,
0010
1000
0100
0010
0001
1000
0001
0100
0001
1000
0100
0010
0001
1000
0001
0100
,
0001
0010
0001
1000
0010
0100
0010
1000
0010
0100
0001
0010
0100
1000
0100
0010
,
0100
1000
0100
0010
0001
1000
0001
0100
0001
1000
0100
0010
0001
1000
0001
0100
,
0001
1000
0001
0010
0100
1000
0001
0010
0001
1000
0001
0100
0010
1000
0100
0010
,
0100
1000
0010
0100
0001
1000
0001
0010
0001
1000
0010
0100
0001
1000
0001
0010
,
0001
0100
0001
1000
0100
0010
0100
1000
0100
0010
0001
0100
0010
1000
0010
0100
,
0010
1000
0010
0100
0001
1000
0001
0010
0001
1000
0010
0100
0001
1000
0001
0010
,
0001
1000
0001
0100
0010
1000
0001
0100
0001
1000
0001
0010
0100
1000
0010
0100
,
0010
1000
0100
0010
0001
1000
0100
1000
0001
1000
0010
0100
0001
1000
0100
1000
,
0001
1000
0010
1000
0001
0010
0100
0010
0001
0010
0100
1000
0001
0100
0010
0100
,
0001
0100
0010
0100
0001
1000
0100
1000
0001
1000
0010
0100
0001
1000
0100
1000
,
0001
1000
0010
1000
0001
0100
0001
0010
0100
0010
0001
0010
0100
1000
0001
0100
,
0010
0100
0001
0010
0100
1000
0001
1000
0010
1000
0001
0010
0100
1000
0001
1000
,
0010
1000
0001
1000
0100
0010
0001
0010
0100
0010
0001
1000
0010
0100
0001
0100
,
0010
0100
0001
0100
0010
0000
2000
0000
3002
0000
2003
0000
3002
0000
0003
0000
,
0011
0000
1100
2000
3000
0001
0101
0000
,
1010
0000
0000
0000
1000
0010
0100
0001
0100
0010
1000
0001
1000
0100
0010
0001
,
1000
0001
0100
0001
1000
0010
1000
0001
0010
0100
1000
0100
0010
0001
0010
0001
,
0100
0010
1000
0100
0010
0001
1000
0010
0100
0001
0100
0010
1000
0100
0010
0001
,
1000
0010
0100
0010
1000
0100
0010
0001
0100
0001
1000
0010
0100
0001
1000
0001
,
0010
0100
1000
0010
0100
0001
0100
0010
1000
0100
0010
0100
1000
0010
0100
0001
,
1000
0001
0010
0100
1000
0001
0010
0001
0100
0001
1000
0010
0100
0010
1000
0001
,
1000
0100
0010
0001
0100
0010
1000
0100
0010
0001
1000
0001
0100
0010
1000
0001
,
0010
0100
1000
0010
0100
0001
1000
0001
1000
0001
1000
0001
1000
0100
0010
0001
,
1000
0010
0100
0001
1000
0100
0010
0001
0010
0100
1000
0001
1000
0010
0100
0001
,
1000
0001
0010
0001
1000
0100
1000
0001
0100
0010
1000
0010
0100
0001
0100
0001
,
0010
0100
1000
0010
0100
0001
1000
0100
0010
0001
0010
0100
1000
0010
0100
0001
,
1000
0100
0010
0100
1000
0010
0100
0001
0010
0001
1000
0100
0010
0001
1000
0001
,
0100
0010
1000
0100
0010
0001
1000
0001
0100
0010
0100
0001
1000
0001
0010
0100
,
1000
0001
1000
0001
0010
0001
0010
0001
1000
0100
1000
0001
1000
0010
0100
0001
,
1000
0001
0100
0001
0010
0100
1000
0100
0010
0001
1000
0001
0010
0100
0010
0001
,
1000
0100
0010
0001
1000
0010
0100
0001
0100
0001
0100
0001
1000
0010
0100
0001
,
1000
0100
0010
0001
0200
0000
0000
0000
0000
0000
0000
0000
0300
0000
0000
0000
,
2001
0001
0000
0000
,
3020
0000
0000
0000
,
0230
0000
0000
0000
,
0302
0000
0000
0000
,
2003
0000
0000
0000
,
3200
0000
0000
0000
,
0320
0000
0032
0023
,
0230
0000
0000
0000
,
1300
0000
0000
0100
1000
0000
0002
0000
0000
0000
0000
0000
0003
0000
1000
0000
0010
0000
0100
0000
0010
0000
1000
0000
,
0200
0000
0000
0000
0310
0100
2000
0000
0000
3002
0000
0000
,
0103
0010
2000
0000
3001
1000
0020
0000
0000
0230
0000
0000
,
0302
0000
M000
0000
,
1003
0100
0010
0001
1000
0100
0010
0001
1000
0100
0010
0001
1000
0100
0010
0001
1000
0001
0100
0010
1000
0001
0100
0010
1000
0001
0100
0010
1000
0001
0100
0010
,
1000
0001
0010
0001
1000
0100
0010
0001
1000
0001
1000
0100
0010
0001
1000
0001
0100
0010
1000
0010
0100
0001
0100
0001
1000
0010
0100
0001
0100
0010
1000
0001
,
1000
0100
0010
0001
1000
0001
0010
0001
1000
0100
1000
0100
0010
0001
1000
0001
0100
0001
1000
0010
1000
0001
0100
0001
1000
0001
1000
0100
0010
0001
0010
0100
,
1000
0000
0001
0000
1000
0000
0001
0000
1000
0000
0010
0000
1000
0000
0010
0000
0100
0000
0001
0000
1000
0000
0001
0000
0010
0000
0100
0000
1000
0000
0001
0000
0100
0000
0000
0000
0000
0000
0000
0000
0010
0000
0000
0000
0000
0000
0000
0000
4000
3000
0040
0030
4000
3000
0040
0030
0400
0300
0004
0003
0400
0300
0004
0003
,
10M0
0000
0000
0000
00M0
0000
0000
0000
1000
0000
0000
0000
0000
0000
0000
0000
0001
0000
1000
0000
0010
0000
0100
0000
0004
0003
4000
3000
0400
0300
0040
0030
,
0001
1000
0001
1000
0010
0100
0010
1000
0001
0100
0010
1000
0001
1000
0100
0010
,
0001
0000
0000
1000
0000
0000
0001
0000
1000
0000
0100
0000
0010
0000
0000
0001
0000
0000
1000
0000
0000
0100
0000
0000
1000
0000
0000
0001
0000
0000
0100
0000
0000
0001
0000
0000
0010
0000
0000
0001
0000
0000
1000
0000
0000
0010
0000
0000
,
1000
0001
0010
0001
1000
0100
0010
0001
1000
0001
0010
0001
1000
0001
0100
0010
,
1000
0000
0000
0010
0000
0000
0100
0000
0000
0001
0000
0000
1000
0000
0000
0001
0000
0000
0010
0000
0100
0000
1000
0000
0001
0000
0000
1000
0000
0000
0100
0000
0010
0000
0001
0000
1000
0000
0000
0001
0000
0000
1000
0000
0010
0000
0100
0000
,
0001
1000
0010
1000
0001
0100
0001
1000
0010
1000
0100
0010
0001
0010
0100
1000
,
0001
0000
0000
1000
0000
0000
0010
0000
0000
0100
0000
0000
0001
0000
0000
1000
0000
0000
0001
0000
0000
0100
0000
0000
0010
0000
0000
1000
0000
0000
0001
0000
0000
1000
0000
0000
0100
0000
0000
0010
0000
0000
0001
0000
1000
0000
0001
0000
,
1000
0100
0010
0001
1000
0001
0100
0010
1000
0010
0100
0001
1000
0001
1000
0100
,
0010
0000
0001
0000
1000
0000
0100
0000
0010
0000
0001
0000
0010
0000
0001
0000
1000
0000
0001
0000
0100
0000
0010
0000
4000
3000
0004
0003
0040
0030
0400
0300
,
1000
0001
1000
0001
0100
0010
0100
0001
1000
0001
0100
0010
1000
0100
0010
0100
,
1000
0000
0000
0001
0000
0000
0010
0000
0000
0001
0000
0000
0010
0000
0000
0001
0000
0000
1000
0000
0000
0010
0000
0000
1000
0000
0000
0001
0000
0000
0100
0000
0000
0001
0000
0000
0010
0000
0000
0001
0000
0000
1000
0000
0100
0000
1000
0000
,
0001
0100
0001
1000
0010
0100
0001
0100
0010
1000
0001
1000
0010
0100
0001
0010
,
0100
0000
0000
1000
0000
0000
0001
0000
0000
1000
0000
0000
0100
0000
0000
0010
0000
0000
0001
0000
1000
0000
0001
0000
1000
0000
0000
0010
0000
0000
0100
0000
0010
0000
1000
0000
0001
0000
0000
0100
0000
0000
0010
0000
0100
0000
0001
0000
,
1000
0001
1000
0100
0010
0001
1000
0100
1000
0001
0100
0010
0100
0001
1000
0010
,
0100
0000
0000
0001
0000
0000
1000
0000
0000
0001
0000
0000
0010
0000
0000
0100
0000
0000
0010
0000
0000
0001
0000
0000
1000
0000
0000
0100
0000
0000
0010
0000
0001
0000
1000
0000
0001
0000
0000
1000
0000
0000
0010
0000
0000
0100
0000
0000
,
0010
1000
0001
1000
0100
0010
0001
1000
0100
0010
0001
1000
0100
1000
0001
1000
,
0100
0000
0010
0000
0001
0000
1000
0000
0001
0000
0100
0000
0001
0000
1000
0000
0010
0000
1000
0000
0001
0000
1000
0000
0400
0300
0040
0030
0004
0003
0040
0030
,
0100
1000
0001
1000
0001
0100
0010
1000
0010
0100
0001
1000
0001
0010
0100
1000
,
0001
0000
0000
0010
0000
0000
0001
0000
1000
0000
0100
0000
0010
0000
0000
0001
0000
0000
1000
0000
0000
0010
0000
0000
1000
0000
0000
0001
0000
0000
0100
0000
0000
0001
0000
0000
0010
0000
0000
0001
0000
0000
1000
0000
0000
0100
0000
0000
,
1000
0001
0100
0001
1000
0010
0100
0001
1000
0001
0100
0010
1000
0100
0010
0001
,
1000
0000
0000
0100
0000
0000
1000
0000
0000
0001
0000
0000
0100
0000
0000
0010
0000
0000
0100
0000
0001
0000
1000
0000
0001
0000
0000
0100
0000
0000
0010
0000
1000
0000
0001
0000
0100
0000
0000
0010
0000
0000
1000
0000
0001
0000
1000
0000
,
0001
0010
0100
1000
0001
1000
0010
0100
0001
0010
0100
1000
0100
1000
0001
1000
,
0010
0100
0010
1000
0001
1000
0100
0010
0001
1000
0100
1000
0001
0100
0010
0100
,
0001
0100
0010
1000
0001
1000
0100
0010
0001
1000
0001
1000
0100
0010
0001
1000
,
0001
0000
0100
0000
0001
0000
1000
0000
0010
0000
0100
0000
0010
0000
0100
0000
0001
0000
1000
0000
0001
0000
0010
0000
0400
0300
4000
3000
0400
0300
0040
0030
,
0001
1000
0010
0100
0001
1000
0010
1000
0001
0100
0010
1000
0100
0010
0100
1000
,
0001
0010
0001
1000
0100
0010
0001
1000
0001
0100
0010
0100
0001
0010
0001
1000
,
0100
1000
0001
0100
0010
1000
0010
0100
0001
1000
0010
1000
0001
1000
0100
0010
,
0001
0000
0000
1000
0000
0000
0001
0000
0000
0100
0000
0000
0010
0000
0000
1000
0000
0000
0001
0000
0100
0000
0010
0000
1000
0000
0000
0001
0000
0000
0100
0000
0010
0000
0100
0000
0001
0000
0000
1000
0000
0000
0010
0000
0100
0000
0001
0000
,
1000
0001
1000
0100
0010
0001
1000
0100
0010
0001
1000
0001
0100
0010
1000
0001
,
0100
0010
1000
0001
1000
0100
0010
0001
1000
0100
0010
0001
1000
0001
0100
0010
,
1000
0010
0100
0001
1000
0100
0010
0001
1000
0001
0010
0100
1000
0001
1000
0010
,
0100
0001
0100
0010
1000
0001
1000
0001
1000
0100
1000
0100
0040
0034
0043
0034
,
0403
0304
0403
0304
1003
0100
0010
0001
1000
0100
1000
0001
0100
0010
1000
0010
,
0100
0001
1000
0001
0010
0100
1000
0010
1000
0001
0100
0001
0010
0001
1000
0100
,
1000
0001
0100
0001
1000
0010
0100
0010
1000
0001
1000
0001
0010
0001
1000
0100
,
1000
0001
0010
0001
1000
0001
0100
0010
1000
0001
0100
0001
1000
0001
0010
0001
,
1000
0100
1000
0100
0010
0001
1000
0001
0100
0010
1000
0010
0100
0001
1000
0100
,
0010
0001
1000
0001
0100
0010
1000
0001
0100
0010
1000
0001
1000
0100
0010
0001
,
1000
0100
0010
0001
1000
0010
0100
0010
1000
0001
0100
0010
1000
0001
1000
0001
,
0010
0000
0100
0000
1000
0000
0001
0000
1000
0000
0001
0000
1000
0000
0010
0000
0100
0000
0001
0000
1000
0000
0001
0000
4000
3000
0400
0300
0040
0030
0004
0003
,
1000
0010
1000
0001
1000
0010
0100
0001
1000
0010
1000
0001
0010
0100
1000
0100
,
0010
0001
1000
0001
0100
0010
1000
0100
1000
0001
0010
0001
0100
0001
1000
0010
,
1000
0001
0010
0001
1000
0100
0010
0100
1000
0001
1000
0001
0100
0001
1000
0010
,
1000
0001
0100
0001
1000
0001
0010
0100
1000
0001
0010
0001
1000
0001
0100
0001
,
1000
0010
1000
0010
0100
0001
1000
0001
0010
0100
1000
0100
0010
0001
1000
0010
,
0100
0001
1000
0001
0010
0100
1000
0001
0010
0100
1000
0001
1000
0010
0100
0001
,
1000
0010
0100
0001
1000
0100
0010
0100
1000
0001
0010
0100
1000
0001
1000
0001
,
0100
0000
0010
0000
1000
0000
0001
0000
1000
0000
0001
0000
1000
0000
0010
0000
0100
0000
0001
0000
1000
0000
0001
0000
4000
3000
0400
0300
0040
0030
0004
0003
,
0100
0001
0100
0001
1000
0100
0010
0001
1000
0100
1000
0001
0100
0010
1000
0010
,
0100
0001
1000
0001
0010
0100
1000
0010
1000
0001
0100
0001
0010
0001
1000
0100
,
1000
0001
0100
0001
1000
0010
0100
0010
1000
0001
1000
0001
0010
0001
1000
0100
,
1000
0001
0010
0001
1000
0001
0100
0010
1000
0001
0100
0001
1000
0001
0010
0001
,
1000
0100
1000
0100
0010
0001
1000
0001
0100
0010
1000
0010
0100
0001
1000
0100
,
0010
0001
1000
0001
0100
0010
1000
0001
0100
0010
1000
0001
1000
0100
0010
0001
,
1000
0100
0010
0001
1000
0010
0100
0010
1000
0001
0100
0010
1000
0001
1000
0001
,
0010
0000
0100
0000
1000
0000
0001
0000
1000
0000
0001
0000
1000
0000
0010
0000
0100
0000
0001
0000
1000
0000
0001
0000
4000
3000
0400
0300
0040
0030
0004
0003
,
1000
0010
1000
0001
1000
0010
0100
0001
1000
0010
1000
0001
0010
0100
1000
0100
,
0010
0001
1000
0001
0100
0010
1000
0100
1000
0001
0010
0001
0100
0001
1000
0010
,
1000
0001
0010
0001
1000
0100
0010
0100
1000
0001
1000
0001
0100
0001
1000
0010
,
1000
0001
0100
0001
1000
0001
0010
0100
1000
0001
0010
0001
1000
0001
0100
0001
,
1000
0010
1000
0010
0100
0001
1000
0001
0010
0100
1000
0100
0010
0001
1000
0010
,
0100
0001
1000
0001
0010
0100
1000
0001
0010
0100
1000
0001
1000
0010
0100
0001
,
1000
0010
0100
0001
1000
0100
0010
0100
1000
0001
0010
0100
1000
0001
1000
0001
,
0100
0000
0010
0000
1000
0000
0001
0000
1000
0000
0001
0000
1000
0000
0010
0000
0100
0000
0001
0000
1000
0000
0001
0000
4000
3000
0400
0300
0040
0030
0004
0003
,
1000
0001
1000
0001
0100
0010
0100
0001
1000
0100
0010
0001
0100
0010
0100
0010
,
1000
0100
0010
0001
1000
0010
0100
0010
1000
0100
0010
0001
0100
0010
1000
0010
,
1000
0100
0010
0001
1000
0100
1000
0001
1000
0010
0100
0001
0010
0100
0010
0100
,
1000
0010
0100
0001
1000
0100
0010
0100
1000
0010
0100
0001
0010
0100
1000
0100
,
1000
0010
0100
0001
1000
0001
0100
0001
1000
0100
0010
0001
1000
0010
0100
0010
,
1000
0100
0010
0001
1000
0001
0100
0001
1000
0100
0010
0001
0100
0010
1000
0001
,
1000
0100
0010
0001
1000
0100
1000
0001
1000
0010
0100
0001
1000
0100
0010
0100
,
1000
0010
0100
0001
1000
0001
0010
0001
1000
0010
0100
0001
0010
0100
0010
0001
,
1000
0010
0100
0001
0010
0100
0010
0001
1000
0010
0100
0001
0010
0100
0010
0100
,
1000
0010
0100
0001
1000
0100
0010
0100
1000
0010
0100
0001
0010
0100
1000
0100
,
1000
0010
0100
0001
1000
0010
1000
0001
1000
0100
0010
0001
0100
0010
0100
0010
,
1000
0100
0010
0001
1000
0010
0100
0010
1000
0100
0010
0001
0100
0010
1000
0010
,
1000
0100
0010
0001
1000
0001
0010
0001
1000
0010
0100
0001
1000
0100
0010
0100
,
1000
0010
0100
0001
1000
0001
0010
0001
1000
0010
0100
0001
0010
0100
1000
0001
,
1000
0010
0100
0001
1000
0010
1000
0001
1000
0100
0010
0001
1000
0010
0100
0010
,
1000
0100
0010
0001
1000
0001
0100
0001
1000
0100
0010
0001
0100
0010
0100
0001
,
1000
0100
0010
0001
1000
0010
1000
0001
1000
0010
0100
0001
1000
0010
0100
0010
,
1000
0010
0100
0001
1000
0100
1000
0001
1000
0100
0010
0001
1000
0100
0010
0100
,
1000
0100
0010
0001
1000
0001
0100
0001
1000
0010
0100
0001
0100
0010
0100
0001
,
1000
0010
0100
0001
1000
0001
0010
0001
1000
0100
0010
0001
0010
0100
0010
0001
,
1000
0100
0010
0001
1000
0001
0100
0010
1000
0010
0100
0001
0100
0010
1000
0001
,
1000
0010
0100
0001
1000
0001
0010
0100
1000
0100
0010
0001
0010
0100
1000
0001
,
1000
0100
0010
0001
1000
0100
0010
0100
1000
0010
0100
0001
1000
0100
0010
0100
,
1000
0010
0100
0001
1000
0010
0100
0010
1000
0100
0010
0001
1000
0010
0100
0010
,
1000
0100
0010
0001
1000
0100
1000
0001
1000
0100
0010
0001
1000
0100
0010
0100
,
1000
0100
0010
0001
1000
0010
1000
0001
1000
0010
0100
0001
1000
0010
0100
0010
,
1000
0010
0100
0001
1000
0001
0010
0001
1000
0100
0010
0001
0010
0100
0010
0001
,
1000
0100
0010
0001
1000
0001
0100
0001
1000
0010
0100
0001
0100
0010
0100
0001
,
1000
0010
0100
0001
1000
0001
0010
0100
1000
0100
0010
0001
0010
0100
1000
0001
,
1000
0100
0010
0001
1000
0001
0100
0010
1000
0010
0100
0001
0100
0010
1000
0001
,
1000
0010
0100
0001
1000
0010
0100
0010
1000
0100
0010
0001
1000
0010
0100
0010
,
1000
0100
0010
0001
1000
0100
0010
0100
1000
0010
0100
0001
1000
0100
0010
0100
,
1000
0010
0100
0001
1000
0010
0100
0001
1000
0100
0010
0001
1000
0010
0100
0001
,
1000
0100
0010
0001
1000
0010
0100
0001
1000
0100
0010
0001
1000
0010
0100
0001
,
1000
0100
0010
0001
1000
0001
0100
0010
1000
0001
0010
0100
1000
0001
0100
0010
,
1000
0001
0010
0100
1000
0001
0100
0010
1000
0001
0010
0100
1000
0001
0100
0010
,
1000
0001
0010
0100
1000
0010
0100
0010
1000
0100
0010
0100
1000
0001
0010
0001
,
0100
0010
0100
0001
1000
0010
0100
0010
1000
0100
0010
0100
1000
0001
0010
0001
,
0100
0010
0100
0001
1000
0100
0010
0100
1000
0010
0100
0010
1000
0001
0100
0001
,
0010
0100
0010
0001
1000
0100
0010
0100
1000
0010
0100
0010
1000
0001
0100
0001
,
0010
0100
0010
0001
1000
0100
1000
0010
0100
0001
0010
0001
1000
0100
1000
0010
,
0100
0001
0010
0001
1000
0010
1000
0100
0010
0001
0100
0001
1000
0010
1000
0100
,
0010
0001
0100
0001
1000
0100
0010
0001
0100
0001
1000
0100
1000
0100
0010
0001
,
0100
0001
1000
0100
1000
0010
0100
0001
0010
0001
1000
0010
1000
0010
0100
0001
,
0010
0001
1000
0010
0100
0001
1000
0001
0010
0100
1000
0001
0100
0001
1000
0001
,
0010
0100
1000
0001
0100
0010
1000
0001
1000
0100
1000
0001
0100
0010
1000
0001
,
1000
0100
1000
0001
0100
0010
1000
0001
0010
0100
1000
0001
0100
0010
1000
0001
,
0010
0100
1000
0001
0100
0001
1000
0100
0010
0100
1000
0001
1000
0010
0100
0001
,
1000
0000
0000
0000
0100
0000
0000
0000
0010
0000
0000
0000
0001
0000
0000
0000
2000
3000
0000
0000
0000
0000
0000
0000
0000
0000
0000
0000
0000
0000
0000
0000
0000
0000
0000
0000
0000
0000
0000
0000
0000
0000
0000
0000
0000
0000
0000
0000
0000
0000
0000
0000
0000
0000
0000
0000
0000
0000
0000
0000
0000
0000
0000
0000
,
0000
0000
0000
0000
,
0000
0000
0000
0000
1000
0000
1000
0000
0001
0100
0010
1000
0001
0000
0001
0000
,
1000
0100
0010
0001
0000
0000
0000
0000
0000
0000
0000
0000
0000
0000
0000
0000
,
0000
0000
0000
0000
0100
0000
0100
0000
0010
1000
0001
0010
0000
0000
0000
0000
,
0000
0000
0000
0000
,
0000
0000
0000
0000
0100
0000
0100
0000
1000
0001
0100
0010
1000
0000
1000
0000
,
0001
0010
0100
1000
0000
0000
0000
0000
0000
0000
0000
0000
0000
0000
0000
0000
,
0000
0000
0000
0000
0001
0000
0001
0000
1000
0010
0100
0001
0000
0000
0000
0000
,
0000
0000
0000
0000
,
0000
0000
0000
0000
0010
0000
0010
0000
0100
1000
0001
0100
0001
0000
0001
0000
,
1000
0100
0010
0001
0000
0000
0000
0000
0000
0000
0000
0000
0000
0000
0000
0000
,
0000
0000
0000
0000
1000
0000
1000
0000
0001
0100
0010
1000
0000
0000
0000
0000
,
0000
0000
0000
0000
,
0000
0000
0000
0000
0002
0000
2003
0000
3001
0010
0100
1000
0020
0000
0230
0000
,
0301
1000
0100
1000
0002
0000
0203
0000
0310
1000
0001
0010
0200
0000
2300
0000
,
3001
0100
0001
0100
0010
1000
0001
1000
0010
1000
0001
1000
0010
1000
0001
1000
,
0010
1000
0001
1000
0100
0010
0001
0010
0100
1000
0001
1000
0100
1000
0001
1000
,
0010
0100
0001
1000
0001
0010
0001
1000
0001
0010
0001
1000
0010
1000
0001
1000
,
0010
0100
0001
0100
0010
1000
0001
1000
0001
0100
0010
1000
0001
1000
0001
0010
,
0100
1000
0001
1000
0001
0010
0100
0010
0001
1000
0100
1000
0001
1000
0100
1000
,
0001
1000
0010
0100
0001
0100
0010
1000
0001
0100
0001
1000
0001
0100
0001
1000
,
0001
0010
0100
1000
0001
0010
0100
1000
0100
1000
0001
0010
0100
1000
0100
1000
,
0001
0010
0100
1000
0001
0100
0010
1000
0010
1000
0001
0100
0010
1000
0010
1000
,
0001
0100
0010
1000
0100
1000
0001
1000
0100
1000
0001
1000
0100
1000
0001
1000
,
0100
1000
0001
1000
0010
0100
0001
0100
0010
1000
0001
1000
0010
1000
0001
1000
,
0100
0010
0001
1000
0001
0100
0001
1000
0001
0100
0001
1000
0100
1000
0001
1000
,
0100
0010
0001
0010
0100
1000
0001
1000
0001
0010
0100
1000
0001
1000
0001
0100
,
0010
1000
0001
1000
0010
0100
0010
1000
0001
1000
0100
0010
0001
1000
0001
1000
,
0100
0010
0100
1000
0001
0100
0010
0100
0001
1000
0010
1000
0001
0010
0100
1000
,
0001
0100
0001
1000
0100
0010
0001
1000
0010
0100
0001
1000
0100
1000
0001
0100
,
0010
1000
0001
1000
0100
0010
0001
1000
0010
1000
0001
0010
0001
1000
0100
0010
,
0001
1000
0001
1000
0001
0000
0000
0000
0000
0000
0000
0000
0000
0000
0000
0000
,
0000
0000
0000
0000
0MM0
0MM0
0MM0
0MM0
,
0MM0
0000
0MM0
0000
1000
0001
0100
0001
0010
0001
1000
0100
0010
0001
0100
0010
,
0100
0001
0010
0100
1000
0001
0010
0001
0100
0001
1000
0010
0100
0001
0010
0100
,
0010
0001
0100
0010
1000
0001
0100
0001
0010
0001
1000
0100
0010
0001
0100
0010
,
0100
0001
0010
0100
1000
0001
0010
0001
0100
0001
1000
0010
0100
0001
0010
0100
,
0010
0001
0100
0010
1000
0001
0100
0010
1000
0100
0010
0001
0010
0100
1000
0010
,
0100
0010
1000
0100
1000
0001
0010
0100
1000
0010
0100
0001
0100
0010
1000
0100
,
0010
0100
1000
0010
1000
0001
0100
0010
1000
0100
0010
0001
0010
0100
1000
0010
,
0100
0010
1000
0100
1000
0001
0010
0100
1000
0010
0100
0001
0100
0010
1000
0100
,
0010
0100
1000
0010
0100
0001
1000
0001
0010
0100
1000
0010
0100
0001
0010
0100
,
0010
0001
1000
0001
0100
0010
1000
0001
0010
0100
1000
0010
0100
0001
0010
0100
,
0010
0001
1000
0001
0100
0010
1000
0010
0100
0001
1000
0001
0010
0001
1000
0010
,
0100
0001
1000
0100
0010
0001
0010
0100
1000
0010
0100
0001
1000
0001
0010
0100
,
0010
0001
1000
0001
0100
0010
0100
0010
1000
0001
1000
0100
1000
0100
0010
0001
,
1000
0010
0100
0001
0010
0100
0010
0100
1000
0001
1000
0010
1000
0010
0100
0001
,
1000
0100
0010
0001
0100
0010
0100
0010
1000
0001
1000
0100
0010
0001
0100
0010
,
1000
0010
0100
0001
0010
0100
0010
0100
1000
0001
1000
0010
0100
0001
0010
0100
,
1000
0100
0010
0001
1000
0001
0010
0001
0100
0001
1000
0010
0100
0001
0010
0100
,
0010
0001
0100
0010
1000
0001
0100
0001
0010
0001
1000
0100
0010
0001
0100
0010
,
0100
0001
0010
0100
1000
0001
0010
0001
0100
0001
1000
0010
0100
0001
0010
0100
,
0010
0001
0100
0010
1000
0001
0100
0001
0010
0001
1000
0100
0010
0001
0100
0010
,
0100
0001
0010
0100
1000
0001
0010
0100
1000
0010
0100
0001
0100
0010
1000
0100
,
0010
0100
1000
0010
1000
0001
0100
0010
1000
0100
0010
0001
0010
0100
1000
0010
,
0100
0010
1000
0100
1000
0001
0010
0100
1000
0010
0100
0001
0100
0010
1000
0100
,
0010
0100
1000
0010
1000
0001
0100
0010
1000
0100
0010
0001
0010
0100
1000
0010
,
0100
0010
1000
0100
0010
0001
1000
0001
0100
0010
1000
0100
0010
0001
0100
0010
,
0100
0001
1000
0001
0010
0100
1000
0001
0100
0010
1000
0100
0010
0001
0100
0010
,
0100
0001
1000
0001
0010
0100
1000
0100
0010
0001
1000
0001
0100
0001
1000
0100
,
0010
0001
1000
0010
0100
0001
0100
0010
1000
0100
0010
0001
1000
0001
0100
0010
,
0100
0001
1000
0001
0010
0100
0010
0100
1000
0001
1000
0010
1000
0010
0100
0001
,
1000
0100
0010
0001
0100
0010
0100
0010
1000
0001
1000
0100
1000
0100
0010
0001
,
1000
0010
0100
0001
0010
0100
0010
0100
1000
0001
1000
0010
0100
0001
0010
0100
,
1000
0100
0010
0001
1000
0001
1000
0001
1000
0001
1000
0001
0100
0010
1000
0100
,
0010
0001
0100
0010
1000
0100
1000
0001
0100
0010
1000
0001
0100
0001
0010
0001
,
1000
0001
0100
0001
1000
0100
0010
0001
1000
0001
0010
0100
1000
0001
0010
0001
,
1000
0001
0010
0100
1000
0001
0010
0001
0100
0001
1000
0001
0010
0001
0100
0001
,
1000
0100
0010
0100
1000
0001
0100
0001
0010
0001
1000
0001
0100
0001
0010
0001
,
1000
0010
0100
0010
1000
0100
0010
0001
0100
0001
1000
0100
0010
0001
0100
0001
,
1000
0010
0100
0010
1000
0001
0010
0001
0100
0001
1000
0001
0010
0001
0100
0001
,
1000
0100
0010
0100
1000
0001
0100
0001
0010
0001
1000
0001
0100
0001
0010
0001
,
1000
0001
0010
0001
1000
0010
0100
0001
0010
0001
1000
0010
0100
0001
0010
0001
,
0100
0010
1000
0001
1000
0100
1000
0001
0100
0010
1000
0001
0100
0001
0010
0001
,
1000
0001
0100
0001
1000
0100
0010
0001
1000
0001
0010
0100
1000
0001
0010
0001
,
1000
0001
0010
0100
1000
0001
0010
0001
0100
0001
1000
0001
0010
0001
0100
0001
,
1000
0100
0010
0100
1000
0001
0100
0001
0010
0001
1000
0001
0100
0001
0010
0001
,
1000
0010
0100
0010
1000
0100
0010
0001
0100
0001
1000
0100
0010
0001
0100
0001
,
1000
0010
0100
0010
1000
0001
0010
0001
0100
0001
1000
0001
0010
0001
0100
0001
,
1000
0100
0010
0100
1000
0001
0100
0001
0010
0001
1000
0001
0100
0001
0010
0001
,
1000
0001
0010
0001
1000
0010
0100
0001
0010
0001
1000
0010
0100
0001
0010
0001
,
0100
0010
1000
0001
1000
0100
1000
0001
0100
0010
1000
0001
0100
0001
0010
0001
,
1000
0001
0100
0001
1000
0100
0010
0001
1000
0001
0010
0100
1000
0001
0010
0001
,
1000
0001
0010
0100
1000
0001
0010
0001
0100
0001
1000
0001
0010
0001
0100
0001
,
1000
0100
0010
0100
1000
0001
0100
0001
0010
0001
1000
0001
0100
0001
0010
0001
,
1000
0010
0100
0010
1000
0100
0010
0001
0100
0001
1000
0100
0010
0001
0100
0001
,
1000
0010
0100
0010
1000
0001
0010
0001
0100
0001
1000
0001
0010
0001
0100
0001
,
1000
0100
0010
0100
1000
0001
0100
0001
0010
0001
1000
0001
0100
0001
0010
0001
,
1000
0001
0010
0001
1000
0010
0100
0001
0010
0001
1000
0010
0100
0001
0010
0001
,
0100
0010
1000
0001
1000
0100
1000
0001
0100
0010
1000
0001
0100
0001
0010
0001
,
1000
0001
0100
0001
1000
0100
0010
0001
1000
0001
0010
0100
1000
0001
0010
0001
,
1000
0001
0010
0100
1000
0001
0010
0001
0100
0001
1000
0001
0010
0001
0100
0001
,
1000
0100
0010
0100
1000
0001
0100
0001
0010
0001
1000
0001
0100
0001
0010
0001
,
1000
0010
0100
0010
1000
0100
0010
0001
0100
0001
1000
0100
0010
0001
0100
0001
,
1000
0010
0100
0010
1000
0001
0010
0001
0100
0001
1000
0001
0010
0001
0100
0001
,
1000
0100
0010
0100
1000
0001
0100
0001
0010
0001
1000
0001
0100
0001
0010
0001
,
0100
0010
1000
0100
0010
0001
0010
0001
1000
0001
1000
0001
1000
0100
1000
0100
,
1000
0100
1000
0100
1000
0010
0100
0001
0010
0100
1000
0010
0100
0001
0010
0001
,
0100
0010
1000
0010
0100
0001
1000
0001
0010
0001
0100
0001
1000
0001
0010
0001
,
0100
0010
1000
0010
0100
0001
0010
0100
1000
0010
0100
0001
0010
0100
1000
0010
,
0100
0001
1000
0001
0100
0010
1000
0100
0010
0001
0100
0010
1000
0100
0010
0001
,
0100
0001
0010
0100
1000
0001
0100
0010
1000
0100
0010
0001
0100
0010
1000
0100
,
0010
0001
0100
0001
0010
0001
1000
0001
0100
0001
0010
0001
1000
0001
0100
0001
,
0010
0001
0100
0010
1000
0100
0010
0001
0100
0010
1000
0100
0010
0001
0100
0010
,
1000
0001
0100
0001
0010
0100
1000
0010
0100
0010
1000
0100
0010
0001
0100
0001
,
0010
0100
1000
0001
1000
0100
0010
0001
0100
0010
1000
0100
0010
0001
0100
0001
,
0010
0100
1000
0100
0010
0001
1000
0001
0100
0001
0010
0001
1000
0001
0100
0001
,
0010
0100
1000
0100
0010
0001
0100
0010
1000
0100
0010
0001
0100
0010
1000
0100
,
0010
0001
1000
0001
0010
0100
1000
0010
0100
0001
0010
0100
1000
0010
0100
0001
,
0010
0001
0100
0010
1000
0001
0010
0100
1000
0010
0100
0001
0010
0100
1000
0010
,
0100
0001
0010
0001
0100
0001
1000
0001
0010
0001
0100
0001
1000
0001
0010
0001
,
0100
0001
0010
0100
1000
0010
0100
0001
0010
0100
1000
0010
0100
0001
0010
0100
,
1000
0001
0010
0001
0100
0010
1000
0100
0010
0100
1000
0010
0100
0001
0010
0001
,
0100
0010
1000
0001
1000
0010
0100
0001
0010
0100
1000
0010
0100
0001
0010
0001
,
0100
0010
1000
0010
0100
0001
1000
0001
0010
0001
0100
0001
1000
0001
0010
0001
,
0100
0010
1000
0010
0100
0001
0010
0100
1000
0010
0100
0001
0010
0100
1000
0010
,
0100
0001
1000
0001
0100
0010
1000
0100
0010
0001
0100
0010
1000
0100
0010
0001
,
0100
0001
0010
0100
1000
0001
0100
0010
1000
0100
0010
0001
0100
0010
1000
0100
,
0010
0001
0100
0001
0010
0001
1000
0001
0100
0001
0010
0001
1000
0001
0100
0001
,
0010
0001
0100
0010
1000
0100
0010
0001
0100
0010
1000
0100
0010
0001
0100
0010
,
1000
0001
0100
0001
0010
0100
1000
0010
0100
0010
1000
0100
0010
0001
0100
0001
,
0010
0100
1000
0001
1000
0100
0010
0001
0100
0010
1000
0100
0010
0001
0100
0001
,
0010
0100
1000
0100
0010
0001
1000
0001
0100
0001
0010
0001
1000
0001
0100
0001
,
0010
0100
1000
0100
0010
0001
0100
0010
1000
0100
0010
0001
0100
0010
1000
0100
,
0010
0001
1000
0001
0010
0100
1000
0010
0100
0001
0010
0100
1000
0010
0100
0001
,
0010
0001
0100
0010
1000
0001
0010
0100
1000
0010
0100
0001
0010
0100
1000
0010
,
0100
0001
0010
0001
0100
0001
1000
0001
0010
0001
0100
0001
1000
0001
0010
0001
,
0100
0001
0010
0100
1000
0010
0100
0001
0010
0100
1000
0010
0100
0001
0010
0100
,
1000
0001
0010
0001
0100
0001
0100
0001
1000
0010
1000
0010
1000
0001
1000
0001
,
1000
0001
1000
0001
1000
0100
0010
0001
1000
0010
0100
0001
1000
0100
0010
0001
,
1000
0010
0100
0001
1000
0100
0010
0001
1000
0010
0100
0001
1000
0100
0010
0001
,
1000
0010
0100
0001
1000
0001
0010
0100
1000
0001
0100
0010
1000
0001
0010
0100
,
1000
0001
0100
0010
1000
0001
0010
0100
1000
0001
0100
0010
1000
0001
0010
0100
,
1000
0001
0100
0010
1000
0100
0010
0100
1000
0010
0100
0010
1000
0001
0100
0001
,
0010
0100
0010
0001
1000
0100
0010
0100
1000
0010
0100
0010
1000
0001
0100
0001
,
0010
0100
0010
0001
1000
0010
0100
0010
1000
0100
0010
0100
1000
0001
0010
0001
,
0100
0010
0100
0001
1000
0010
0100
0010
1000
0100
0010
0100
1000
0001
0010
0001
,
0100
0010
0100
0001
1000
0010
1000
0100
0010
0001
0100
0001
1000
0010
1000
0100
,
0010
0001
0100
0001
1000
0100
1000
0010
0100
0001
0010
0001
1000
0100
1000
0010
,
0100
0001
0010
0001
1000
0010
0100
0001
0010
0001
1000
0010
1000
0010
0100
0001
,
0010
0001
1000
0010
1000
0100
0010
0001
0100
0001
1000
0100
1000
0100
0010
0001
,
0100
0001
1000
0100
0010
0001
1000
0001
0100
0010
1000
0001
0010
0001
1000
0001
,
0100
0010
1000
0001
0010
0100
1000
0001
1000
0010
1000
0001
0010
0100
1000
0001
,
1000
0010
1000
0001
0010
0100
1000
0001
0100
0010
1000
0001
0010
0100
1000
0001
,
0100
0010
1000
0001
1000
0001
1000
0001
1000
0001
1000
0001
1000
0001
0100
0001
,
0010
0100
0010
0001
1000
0010
1000
0001
1000
0010
0100
0001
0100
0001
1000
0010
,
0100
0001
0100
0001
1000
0100
1000
0001
1000
0100
0010
0001
1000
0100
1000
0100
,
0010
0001
1000
0001
0100
0010
1000
0001
1000
0010
0100
0001
0100
0001
1000
0010
,
0100
0001
1000
0001
1000
0100
1000
0001
1000
0100
0010
0001
1000
0001
0010
0001
,
0100
0001
0010
0001
1000
0100
1000
0001
1000
0100
0010
0001
0010
0001
1000
0100
,
0010
0001
1000
0001
1000
0010
1000
0001
1000
0010
0100
0001
0100
0001
1000
0010
,
0100
0001
1000
0001
1000
0100
0010
0100
1000
0001
0010
0001
0010
0001
1000
0100
,
0010
0001
1000
0001
0100
0010
1000
0001
0010
0100
1000
0001
0100
0010
0100
0010
,
1000
0001
1000
0001
1000
0100
1000
0001
1000
0100
0010
0001
0010
0001
1000
0100
,
0010
0001
0010
0001
1000
0010
1000
0001
1000
0010
0100
0001
1000
0010
1000
0010
,
0100
0001
1000
0001
0010
0100
1000
0001
1000
0100
0010
0001
0010
0001
1000
0100
,
0010
0001
1000
0001
1000
0010
1000
0001
1000
0010
0100
0001
1000
0001
0100
0001
,
0010
0001
0100
0001
1000
0010
1000
0001
1000
0010
0100
0001
1000
0010
0100
0010
,
1000
0010
0100
0001
1000
0100
1000
0001
1000
0100
0010
0001
0010
0100
1000
0001
,
1000
0100
0010
0001
1000
0010
0100
0010
1000
0001
0100
0001
0100
0001
1000
0010
,
0100
0001
1000
0001
0010
0100
1000
0001
0100
0010
1000
0001
0010
0100
0010
0100
,
1000
0001
1000
0001
1000
0010
1000
0010
0100
0001
1000
0001
1000
0001
1000
0100
,
1000
0100
0010
0001
1000
0001
0010
0001
1000
0001
0010
0001
1000
0001
0100
0010
,
1000
0010
0100
0001
1000
0001
1000
0001
0010
0100
1000
0010
1000
0010
0100
0010
,
0100
0010
1000
0001
1000
0100
1000
0001
1000
0100
1000
0001
1000
0100
0010
0001
,
1000
0100
0010
0001
1000
0010
0100
0010
1000
0001
1000
0001
0100
0010
1000
0001
,
0100
0010
1000
0100
0010
0001
1000
0100
0010
0100
1000
0001
0010
0001
1000
0100
,
0010
0001
1000
0001
1000
0010
1000
0001
0100
0010
0100
0001
1000
0001
0010
0100
,
1000
0001
0100
0010
0100
0001
1000
0010
1000
0001
0010
0100
0010
0001
1000
0100
,
0010
0001
1000
0001
0100
0001
0100
0001
1000
0100
0010
0001
0010
0001
1000
0100
,
1000
0100
0010
0001
0010
0001
1000
0001
0100
0010
1000
0010
0100
0001
1000
0001
,
0010
0100
0010
0001
1000
0001
1000
0001
0100
0010
1000
0001
1000
0001
1000
0100
,
1000
0100
0010
0001
0010
0100
0010
0001
0010
0100
1000
0001
1000
0010
0100
0001
,
0100
0010
1000
0001
1000
0100
0010
0001
1000
0100
1000
0100
0010
0001
1000
0010
,
1000
0010
0100
0001
1000
0010
0100
0001
1000
0001
0100
0001
1000
0100
0010
0001
,
1000
0010
0100
0001
1000
0100
0010
0100
1000
0001
0010
0001
1000
0001
0100
0010
,
1000
0001
1000
0100
0010
0001
0010
0001
0010
0001
0010
0001
1000
0001
1000
0001
,
1000
0001
1000
0001
1000
0010
0100
0001
0010
0001
0100
0010
1000
0001
0010
0001
,
1000
0010
0100
0001
1000
0100
1000
0001
0010
0001
1000
0010
1000
0001
0100
0001
,
1000
0100
0010
0001
0100
0001
1000
0010
0100
0001
0010
0100
0010
0001
0100
0010
,
1000
0001
1000
0010
0100
0001
1000
0001
0100
0010
1000
0001
1000
0100
1000
0100
,
0010
0001
0010
0001
1000
0010
0100
0001
0010
0100
0010
0001
1000
0010
0100
0010
,
1000
0100
0010
0001
1000
0010
0100
0001
0010
0001
1000
0001
0100
0010
1000
0010
,
0100
0001
1000
0001
0010
0100
1000
0001
0010
0100
0010
0001
1000
0001
0100
0010
,
1000
0001
0010
0100
1000
0100
0010
0001
1000
0001
0100
0001
1000
0010
1000
0010
,
0100
0001
0100
0001
0010
0100
1000
0001
0010
0001
0100
0010
0100
0001
0010
0100
,
1000
0010
0100
0010
1000
0001
0010
0100
1000
0001
0010
0001
1000
0010
0100
0001
,
1000
0001
1000
0001
0010
0001
0100
0010
1000
0100
0010
0100
1000
0010
0100
0001
,
1000
0001
0100
0001
0010
0100
1000
0001
0010
0001
1000
0001
0100
0010
0100
0010
,
1000
0001
1000
0001
0010
0100
0010
0001
1000
0001
0100
0001
1000
0010
1000
0001
,
0010
0100
1000
0001
1000
0010
1000
0001
0010
0100
1000
0001
1000
0100
1000
0010
,
0100
0010
1000
0001
0010
0100
0010
0001
1000
0001
0100
0010
1000
0001
1000
0100
,
0010
0100
1000
0010
0100
0001
0100
0010
1000
0001
0010
0100
0010
0001
1000
0001
,
1000
0010
0100
0001
1000
0100
0010
0001
0100
0001
0010
0100
1000
0001
0100
0001
,
1000
0100
0010
0001
1000
0010
1000
0001
0100
0001
1000
0100
1000
0001
0010
0001
,
1000
0010
0100
0001
0010
0001
1000
0100
0010
0001
0100
0010
0100
0001
0010
0100
,
1000
0001
1000
0100
0010
0001
1000
0001
0010
0100
1000
0001
1000
0010
1000
0010
,
0100
0001
0100
0001
1000
0100
0010
0001
0100
0010
0100
0001
1000
0100
0010
0100
,
1000
0010
0100
0001
1000
0100
0010
0001
0100
0001
1000
0001
0010
0100
1000
0100
,
0010
0001
1000
0001
0100
0010
1000
0001
0100
0010
0100
0001
1000
0001
0010
0100
,
1000
0001
0100
0001
0010
0100
1000
0001
0010
0001
0100
0010
1000
0001
1000
0100
,
0010
0001
0010
0001
0100
0010
1000
0001
0100
0001
0010
0100
0010
0001
0100
0010
,
1000
0100
0010
0100
1000
0001
0100
0010
1000
0001
0100
0001
1000
0100
0010
0001
,
1000
0001
1000
0001
0100
0001
0010
0100
1000
0010
0100
0010
1000
0100
0010
0001
,
1000
0001
0010
0001
0100
0010
1000
0001
0100
0001
1000
0001
0010
0100
0010
0100
,
1000
0001
1000
0001
0100
0010
0100
0001
1000
0001
0010
0001
1000
0100
1000
0001
,
0100
0010
1000
0001
1000
0100
1000
0001
0100
0010
1000
0001
1000
0010
1000
0100
,
0010
0100
1000
0001
0100
0010
0100
0001
1000
0001
0010
0100
1000
0001
1000
0010
,
0100
0010
1000
0100
0010
0001
0010
0100
1000
0001
0100
0010
0100
0001
1000
0001
,
1000
0100
0010
0001
1000
0010
0100
0001
1000
0010
1000
0001
0100
0001
0100
0010
,
1000
0010
0100
0001
1000
0001
1000
0100
0010
0001
1000
0100
1000
0001
0010
0100
,
1000
0001
0010
0001
1000
0010
0100
0001
0100
0001
1000
0010
1000
0010
0100
0001
,
1000
0001
0100
0010
1000
0001
1000
0100
0010
0001
1000
0001
0010
0100
0010
0001
,
1000
0100
1000
0001
0100
0001
0100
0010
1000
0001
1000
0100
1000
0001
0100
0010
,
0100
0001
0010
0001
0100
0010
0100
0001
0010
0100
0010
0001
0100
0010
1000
0100
,
1000
0010
0100
0001
1000
0100
0010
0001
0010
0001
0100
0010
1000
0001
1000
0001
,
0010
0000
0000
0100
0000
0000
0010
0000
0000
0001
0000
0000
1000
0000
0000
0010
0000
0000
0100
0000
0001
0000
1000
0000
0001
0000
0000
1000
0000
0000
0100
0000
0000
0010
0000
0000
0001
0000
0000
0100
0000
0000
0010
0000
0000
0100
0000
0000
,
0001
1000
0001
1000
0001
1000
0200
0000
0000
0000
0000
0000
0000
0000
0000
0000
0000
0000
0000
0000
0000
0000
0000
0000
,
0000
0000
0000
0000
,
0000
0000
0000
0000
,
0000
0300
0000
0000
;
