#TITLE:BEMANI Micromix Vol. 2;
#SUBTITLE:;
#ARTIST:megawolf77 feat. BEMANI All-stars;
#TITLETRANSLIT:;
#SUBTITLETRANSLIT:;
#ARTISTTRANSLIT:;
#CREDIT:;
#BANNER:bemanimicromixvol2-banner.PNG;
#BACKGROUND:bemanimicromixvol2-bg.PNG;
#LYRICSPATH:;
#CDTITLE:;
#MUSIC:BEMANI Micromix vol. 2.mp3;
#OFFSET:0.000;
#SAMPLESTART:29.540;
#SAMPLELENGTH:30.000;
#SELECTABLE:YES;
#BPMS:0.000=130.000,176.000=260.001,180.000=130.000,324.000=260.000,340.000=519.996,372.000=260.000,420.000=130.000,580.000=138.000;
#STOPS:;
#BGCHANGES:0.000=bemanimicromixvol2-bg.PNG=1.000=0=0=1,
99999=-nosongbg-=1.000=0=0=0 // don't automatically add -songbackground-
;
// cache tags:
#FIRSTBEAT:8.000;
#LASTBEAT:710.000;
#SONGFILENAME:Songs/toune/BEMANI Micromix vol. 2/BEMANI Micromix vol. 2.sm;
#HASMUSIC:1;
#HASBANNER:1;
#MUSICLENGTH:297.516;
// end cache tags

//---------------dance-single - ----------------
#NOTES:
     dance-single:
     :
     Easy:
     5:
     0.284,0.416,0.044,0.084,0.000,553.000,13.000,25.000,0.000,0.000:
0000
0000
0000
0000
,
0000
0000
0000
0000
,
0010
0000
0100
0000
,
1000
0000
0001
0000
,
0010
0100
0001
1000
,
0010
0100
0001
1000
,
0100
1000
0001
0010
,
0100
1000
0100
0000
,
0100
1000
0100
0001
,
0100
0010
1000
0001
,
0010
0100
0001
1000
,
0100
0001
0100
0010
,
1000
0001
0100
0010
,
1000
0001
0100
0010
,
0001
0100
1000
0010
,
1001
1001
0110
1001
,
1001
0010
0100
1000
,
0001
0100
0001
0010
,
0100
1000
0001
0100
,
0001
0100
1000
0010
,
0100
0001
0100
1000
,
0010
0100
1000
0001
,
0100
0010
1000
0001
,
0100
1000
0010
0001
,
2002
0000
0000
0000
,
0000
0000
0000
0000
,
0000
0000
0000
0000
,
0000
0000
0000
0000
,
3003
0000
0000
0000
,
0000
0000
0000
0000
,
0000
0000
0000
0000
,
0000
0000
0010
0010
,
0010
1000
0001
0100
,
0010
1000
0010
0100
,
0001
0100
0010
0001
,
0100
0010
0100
1000
,
0100
0001
0010
0100
,
0001
0100
1000
0010
,
0001
0010
0100
0001
,
0100
1000
0010
0100
,
0001
0100
1000
0010
,
0100
0100
0010
1000
,
0100
0001
0100
0001
,
0100
0010
1000
0100
,
0200
0000
0320
0000
,
0130
0100
1000
0100
,
0010
0010
0001
0010
,
1000
0100
0001
0010
,
0100
0001
1000
0010
,
0100
0001
0100
0001
,
0010
1000
0010
1000
,
0100
0001
0100
1000
,
0010
0001
0100
0010
,
1000
0001
0100
0010
,
1000
0100
0001
0010
,
0001
0100
1000
0010
,
0100
0100
0100
0100
,
0200
0000
0000
0000
,
0000
0000
0000
0000
,
0000
0000
0000
0000
,
0000
0000
0000
0000
,
0000
0000
0000
0000
,
0310
0100
0001
1000
,
0010
0100
0001
0010
,
1000
0100
0010
0100
,
0001
0100
1000
0100
,
0100
0010
0001
0010
,
0100
0100
0100
0100
,
0100
1000
0001
0010
,
0001
0100
1000
0100
,
0010
1000
0001
0010
,
0100
0001
0010
0100
,
1000
0001
1000
0001
,
0100
0001
0100
0001
,
1000
0001
1000
0001
,
0010
0001
0010
0001
,
1000
0010
1000
0010
,
0001
0100
0010
1000
,
0100
0100
0010
0010
,
1000
0100
0001
0100
,
0010
1000
0100
0010
,
0200
0000
0300
0000
,
0200
0000
0300
0000
,
0020
0000
0030
0000
,
0020
0000
0030
0000
,
0002
0000
0000
0000
,
0003
0000
0000
0000
,
0002
0000
0000
0000
,
0003
0000
0000
0000
,
2000
0000
0000
0000
,
3000
0000
0000
0000
,
2000
0000
0000
0000
,
3000
0000
0000
0000
,
0001
0100
0010
1000
,
0100
0010
1000
0001
,
0100
0010
1000
1000
,
0100
0001
0010
0001
,
0100
1000
0100
0010
,
0001
0010
0100
0010
,
0100
1000
0010
0100
,
0001
0100
0010
1000
,
2002
0000
0000
0000
,
0000
0000
0000
0000
,
0000
0000
0000
0000
,
0000
0000
0000
3003
,
1001
0100
0010
1000
,
0001
0010
0100
0001
,
0100
1000
0010
0001
,
0100
0001
0100
1000
,
0010
0001
0100
0010
,
1000
0010
0100
0001
,
0100
0001
0100
0001
,
0010
1000
0010
0100
,
0001
0100
0010
1000
,
0001
0100
0010
0100
,
0001
0100
1000
1000
,
0100
0010
0100
0001
,
0100
0010
0001
0010
,
0100
0100
0010
1000
,
0001
0010
0001
0100
,
1000
0010
0100
0100
,
0010
1000
0100
1000
,
0001
0010
0100
0001
,
0100
0001
0010
1000
,
0100
0010
0100
0001
,
0010
0100
1000
0100
,
0010
0100
1000
0100
,
0010
0100
0001
0100
,
1000
0010
0100
0001
,
0010
0100
0001
0100
,
1000
0100
0010
0100
,
0001
0100
1000
0100
,
0010
0100
0001
0010
,
0100
0010
1000
0100
,
0001
0010
0001
0100
,
1000
0010
0100
0001
,
0100
1000
0010
0100
,
0001
0100
0010
0100
,
0001
0100
0010
1000
,
0001
0100
0010
1000
,
0100
0010
0100
0001
,
0100
0010
0100
0001
,
1000
0010
0100
0010
,
0220
0000
0000
0000
,
0000
0000
0000
0000
,
0000
0000
0000
0000
,
0000
0000
0000
0000
,
0000
0000
0000
0000
,
0000
0000
0000
0330
,
2002
0000
0000
3003
,
0220
0000
0000
0330
,
2020
0000
0000
3030
,
0202
0303
0000
0100
,
0100
0001
0010
1000
,
0001
0100
0010
1000
,
0001
0100
0010
1000
,
0100
0001
0100
1000
,
0010
0100
0001
0010
,
1000
0010
1000
0010
,
0100
0001
0100
0010
,
1000
0100
0010
0100
,
0001
0010
0100
0010
,
1000
0010
0100
0001
,
0010
0100
1000
0100
,
0001
0010
0100
1000
,
0100
1000
0010
0100
,
0100
0001
0010
0100
,
0100
0001
0010
1000
,
0010
0100
0001
0100
,
1000
0100
0010
1000
,
0100
0001
0010
0001
,
0010
0100
1000
0100
,
0001
0010
0100
0001
,
0100
0010
0100
1000
,
0010
0100
0001
0100
,
0001
0010
0000
0010
,
0000
0010
0000
0010
;

//---------------dance-single - Copied from----------------
#NOTES:
     dance-single:
     Copied from:
     Medium:
     7:
     0.356,0.446,0.044,0.084,0.012,703.000,13.000,25.000,0.000,0.000:
0000
0000
0000
0000
,
0000
0000
0000
0000
,
0010
0010
0100
0100
,
1000
1000
0001
0001
,
0010
0100
0001
1000
,
0010
0100
0001
1000
,
0100
1000
0001
0010
,
0100
1000
0100
0000
,
0100
0000
1000
0000
0100
0000
0001
0010
,
0100
0000
0010
0000
1000
0000
0001
1000
,
0010
0000
0100
0000
0001
0000
1000
0001
,
0100
0000
0001
0000
0100
0000
0010
0100
,
1000
0000
0001
0000
0100
0000
0010
0001
,
1000
0000
0001
0000
0100
0000
0010
1000
,
0001
0000
0100
0000
1000
0000
0010
0100
,
1001
1001
0110
1001
,
1001
0000
0010
0000
0100
0000
1000
0010
,
0001
0000
0100
0000
0001
0000
0010
1000
,
0100
0000
1000
0000
0001
0000
0100
0010
,
0001
0000
0100
0000
1000
0000
0010
0001
,
0100
0000
0001
0000
0100
0000
1000
0100
,
0010
0000
0100
0000
1000
0000
0001
0010
,
0100
0000
0010
0000
1000
0000
0001
1000
,
0100
0000
1000
0000
0010
0000
0001
0010
,
2002
0000
0000
0000
,
0000
0000
0000
0000
,
0000
0000
0000
0000
,
0000
0000
0000
0000
,
3003
0000
0000
0000
,
0000
0000
0000
0000
,
0000
0000
0000
0000
,
0000
0000
0000
0000
0010
0010
0010
0010
,
0010
0000
1000
0000
0001
0000
0100
1000
,
0010
0000
1000
0000
0010
0000
0100
1000
,
0001
0000
0100
0000
0010
0000
0001
0010
,
0100
0000
0010
0000
0100
0000
1000
0001
,
0100
0000
0001
0000
0010
0000
0100
1000
,
0001
0000
0100
0000
1000
0000
0010
0100
,
0001
0000
0010
0000
0100
0000
0001
0010
,
0100
0000
1000
0000
0010
0000
0100
1000
,
0001
0000
0100
0000
1000
0000
0010
0001
,
0100
0000
0100
0000
0010
0000
1000
0010
,
0100
0000
0001
0000
0100
0000
0001
1000
,
0100
0000
0010
0000
1000
0000
0100
0001
,
0200
0000
0320
0000
,
0130
0000
0100
0000
1000
0000
0100
1000
,
0010
0000
0010
0000
0001
0000
0010
0001
,
1000
0000
0100
0000
0001
0000
0010
1000
,
0100
0000
0001
0000
1000
0000
0010
0001
,
0100
0000
0001
0000
0100
0000
0001
1000
,
0010
0000
1000
0000
0010
0000
1000
0001
,
0100
0000
0001
0000
0100
0000
1000
0100
,
0010
0000
0001
0000
0100
0000
0010
0001
,
1000
0000
0001
0000
0100
0000
0010
0001
,
1000
0000
0100
0000
0001
0000
0010
1000
,
0001
0000
0100
0000
1000
0000
0010
0001
,
0100
0100
0100
0100
,
0200
0000
0000
0000
,
0000
0000
0000
0000
,
0000
0000
0000
0000
,
0000
0000
0000
0000
,
0000
0000
0000
0000
,
0310
0000
0100
0000
0001
0000
1000
0001
,
0010
0000
0100
0000
0001
0000
0010
0100
,
1000
0000
0100
0000
0010
0000
0100
1000
,
0001
0000
0100
0000
1000
0000
0100
0001
,
0100
0000
0010
0000
0001
0000
0010
1000
,
0100
0000
0000
0010
0100
0000
0000
0010
0100
0000
0000
0001
0100
0000
0000
0001
,
0100
0000
0000
0010
1000
0000
0000
0100
0001
0000
0000
1000
0010
0000
0100
0000
,
0001
0000
0100
0000
1000
0000
0100
0001
,
0010
0000
1000
0000
0001
0000
0010
1000
,
0100
0000
0001
0000
0010
0000
0100
0001
,
1000
0000
0001
0000
1000
0000
0001
0010
,
0100
0000
0001
0000
0100
0000
0001
0100
,
1000
0000
0001
0000
1000
0000
0001
0100
,
0010
0000
0001
0000
0010
0000
0001
0010
,
1000
0000
0010
0000
1000
0000
0010
1000
,
0001
0000
0100
0000
0010
0000
1000
0001
,
0100
0000
0100
0000
0010
0000
0010
0100
,
1000
0000
0100
0000
0001
0000
0100
1000
,
0010
0000
1000
0000
0100
0000
0010
0001
,
0200
0000
0310
0000
,
0200
0000
0301
0000
,
0020
0000
0130
0000
,
0020
0000
1030
0000
,
0002
0000
0000
0000
,
0103
0000
0100
0000
,
0002
0000
0000
0000
,
1003
0000
1000
0000
,
2000
0000
0000
0000
,
3010
0000
0010
0000
,
2000
0000
0000
0000
,
3100
0000
0100
0000
,
0001
0000
0100
0000
0010
0001
1000
0000
,
0100
0000
0010
0000
1000
0100
0001
0000
,
0100
0000
0010
0000
1000
0001
1000
0000
,
0100
0000
0001
0000
0010
1000
0001
0000
,
0100
0000
1000
0000
0100
1000
0010
0000
,
0001
0000
0010
0000
0100
0001
0010
0000
,
0100
0000
1000
0000
0010
1000
0100
0000
,
0001
0000
0100
0000
0010
0001
1000
0000
,
2002
0000
0000
0000
,
0000
0000
0000
0000
,
0000
0000
0000
0000
,
0000
0000
0000
3003
,
1001
0000
0100
0000
0010
0000
1000
0100
,
0001
0000
0010
0000
0100
0000
0001
0010
,
0100
0000
1000
0000
0010
0000
0001
1000
,
0100
0000
0001
0000
0100
0000
1000
0100
,
0010
0000
0001
0000
0100
0000
0010
0001
,
1000
0000
0010
0000
0100
0000
0001
1000
,
0100
0000
0001
0000
0100
0000
0001
1000
,
0010
0000
1000
0000
0010
0000
0100
0010
,
0001
0000
0100
0000
0010
0000
1000
0100
,
0001
0000
0100
0000
0010
0000
0100
1000
,
0001
0000
0100
0000
1000
0000
1000
0001
,
0100
0000
0010
0000
0100
0000
0001
1000
,
0100
0000
0010
0000
0001
0000
0010
1000
,
0100
0000
0100
0000
0010
0000
1000
0100
,
0001
0000
0010
0000
0001
0000
0100
0001
,
1000
0000
0010
0000
0100
0000
0100
1000
,
0010
0000
1000
0000
0100
0000
1000
0100
,
0001
0000
0010
0000
0100
0000
0001
0010
,
0100
0000
0001
0000
0010
0000
1000
0010
,
0100
0000
0010
0000
0100
0000
0001
0100
,
0010
0000
0100
0000
1000
0000
0100
0001
,
0010
0000
0100
0000
1000
0000
0100
1000
,
0010
0000
0100
0000
0001
0000
0100
0001
,
1000
0000
0010
0000
0100
0000
0001
1000
,
0010
0000
0100
0000
0001
0000
0100
0010
,
1000
0000
0100
0000
0010
0000
0100
1000
,
0001
0000
0100
0000
1000
0000
0100
1000
,
0010
0000
0100
0000
0001
0000
0010
0001
,
0100
0000
0010
0000
1000
0000
0100
0010
,
0001
0000
0010
0000
0001
0000
0100
0010
,
1000
0000
0010
0000
0100
0000
0001
0010
,
0100
0000
1000
0000
0010
0000
0100
1000
,
0001
0000
0100
0000
0010
0000
0100
0010
,
0001
0000
0100
0000
0010
0000
1000
0100
,
0001
0000
0100
0000
0010
0000
1000
0001
,
0100
0000
0010
0000
0100
0000
0001
1000
,
0100
0000
0010
0000
0100
0000
0001
0100
,
1000
0000
0010
0000
0100
0000
0010
0001
,
0220
0000
0000
0000
,
0000
0000
0000
0000
,
0000
0000
0000
0000
,
0000
0000
0000
0000
,
0000
0000
0000
0000
,
0000
0000
0000
0330
,
2002
0000
0000
3003
,
0220
0000
0000
0330
,
2020
0000
0000
3030
,
0202
0000
0303
0000
0000
0000
0100
0100
,
0100
0000
0001
0000
0010
0000
1000
0010
,
0001
0000
0100
0000
0010
0000
1000
0100
,
0001
0000
0100
0000
0010
0000
1000
0001
,
0100
0000
0001
0000
0100
0000
1000
0100
,
0010
0000
0100
0000
0001
0000
0010
0100
,
1000
0000
0010
0000
1000
0000
0010
0001
,
0100
0000
0001
0000
0100
0000
0010
0001
,
1000
0000
0100
0000
0010
0000
0100
1000
,
0001
0000
0010
0000
0100
0000
0010
0100
,
1000
0000
0010
0000
0100
0000
0001
1000
,
0010
0000
0100
0000
1000
0000
0100
0010
,
0001
0000
0010
0000
0100
0000
1000
0001
,
0100
0000
1000
0000
0010
0000
0100
1000
,
0100
0000
0001
0000
0010
0000
0100
0001
,
0100
0000
0001
0000
0010
0000
1000
0100
,
0010
0000
0100
0000
0001
0000
0100
0001
,
1000
0000
0100
0000
0010
0000
1000
0010
,
0100
0000
0001
0000
0010
0000
0001
1000
,
0010
0000
0100
0000
1000
0000
0100
1000
,
0001
0000
0010
0000
0100
0000
0001
1000
,
0100
0000
0010
0000
0100
0000
1000
0001
,
0010
0000
0100
0000
0001
0000
0100
1000
,
0001
0010
0000
0010
,
0000
0010
0000
0010
;

//---------------dance-single - Copied from Copied f----------------
#NOTES:
     dance-single:
     Copied from Copied f:
     Hard:
     11:
     0.522,0.984,0.064,0.091,0.215,1041.000,19.000,27.000,0.000,0.000:
0000
0000
0000
0000
,
0000
0000
0000
0000
,
0010
0001
0010
0000
0100
1000
0100
0000
,
1000
0010
1000
0000
0001
0100
0001
0000
,
0010
0000
0100
0000
0001
0000
1000
0100
,
0010
0000
0100
0000
0001
0000
1000
0010
,
0100
0000
1000
0000
0001
0000
0010
1000
,
0100
0000
1000
0000
0100
0000
0000
0001
,
0100
0000
1000
0010
0100
0000
0001
0010
,
0100
0000
0010
0100
1000
0000
0001
1000
,
0010
0000
0100
1000
0001
0000
1000
0001
,
0100
0000
0001
0010
0100
0000
0010
0100
,
1000
0000
0001
0010
0100
0000
0010
0001
,
1000
0000
0001
1000
0100
0000
0010
1000
,
0001
0000
0100
0010
1000
0000
0010
0100
,
1001
1001
0110
1001
,
1001
0000
0010
1000
0100
0001
1000
0010
,
0001
1000
0100
0010
0001
0100
0010
1000
,
0100
0001
1000
0010
0001
1000
0100
0010
,
0001
1000
0100
0010
1000
0100
0010
0001
,
0100
0010
0001
0010
0100
0010
1000
0100
,
0010
0001
0100
0010
1000
0100
0001
0010
,
0100
1000
0010
0001
1000
0100
0001
1000
,
0100
0010
1000
0100
0010
0100
0001
0010
,
2002
0000
0000
0000
,
0000
0000
0000
0000
,
0000
0000
0000
0000
,
0000
0000
0000
0000
,
3003
0000
0000
0000
,
0000
0000
0000
0000
,
0000
0000
0000
0000
,
0000
0000
0000
0000
0010
0010
0010
0010
,
0010
0100
1000
0010
0001
0000
0100
1000
,
0010
0100
1000
0100
0010
0001
0100
1000
,
0001
0000
0100
1000
0010
1000
0001
0010
,
0100
1000
0010
0001
0100
0010
1000
0001
,
0100
0000
0001
0000
0010
0001
0100
1000
,
0001
0000
0100
0000
1000
0001
0010
0100
,
0001
0000
0010
0000
0100
1000
0001
0010
,
0100
0000
1000
0000
0010
1000
0100
1000
,
0001
0000
0100
0000
1000
0100
0010
0001
,
0100
0000
0100
0000
0010
0001
1000
0010
,
0100
0000
0001
0000
0100
0010
0001
1000
,
0100
0000
0010
0000
1000
0010
0100
0001
,
0200
0000
0320
0000
,
0130
0000
0100
0010
1000
0000
0100
1000
,
0010
0000
0010
1000
0001
0000
0010
0001
,
1000
0000
0100
0010
0001
0000
0010
1000
,
0100
0000
0001
0010
1000
0000
0010
0001
,
0100
0000
0001
1000
0100
0000
0001
1000
,
0010
0000
1000
0100
0010
0000
1000
0001
,
0100
0000
0001
0010
0100
0000
1000
0100
,
0010
0000
0001
1000
0100
0000
0010
0001
,
1000
0000
0001
0010
0100
0000
0010
0001
,
1000
0000
0100
0010
0001
0000
0010
1000
,
0001
0000
0100
0010
1000
0000
0010
0001
,
0100
0010
0100
0001
0100
0010
0100
1000
,
0200
0000
0000
0000
,
0000
0000
0000
0000
,
0010
0000
0010
0000
,
0010
0000
0010
0000
,
0010
0010
0010
0010
,
0310
0000
0100
0000
0001
0000
1000
0001
,
0010
0000
0100
0000
0001
0000
0010
0100
,
1000
0000
0100
0000
0010
0000
0100
1000
,
0001
0000
0100
0000
1000
0000
0100
0001
,
0100
0000
0010
0000
0001
0000
0010
1000
,
0100
0000
0000
0010
0100
0000
0000
0010
0100
0000
0000
0001
0100
0000
0000
0001
,
0100
0000
0000
0010
1000
0000
0000
0100
0001
0000
0000
1000
0010
0000
0100
0000
,
0001
0000
0100
0000
1000
0000
0100
0001
,
0010
0000
1000
0000
0001
0000
0010
1000
,
0100
0000
0001
0000
0010
0000
0100
0001
,
1000
0010
1000
0010
1000
0010
0000
0000
1000
0001
1000
0001
1000
0001
0000
0000
,
0100
0001
0100
0001
0100
0001
0000
0000
0010
0001
0010
0001
0010
0001
0000
0000
,
0010
1000
0010
1000
0010
1000
0000
0000
0001
1000
0001
1000
0001
1000
0000
0000
,
0100
1000
0100
1000
0100
1000
0000
0000
1000
0010
1000
0010
1000
0010
0000
0000
,
0100
0001
0100
0001
0100
0001
0000
0000
0010
0001
0010
0001
0010
0001
0000
0000
,
1000
0001
1000
0001
1000
0001
0000
0000
0001
0100
0001
0100
0001
0100
0000
0000
,
0000
0000
0000
0000
1001
0000
0000
0000
1001
0000
0000
0000
1001
0000
0000
0000
0000
0000
0000
0000
0000
0000
0000
0000
1000
0000
0000
0010
0000
0000
1000
0000
0000
0001
0000
0000
0100
0000
0000
0001
0000
0000
0000
0000
0000
0000
0000
0000
,
1000
0010
1000
0001
0100
0001
0000
0000
1000
0010
1000
0001
0100
0001
0000
0000
,
1000
0010
0100
0001
1000
0010
0100
0001
1000
0000
0000
0000
0000
0000
0000
0000
,
0200
0010
0310
0000
,
0200
0001
0301
0000
,
0020
0100
0130
0000
,
0020
1000
1030
0000
,
0002
0000
0100
0000
,
0103
0000
0100
0000
,
0002
0000
1000
0000
,
1003
0000
1000
0000
,
2000
0000
0010
0000
,
3010
0000
0010
0000
,
2000
0000
0100
0000
,
3100
0000
0100
0000
,
1000
0010
1000
0010
0100
0001
0100
0001
,
1000
0010
1000
0010
0100
0001
0100
0001
,
1000
0001
1000
0001
0100
0001
0100
0001
,
1000
0010
1000
0010
0100
0010
0100
0010
,
1000
0001
1000
0001
0100
0001
0100
0001
,
1000
0010
1000
0010
1000
0001
1000
0001
,
0100
0001
0100
0001
1000
0010
1000
0010
,
1000
0001
1000
0001
0100
0001
0100
0001
,
2002
0000
0000
0000
,
0000
0000
0000
0000
,
0000
0000
0000
0000
,
0000
0000
0000
3003
,
1001
0000
0100
0000
0010
0000
1000
0100
,
0001
0000
0010
0000
0100
0000
0001
0010
,
0100
0000
1000
0000
0010
0000
0001
1000
,
0100
0000
0001
0000
0100
0000
1000
0100
,
0010
0000
0001
0000
0100
0000
0010
0001
,
1000
0000
0010
0000
0100
0000
0001
1000
,
0100
0010
0001
0010
0100
0010
0001
1000
,
0010
0100
1000
0001
0010
1000
0100
0010
,
0001
1000
0100
0001
0010
0001
1000
0100
,
0001
1000
0100
0001
0010
1000
0100
1000
,
0001
0010
0100
0010
1000
0100
1000
0001
,
0100
1000
0010
0001
0100
0010
0001
1000
,
0100
1000
0010
0100
0001
1000
0010
1000
,
0100
0001
0100
1000
0010
0001
1000
0100
,
0001
1000
0010
0100
0001
0010
0100
0001
,
1000
0100
0010
0001
0100
0001
0100
1001
,
0010
0001
1000
0010
0100
0010
1000
0100
,
0001
1000
0010
1000
0100
0010
0001
0010
,
0100
1000
0001
0100
0010
0001
1000
0010
,
0100
1000
0010
0001
0100
0010
0001
0100
,
0010
0000
0100
0000
1000
0000
0100
0001
,
0010
0000
0100
0000
1000
0000
0100
1000
,
0010
0000
0100
0000
0001
0000
0100
0001
,
1000
0000
0010
0000
0100
0000
0001
1000
,
0010
0000
0100
0000
0001
0000
0100
0010
,
1000
0000
0100
0000
0010
0000
0100
1000
,
0001
0000
0100
0000
1000
0000
0100
1000
,
0010
0000
0100
0000
0001
0000
0010
0001
,
1000
0010
1000
0010
1000
0010
1000
0010
1000
0000
0100
0000
0001
0000
0000
0000
,
0100
0001
0100
0001
0100
0001
0100
0001
0100
0000
1000
0000
0010
0000
0000
0000
,
0010
0001
0010
0001
0010
0001
0010
0001
0010
0000
1000
0000
0010
0000
0000
0000
,
0100
0001
0100
0001
0100
0001
0100
0001
0100
0000
0010
0000
1000
0000
0000
0000
,
1000
0100
1000
0100
1000
0100
1000
0100
1000
0000
0100
0000
0001
0000
0000
0000
,
0001
0100
0001
0100
0001
0100
0001
0100
0001
0000
0010
0000
1000
0000
0000
0000
,
0010
1000
0001
0100
0010
1000
0001
0100
0010
0000
1000
0000
0001
0000
0000
0000
,
0010
0001
1000
0100
0010
0001
1000
0100
0010
0000
0001
0000
1000
0000
0000
0000
,
0010
0100
0001
1000
0010
0100
0001
1000
0010
0000
0100
0000
0001
0000
0000
0000
,
0100
0100
0010
0010
,
0220
0000
0000
0000
,
0000
0000
0000
0000
,
0000
0000
0000
0000
,
0000
0000
0000
0000
,
0000
0000
0000
0000
,
0000
0000
0000
0330
,
2002
0000
0000
3003
,
0220
0000
0000
0330
,
2020
0000
0000
3030
,
0202
0000
0000
0000
0303
0000
0000
0000
0000
0000
0100
0010
0100
0000
0100
0000
,
0100
0010
0001
1000
0010
0100
1000
0010
,
0001
0010
0100
1000
0010
0001
1000
0100
,
0001
1000
0100
1000
0010
0100
1000
0001
,
0100
0010
0001
0010
0100
0010
1000
0100
,
0010
1000
0100
0010
0001
0100
0010
0100
,
1000
0001
0010
0100
1000
0100
0010
0001
,
0100
1000
0001
0010
0100
1000
0010
0101
,
1000
0010
0100
0001
0010
0001
0100
1000
,
0001
0000
0010
0000
0100
1000
0010
0100
,
1000
0000
0010
0000
0100
0010
0001
1000
,
0010
0000
0100
0000
1000
0001
0100
0010
,
0001
0000
0010
0000
0100
0010
1000
0001
,
1000
0010
1000
0010
1000
0010
1000
0010
1000
0001
1000
0001
1000
0001
1000
0001
,
0100
0001
0100
0001
0100
0001
0100
0001
0010
0001
0010
0001
0010
0001
0010
0001
,
1000
0010
1000
0010
1000
0010
1000
0010
0100
0010
0100
0010
0100
0010
0100
0010
,
0001
1000
0001
1000
0001
1000
0001
1000
1000
0100
1000
0100
1000
0100
1000
0100
,
1000
0000
0100
0000
0010
0000
1000
0010
,
0100
0000
0001
0000
0010
0000
0001
1000
,
0010
0000
0100
0000
1000
0000
0100
1000
,
0001
0000
0000
0000
0010
0000
0000
0000
0100
0000
0000
0010
0001
0000
1000
0000
,
0100
0000
0010
0000
0100
0000
1000
0001
,
0010
0000
0100
0000
0001
0000
0100
1000
,
0000
0010
0000
0010
,
0000
0010
0000
0010
,
2002
0000
3003
0000
;

//---------------dance-single - Copied from----------------
#NOTES:
     dance-single:
     Copied from:
     Beginner:
     3:
     0.157,0.297,0.037,0.084,0.000,290.000,11.000,25.000,0.000,0.000:
0000
0000
0000
0000
,
0000
0000
0000
0000
,
0010
0000
0100
0000
,
1000
0000
0001
0000
,
0010
0000
0001
0000
,
0010
0000
0001
0000
,
0100
0000
0001
0000
,
0100
0000
0100
0000
,
0100
0000
0100
0000
,
0100
0000
1000
0000
,
0010
0000
0001
0000
,
0100
0000
0100
0000
,
1000
0000
0100
0000
,
1000
0000
0100
0000
,
0001
0000
1000
0000
,
1001
0000
0110
0000
,
1001
0000
0100
0000
,
0001
0000
0001
0000
,
0100
0000
0001
0000
,
0001
0000
1000
0000
,
0100
0000
0100
0000
,
0010
0000
1000
0000
,
0100
0000
1000
0000
,
0100
0000
0010
0000
,
2002
0000
0000
0000
,
0000
0000
0000
0000
,
0000
0000
0000
0000
,
0000
0000
0000
0000
,
3003
0000
0000
0000
,
0000
0000
0000
0000
,
0000
0000
0000
0000
,
0000
0000
0010
0000
,
0010
0000
0001
0000
,
0010
0000
0010
0000
,
0001
0000
0010
0000
,
0100
0000
0100
0000
,
0100
0000
0010
0000
,
0001
0000
1000
0000
,
0001
0000
0100
0000
,
0100
0000
0010
0000
,
0001
0000
1000
0000
,
0100
0000
0010
0000
,
0100
0000
0100
0000
,
0100
0000
1000
0000
,
0200
0000
0320
0000
,
0130
0000
1000
0000
,
0010
0000
0001
0000
,
1000
0000
0001
0000
,
0100
0000
1000
0000
,
0100
0000
0100
0000
,
0010
0000
0010
0000
,
0100
0000
0100
0000
,
0010
0000
0100
0000
,
1000
0000
0100
0000
,
1000
0000
0001
0000
,
0001
0000
1000
0000
,
0100
0000
0100
0000
,
0200
0000
0000
0000
,
0000
0000
0000
0000
,
0000
0000
0000
0000
,
0000
0000
0000
0000
,
0000
0000
0000
0000
,
0310
0000
0001
0000
,
0010
0000
0001
0000
,
1000
0000
0010
0000
,
0001
0000
1000
0000
,
0100
0000
0001
0000
,
0100
0000
0100
0000
,
0100
0000
0001
0000
,
0001
0000
1000
0000
,
0010
0000
0001
0000
,
0100
0000
0010
0000
,
1000
0000
1000
0000
,
0100
0000
0100
0000
,
1000
0000
1000
0000
,
0010
0000
0010
0000
,
1000
0000
1000
0000
,
0001
0000
0010
0000
,
0100
0000
0010
0000
,
1000
0000
0001
0000
,
0010
0000
0100
0000
,
0200
0000
0300
0000
,
0200
0000
0300
0000
,
0020
0000
0030
0000
,
0020
0000
0030
0000
,
0002
0000
0000
0000
,
0003
0000
0000
0000
,
0002
0000
0000
0000
,
0003
0000
0000
0000
,
2000
0000
0000
0000
,
3000
0000
0000
0000
,
2000
0000
0000
0000
,
3000
0000
0000
0000
,
0001
0000
0010
0000
,
0100
0000
1000
0000
,
0100
0000
1000
0000
,
0100
0000
0010
0000
,
0100
0000
0100
0000
,
0001
0000
0100
0000
,
0100
0000
0010
0000
,
0001
0000
0010
0000
,
2002
0000
0000
0000
,
0000
0000
0000
0000
,
0000
0000
0000
0000
,
0000
0000
0000
3003
,
1001
0000
0010
0000
,
0001
0000
0100
0000
,
0100
0000
0010
0000
,
0100
0000
0100
0000
,
0010
0000
0100
0000
,
1000
0000
0100
0000
,
0100
0000
0100
0000
,
0010
0000
0010
0000
,
0001
0000
0010
0000
,
0001
0000
0010
0000
,
0001
0000
1000
0000
,
0100
0000
0100
0000
,
0100
0000
0001
0000
,
0100
0000
0010
0000
,
0001
0000
0001
0000
,
1000
0000
0100
0000
,
0010
0000
0100
0000
,
0001
0000
0100
0000
,
0100
0000
0010
0000
,
0100
0000
0100
0000
,
0010
0000
1000
0000
,
0010
0000
1000
0000
,
0010
0000
0001
0000
,
1000
0000
0100
0000
,
0010
0000
0001
0000
,
1000
0000
0010
0000
,
0001
0000
1000
0000
,
0010
0000
0001
0000
,
0100
0000
1000
0000
,
0001
0000
0001
0000
,
1000
0000
0100
0000
,
0100
0000
0010
0000
,
0001
0000
0010
0000
,
0001
0000
0010
0000
,
0001
0000
0010
0000
,
0100
0000
0100
0000
,
0100
0000
0100
0000
,
1000
0000
0100
0000
,
0220
0000
0000
0000
,
0000
0000
0000
0000
,
0000
0000
0000
0000
,
0000
0000
0000
0000
,
0000
0000
0000
0000
,
0000
0000
0000
0330
,
2002
0000
0000
3003
,
0220
0000
0000
0330
,
2020
0000
0000
3030
,
0202
0303
0000
0000
,
0100
0000
0010
0000
,
0001
0000
0010
0000
,
0001
0000
0010
0000
,
0100
0000
0100
0000
,
0010
0000
0001
0000
,
1000
0000
1000
0000
,
0100
0000
0100
0000
,
1000
0000
0010
0000
,
0001
0000
0100
0000
,
1000
0000
0100
0000
,
0010
0000
1000
0000
,
0001
0000
0100
0000
,
0100
0000
0010
0000
,
0100
0000
0010
0000
,
0100
0000
0010
0000
,
0010
0000
0001
0000
,
1000
0000
0010
0000
,
0100
0000
0010
0000
,
0010
0000
1000
0000
,
0001
0000
0100
0000
,
0100
0000
0100
0000
,
0010
0000
0001
0000
,
0001
0010
0000
0010
,
0000
0010
0000
0010
;
