#TITLE:Inside Your Brain;
#SUBTITLE:EXoduz Violation;
#ARTIST:M1DLET;
#TITLETRANSLIT:;
#SUBTITLETRANSLIT:;
#ARTISTTRANSLIT:;
#CREDIT:;
#BANNER:../Banner.png;
#BACKGROUND:../Background.png;
#LYRICSPATH:;
#CDTITLE:;
#MUSIC:Inside Your Brain.ogg;
#OFFSET:0.400;
#SAMPLESTART:42.194;
#SAMPLELENGTH:11.920;
#SELECTABLE:YES;
#DISPLAYBPM:300.000;
#BPMS:0.000=100.000,1.000=200.000,36.000=180.000,37.000=160.000,38.000=140.000,39.000=120.000,40.000=100.000,50.000=120.000,51.000=140.000,57.000=160.000,60.000=180.000,76.000=200.000,116.000=190.000,116.500=180.000,117.000=170.000,117.500=160.000,118.000=150.000,118.500=140.000,119.000=130.000,119.500=120.000,120.000=100.000,127.500=299.950,246.000=300.050,303.000=299.950,360.000=125.000,361.500=298.950,376.000=299.950,413.000=50.000,414.250=299.950,426.500=50.000,426.875=299.950,472.000=50.000,491.750=299.950,668.000=300.000,842.000=49.950,861.000=75.000,876.250=298.950;
#STOPS:876.250=0.050
;
#BGCHANGES:;
// cache tags:
#FIRSTBEAT:1.000;
#LASTBEAT:1138.000;
#SONGFILENAME:Songs/EXoduz Violation/Inside Your Brain/Inside Your Brain.sm;
#HASMUSIC:1;
#HASBANNER:1;
#MUSICLENGTH:307.328;
// end cache tags

//---------------dance-single - M. Simmons & S. Venk----------------
#NOTES:
     dance-single:
     M. Simmons & S. Venk:
     Challenge:
     16:
     1.000,1.000,0.355,0.104,1.000,2009.000,109.000,32.000,574.000,0.000:

0000
0000
0000
0000
MMMM
M000
M000
M000
M000
M000
M000
M000
M000
M000
M000
M000
,
M000
M000
M000
M000
M000
M000
M000
M000
M000
M000
M000
M000
M000
M000
M000
M000
,
M000
M000
M000
M000
M000
M000
M000
M000
M000
M000
M000
M000
M000
M000
M000
M000
,
0M00
0M00
0M00
0M00
0M00
0M00
0M00
0M00
0M00
0M00
0M00
0M00
0M00
0M00
0M00
0M00
,
0M00
0M00
0M00
0M00
0M00
0M00
0M00
0M00
0M00
0M00
0M00
0M00
0M00
0M00
0M00
0M00
,
0M00
0M00
0M00
0M00
0M00
0M00
0M00
0M00
0M00
0M00
0M00
0M00
0M00
0M00
0M00
0M00
,
0M00
00M0
00M0
00M0
00M0
00M0
00M0
00M0
00M0
00M0
00M0
00M0
00M0
00M0
00M0
00M0
,
00M0
00M0
00M0
00M0
00M0
00M0
00M0
00M0
00M0
00M0
00M0
00M0
00M0
00M0
00M0
00M0
,
00M0
00M0
00M0
00M0
00M0
00M0
00M0
00M0
00M0
00M0
00M0
00M0
00M0
00M0
00M0
00M0
,
00M0
000M
000M
000M
000M
M000
M000
M000
M000
00M0
00M0
00M0
00M0
0M00
0M00
0M00
,
0M00
000M
0000
000M
0000
000M
0000
000M
0000
000M
0000
000M
0000
000M
0000
000M
,
0000
000M
0000
000M
0000
000M
0000
000M
0000
000M
0000
000M
0000
000M
0000
000M
,
0000
0000
0000
000M
0000
0000
0000
0000
0000
000M
0000
0000
0000
0000
0000
000M
0000
0000
0000
0000
0000
000M
0000
0000
00M0
0000
0000
0000
00M0
0000
0000
0000
00M0
0000
0000
0000
00M0
0000
0000
0M00
0000
0000
0M00
0000
0000
0M00
0000
0000
,
0M00
0M00
0M00
0M00
0M00
0M00
0M00
0M00
0M00
0M00
0M00
0M00
0M00
0M00
0M00
0M00
,
0M00
0M00
0M00
0M00
0M00
M000
M000
M000
M000
M000
M000
M000
M000
M000
M000
M000
,
M000
000M
000M
000M
000M
000M
000M
000M
000M
000M
000M
000M
000M
000M
000M
000M
,
000M
000M
000M
000M
000M
000M
000M
000M
000M
000M
000M
000M
000M
000M
000M
000M
,
000M
000M
000M
000M
000M
000M
000M
000M
000M
000M
000M
000M
000M
000M
000M
000M
,
000M
000M
000M
000M
000M
000M
000M
000M
000M
000M
000M
000M
000M
000M
000M
000M
,
MMM0
M000
M000
M000
MMM0
M000
M000
M000
MMM0
M000
M000
M000
MMM0
M000
M000
M000
,
MMM0
M000
M000
M000
MMM0
M000
M000
M000
MMM0
M000
M000
M000
MMM0
M000
M000
M000
,
MMM0
M000
M000
M000
MMM0
M000
M000
M000
MMM0
M000
M000
M000
MMM0
M000
M000
M000
,
MMM0
M000
M000
M000
MMM0
M000
M000
M000
MMM0
M000
M000
M000
MMM0
M000
M000
M000
,
MMM0
M000
M000
M000
MMM0
M000
M000
M000
MMM0
M000
M000
M000
MMM0
M000
M000
M000
,
MMM0
M000
M000
M000
MMM0
M000
M000
M000
MMM0
M000
M000
M000
MMM0
M000
M000
M000
,
MMM0
M000
M000
M000
MMM0
M000
M000
M000
MMM0
M000
M000
M000
MMM0
M000
M000
M000
,
MMM0
M000
M000
M000
MMM0
M000
M000
M000
MMM0
M000
M000
M000
MMM0
M000
M000
M000
,
MMM0
M000
M000
M000
MMM0
M000
M000
M000
MMM0
M000
M000
M000
MMM0
M000
M000
M000
,
MMM0
M000
M000
M000
MMM0
M000
M000
M000
MMM0
M000
M000
M000
MMM0
M000
M000
M000
,
MMMM
000M
000M
000M
000M
000M
000M
000M
000M
000M
000M
000M
000M
000M
000M
000M
,
000M
00M0
0M00
M000
000M
00M0
0M00
M000
000M
00M0
0M00
M000
000M
00M0
0M00
M000
,
000M
00M0
0M00
M000
000M
00M0
0M00
M000
000M
00M0
0M00
M000
000M
MMM0
1000
0000
,
0001
0000
0100
0000
0010
0000
1000
0000
0100
0000
0010
0000
0001
0000
1000
0001
,
0100
0000
0010
1000
0100
0000
0010
0001
0100
0000
0010
0000
1000
0000
0100
0000
,
0010
0001
1000
0010
0100
0001
0010
0001
,
1000
0000
0010
0000
0100
0001
0010
0000
0100
1000
0010
0000
0100
0000
0001
0000
,
0010
0001
1000
0010
0100
0001
0100
0001
,
1000
0001
0010
0100
1000
0001
0010
0001
,
1000
0000
0010
0000
0100
0000
0001
1000
0010
0000
0100
0001
0010
0000
0100
1000
,
0100
1000
0001
0010
0100
1000
0010
0100
,
0001
0100
0010
1000
0100
0010
0100
1000
,
0001
0010
0100
0010
0001
1000
0100
0010
,
0001
0000
1000
0000
0010
0000
0100
0001
0010
0000
0100
1000
0010
0000
0100
0000
,
0001
0010
0001
1000
0010
1000
0001
0100
,
0001
1000
0100
0010
0001
1000
0100
0010
,
0100
0000
1000
0000
0001
0000
0010
0000
0001
0000
0001
0000
0100
0010
0100
0010
,
0100
0010
0100
0010
0100
0010
0100
0010
0100
0010
0100
0000
0001
0000
1000
0000
,
0010
0100
0001
0010
0100
1000
0001
0010
,
0001
1000
0010
0100
0001
0010
0001
1000
,
0010
0000
0100
0000
0001
0000
0010
0000
0100
1000
0001
0000
0010
0100
1000
0000
,
0001
0010
0100
0000
1000
0000
0001
0000
0010
0000
0001
0000
1000
0000
0010
0000
,
0100
0001
0010
0100
0010
0001
1000
0100
,
0010
0100
1000
0010
0100
0001
0010
0001
,
1000
0100
0010
0001
0010
0100
1000
0010
,
0100
0000
0001
0000
0010
0000
0100
0000
1000
0001
0010
0000
0100
1000
0010
0000
,
0100
0001
0010
0000
0100
0000
1000
0000
0001
0000
0010
0000
0100
0000
1000
0000
,
0001
1000
0001
1000
0001
0100
0001
0100
,
0001
0010
0100
1000
0010
0100
0001
0010
,
0001
0000
0010
0000
0001
0000
1000
0000
0010
0100
0001
0000
1000
0000
0010
0000
,
0100
0000
0001
0000
0010
0000
0100
0000
1000
0000
0001
0000
0010
0000
0004
1003
,
0010
0000
0004
1003
0010
0000
0004
1003
0010
0000
0100
0000
0001
0000
0010
0000
,
0100
1000
0001
0010
2200
0000
0000
0000
,
0000
0000
0000
0000
,
0000
0000
0000
0000
,
0000
0000
0000
0000
0000
0000
0000
0000
3300
0000
0100
0010
0001
0010
0001
0010
,
0001
0010
0002
0000
0000
0000
0000
0000
0000
0000
0000
0000
0000
0000
2003
0000
,
0000
0000
0000
0000
,
0000
0000
0000
0000
,
0000
0000
0000
0000
0000
0000
3000
0001
0010
0100
0010
0100
0010
0100
0020
0000
,
0000
0000
0000
0000
0000
0230
0000
0000
,
0000
0000
0000
0000
,
0000
0000
0000
0000
,
1300
0001
0010
0001
0010
0001
0010
0001
0020
0000
0000
0000
0000
0000
0000
0000
,
0000
0230
0000
0000
,
0000
0000
0000
0000
,
0000
0000
0000
0000
0000
0000
0000
0000
0000
0000
0000
0000
1300
0001
0010
0001
,
0010
0001
0010
0000
0100
0000
1000
0000
0001
0000
0010
0000
0100
0000
1000
0000
,
0001
0000
1000
0000
0004
0013
0100
0000
0004
0013
0100
0000
0004
0013
0100
0000
,
0010
0001
1000
0010
0100
0001
0010
0001
,
0100
0000
0001
0000
0010
0000
0100
0000
4000
3001
0010
0000
4000
3001
0010
0000
,
0100
1000
0010
0100
0001
0100
0001
0010
,
0001
1000
0001
1000
0010
0100
0001
0010
,
0100
0000
0010
0000
0001
0000
1000
0000
0010
0000
0100
0000
0004
1003
0010
0000
,
0004
1003
0010
0000
0004
1003
0010
0000
1000
0000
0001
0000
0100
0000
0001
0000
,
0010
0100
1000
0001
0010
0001
1000
0010
,
0100
0001
0100
0001
0010
0100
1000
0001
,
0010
0000
0100
0000
1000
0000
0001
0000
0010
0000
0001
0000
0040
0130
1000
0000
,
0040
0130
1000
0000
0001
0000
0010
0000
0100
0000
1000
0000
0010
0000
0100
0000
,
0010
0100
0001
1000
0010
0100
0001
0010
,
0001
0010
0100
1000
0001
0010
0001
1000
,
0010
0100
0010
0100
0010
0100
0010
0100
0010
0100
0010
0100
0010
0100
0010
0100
0010
0100
0010
0000
0000
0000
0000
0000
0100
0000
0000
0000
0000
0000
0001
0000
0000
0000
0000
0000
0010
0000
0000
0000
0000
0000
0100
0000
0000
0000
0000
0000
,
1000
0000
0001
0000
0010
0000
0100
0000
4000
3001
0010
0000
4000
3001
0010
0000
,
4000
3001
0010
0000
0001
0000
1000
0000
0010
0000
0100
0000
0001
0000
0010
0000
,
0100
0000
1000
0000
0001
0000
0010
0000
0100
0000
1000
0000
0040
0130
0001
0000
,
0040
0130
0001
0000
1000
0000
0010
0000
0100
0000
0001
0000
0010
0000
0100
0000
,
1000
0001
0010
0100
1000
0010
0100
0001
,
0100
0001
1000
0010
0100
0001
0010
0100
,
4000
3001
0010
0000
4000
3001
0010
0000
4000
3001
0010
0000
0001
0000
1000
0000
,
0010
0100
0001
0010
0100
1000
0010
0100
,
0001
1000
0010
0100
0001
0010
0100
1000
,
0001
0000
0010
0000
0100
0000
1000
0000
0010
0000
0100
0000
0001
0000
1000
0001
,
0100
0010
1000
0001
0100
0010
1000
0100
,
0010
0001
0010
0001
1000
0010
0100
0001
,
0010
0000
0000
0000
0000
0000
0000
0000
0000
0000
0000
0000
0000
0000
0000
0000
0000
0000
0000
0000
0000
0000
0000
0000
0100
0000
0000
0000
0000
0000
0000
0000
0000
0000
0000
0000
0000
0000
0000
0000
0000
0000
0000
0000
0000
0000
0000
0000
1000
0000
0001
0000
0010
0000
0001
0000
0010
0000
0001
0000
0010
0000
0001
0000
0010
0000
0001
0000
0010
0000
0001
0000
0010
0000
0001
0000
0010
0000
0001
0000
0010
0000
0001
0000
0010
0000
0001
0000
0010
0000
0001
0000
0010
0000
0001
0000
0010
0000
0001
0000
0010
0000
0001
0000
0010
0000
0001
0000
0010
0000
0000
0000
0000
0000
0000
0000
0000
0000
0000
0000
0100
0000
0000
0000
0000
0000
0000
0000
0000
0000
0000
0000
0000
0000
0000
0000
0000
0000
0000
0000
0000
0000
0000
0000
1000
0000
0000
0000
0000
0000
0000
0000
0000
0000
0000
0000
0000
0000
0000
0000
0000
0000
0000
0000
0000
0000
0000
0000
0001
0000
0000
0000
0000
0000
0000
0000
0000
0000
0000
0000
0000
0000
0000
0000
0000
0000
0000
0000
0000
0000
0000
0000
,
0010
0100
1000
0010
0100
0001
0010
0100
,
1000
0010
0100
0001
1000
0010
0100
0001
,
0010
0000
0000
0000
0000
0000
0000
0000
0000
0000
0000
0000
0000
0000
0000
0000
0000
0000
0000
0000
0000
0000
0000
0000
0100
0000
0000
0000
0000
0000
0000
0000
0000
0000
0000
0000
0000
0000
0000
0000
0000
0000
0000
0000
0000
0000
0000
0000
1000
0000
0000
0000
0000
0000
0000
0000
0000
0000
0000
0000
0000
0000
0000
0000
0000
0000
0000
0000
0000
0000
0000
0000
0010
0000
0000
0000
0000
0000
0000
0000
0000
0000
0000
0000
0000
0000
0000
0000
0000
0000
0000
0000
0000
0000
0000
0000
0100
0000
0000
0000
0000
0000
0000
0000
0000
0000
0000
0000
0000
0000
0000
0000
0000
0000
0000
0000
0000
0000
0000
0000
0001
0000
0010
0000
0001
0000
0010
0000
0000
0000
0100
0000
1000
0000
0100
0000
1000
0000
0100
0000
0000
0000
0000
0000
0001
0000
0000
0000
0000
0000
0000
0000
0000
0000
0000
0000
0000
0000
0000
0000
0000
0000
0000
0000
0000
0000
0000
0000
1000
0000
0000
0000
0000
0000
0000
0000
0000
0000
0000
0000
0000
0000
0000
0000
0000
0000
0000
0000
0000
0000
0000
0000
,
0010
0100
0001
0010
0100
1000
0010
0100
,
0001
1000
0010
0100
0001
0010
0100
1000
,
0001
0000
1000
0000
0001
0000
1000
0000
0010
0000
0100
0000
0004
0013
0100
0000
,
0004
0013
0100
0000
0004
0013
0100
0000
1000
0000
0001
0000
0010
0000
0100
0000
,
1000
0010
0100
0001
1000
0010
0100
0010
,
0100
0001
0010
0100
1000
0001
0010
0100
,
1000
0010
0100
0001
1000
0010
0100
0001
,
0010
0100
1000
0001
0010
0001
0010
0001
,
1000
0000
0010
0000
0100
0000
0001
0000
1000
0000
0010
0000
0400
0301
0010
0000
,
0400
0301
0010
0000
0100
0000
1000
0000
0001
0000
0010
0000
0100
0000
1000
0000
,
0010
0100
0001
1000
0010
0100
0010
0100
,
1010
0000
0000
0000
0000
0000
0000
0000
0000
0000
0000
0000
0000
0000
0000
0000
0000
0000
0000
0000
0000
0000
0000
0000
0000
0000
0000
0000
0000
0000
0000
0000
0000
0000
0000
0000
0000
0000
0000
0000
0000
0000
0000
0000
0000
0000
0000
0000
0000
0000
0000
0000
0000
0000
0000
0000
0000
0000
0000
0000
0000
0000
0000
0000
0000
0000
0000
0000
0000
0000
0000
0000
0000
0000
0000
0000
0000
0000
0000
0000
0000
0000
0000
0000
0000
0000
0000
0000
0000
0000
0000
0000
0000
0000
0000
0000
0000
0000
0000
0000
0000
0000
0100
0000
0010
0000
0100
0000
0010
0000
0100
0000
0010
0000
0100
0000
0000
0000
0000
0000
0000
0000
0000
0000
0000
0000
0000
0000
0000
0000
0000
0000
0000
0000
0000
0000
0000
0000
0000
0000
0000
0000
0000
0000
0000
0000
0000
0000
0000
0000
0000
0000
0000
0000
0000
0000
0000
0000
0000
0000
0000
0000
0000
0000
0000
0000
0000
0000
0000
0000
0000
0000
0000
0000
0000
0000
0000
0000
0000
0000
0000
0000
0000
0000
0000
0000
0000
0000
0000
0000
0000
0000
,
0000
0000
0000
0000
0000
0000
0000
0000
0000
0000
0000
0000
0000
0000
0000
0000
0000
0000
0000
0000
0000
0000
0000
0000
0000
0000
0000
0000
0000
1000
0000
0001
0000
1000
0000
0001
0000
1000
0000
0001
0000
1000
0000
0001
0000
0000
0000
0000
0000
0000
0000
0000
0000
0000
0000
0000
0000
0000
0000
0000
0000
0000
0000
0000
0000
0000
0000
0000
0000
0000
0000
0000
0000
0000
0000
0000
0000
0000
0000
0000
0000
0000
0000
0000
0000
0000
0000
0000
0000
0000
0000
0000
0000
0000
0000
0000
0000
0000
0000
0000
0000
0000
0000
0000
0000
0000
0000
0000
0000
0000
0000
0000
0000
0000
0000
0000
0000
0000
0000
0000
0000
0000
0000
0000
0000
0000
0000
0000
0000
0000
0000
0000
0000
0000
0000
0000
0000
0000
0000
0000
0000
0000
0000
0000
1000
0000
0010
0000
1000
0000
0010
0000
1000
0000
0010
0000
1000
0000
0010
0000
1000
0000
0010
0000
0000
0000
0000
0000
0000
0000
0000
0000
0000
0000
0000
0000
0000
0000
0000
0000
0000
0000
0000
0000
0000
0000
0000
0000
0000
0000
0000
0000
,
0000
0000
0000
0000
0000
0000
0000
0000
0000
0000
0000
0000
0000
0000
0000
0000
0000
0000
0000
0000
0000
0000
0000
0000
0000
0000
0000
0000
0000
0000
0000
0000
0000
0000
0000
0000
0000
0000
0000
0000
0000
0000
0000
0000
0000
0000
0000
0000
0000
0000
0000
0000
0000
0000
0000
0000
0000
0000
0000
0000
0000
0000
0000
0000
0000
0000
0000
0000
0000
0000
0000
0000
1000
0000
0001
0000
1000
0000
0001
0000
1000
0000
0001
0000
1000
0000
0001
0000
0000
0000
0000
0000
0000
0000
0000
0000
0000
0000
0000
0000
0000
0000
0000
0000
0000
0000
0000
0000
0000
0000
0000
0000
0000
0000
0000
0000
0000
0000
0000
0000
0000
0000
0000
0000
0000
0000
0000
0000
0000
0000
0000
0000
0000
0000
0000
0000
0000
0000
0000
0000
0000
0000
0000
0000
0000
0000
0000
0000
0000
0000
0000
0000
0000
0000
0000
0000
0000
0000
0000
0000
0000
0000
0000
0000
0000
0000
0000
0000
0000
0000
0000
0000
0000
0000
0000
0000
0000
0000
0000
0000
0000
0000
0000
0000
0000
0000
0000
0000
0000
0000
0000
0000
,
0010
0000
1000
0000
0010
0000
1000
0000
0010
0000
1000
0000
0010
0000
0000
0000
0000
0000
0000
0000
0000
0000
0000
0000
0000
0000
0000
0000
0000
0000
0000
0000
0000
0000
0000
0000
0000
0000
0000
0000
0000
0000
0000
0000
0000
0000
0000
0000
0000
0000
0000
0000
0000
0000
0000
0000
0000
0000
0000
0000
0000
0000
0000
0000
0000
0000
0000
0000
0000
0000
0000
0000
0000
0000
0000
0000
0000
0000
0000
0000
0000
0000
0000
0000
0000
0000
0000
0000
0000
0000
0000
0000
0000
0000
0000
0000
0000
0000
0000
0000
0000
0000
0000
0000
0000
0000
0000
0000
0000
0000
0000
0000
0000
0000
0000
0000
0001
0000
0100
0000
0001
0000
0100
0000
0001
0000
0100
0000
0001
0000
0100
0000
0000
0000
0000
0000
0000
0000
0000
0000
0000
0000
0000
0000
0000
0000
0000
0000
0000
0000
0000
0000
0000
0000
0000
0000
0000
0000
0000
0000
0000
0000
0000
0000
0000
0000
0000
0000
0000
0000
0000
0000
0000
0000
0000
0000
0000
0000
0000
0000
0000
0000
0000
0000
0000
0000
0000
0000
0000
0000
0000
0000
,
0000
0000
0000
0000
0000
0000
0000
0000
0000
0000
0000
0000
0000
0000
0000
0000
0000
0000
0000
0000
0000
0000
0000
0000
0000
0000
0000
0000
0000
0000
0000
0000
0000
0000
0000
0000
0000
0000
0000
0000
0000
0000
0000
1000
0000
0010
0000
1000
0000
0010
0000
1000
0000
0010
0000
1000
0000
0010
0000
1000
0000
0000
0000
0000
0000
0000
0000
0000
0000
0000
0000
0000
0000
0000
0000
0000
0000
0000
0000
0000
0000
0000
0000
0000
0000
0000
0000
0000
0000
0000
0000
0000
0000
0000
0000
0000
0000
0000
0000
0000
0000
0000
0000
0000
0000
0000
0000
0000
0000
0000
0000
0000
0000
0000
0000
0000
0100
0000
0010
0000
0100
0000
0010
0000
0100
0000
0010
0000
0100
0000
0010
0000
0100
0000
0010
0000
0100
0000
0010
0000
0100
0000
0010
0000
0100
0000
0010
0000
0100
0000
0010
0000
0100
0000
0010
0000
0100
0000
0010
0000
0100
0000
0010
0000
0100
0000
0010
0000
0100
0000
0010
0000
0100
0000
0010
0000
0100
0000
0000
0000
0001
0000
0000
0000
0000
0000
0000
0000
0000
0000
0000
0000
,
1000
0000
0001
0000
1000
0000
0010
0000
0100
0000
0001
0000
0040
0130
1000
0000
,
0040
0130
1000
0000
0040
0130
1000
0000
0001
0000
0010
0000
0100
0000
1000
0000
,
0010
0000
0100
0000
0001
0000
1000
0000
0010
0000
0100
0000
0001
0010
0100
1000
,
0001
0000
0010
0000
0100
1000
0001
0010
0100
0000
1000
0000
0010
0000
0100
0000
,
0001
1000
0010
0100
0001
0010
0100
1000
,
0001
0010
0001
1000
0010
0100
0001
0100
,
0001
0000
1000
0000
0010
0000
0400
0301
0010
0000
0400
0301
0010
0000
0400
0301
,
0010
0100
1000
0010
0100
0001
1000
0010
,
1000
0010
0100
0001
1000
0010
0100
0001
,
0010
0001
0010
0100
0010
0100
0010
0100
,
1001
0000
0010
0000
0400
1300
0001
0000
0400
1300
0001
0000
1000
0000
0001
0000
,
1000
0010
0100
0001
0010
0100
1000
0001
,
1000
0000
0001
0000
4000
3001
0010
0000
4000
3001
0010
0000
0100
0000
1000
0000
,
0010
0000
0100
0000
0010
0000
0100
0000
0010
0000
0100
0001
0100
0001
0100
0001
,
0100
0001
0100
0001
0100
0001
0100
0001
0100
0000
0001
0000
1000
0000
0010
0000
,
0100
0000
0001
0000
0010
0000
0100
0000
4000
3001
0100
0000
4000
3001
0100
0000
,
4000
3001
0100
0000
0010
0000
1000
0000
0100
0000
0010
0000
0001
0000
1000
0000
,
0001
0000
1000
0000
0001
0000
0400
0301
0010
0000
0400
0301
0010
0000
0400
0301
,
0010
0100
1000
0010
1000
0010
0100
0010
,
0100
0001
0100
0001
1000
0001
1000
0001
,
1000
0100
0010
0100
1000
0010
1000
0010
,
1000
0000
0040
0130
0001
0000
0040
0130
0001
0000
0040
0130
0001
0000
1000
0000
,
0010
0100
0001
0010
0100
1000
0001
0010
,
0001
1000
0010
0100
0010
0100
0001
1000
,
0010
0100
0001
0010
0100
1000
0001
0010
,
0100
1000
0001
0000
1000
0000
0010
0000
0100
0000
0001
0000
0010
0000
0100
0000
,
1000
0001
0010
0001
1000
0001
0100
0010
,
1000
0000
0001
0000
1000
0000
0001
0000
1000
0010
1000
0010
1000
0010
1000
0010
,
1000
0010
1000
0040
4000
0000
0000
0000
0000
0000
0000
0000
0000
0000
0000
0000
,
0000
0000
0000
3030
1000
0000
0001
0000
1000
0000
0010
0000
0100
0000
0001
0000
,
0010
0000
0100
0000
1000
0000
0004
0013
0100
0000
0004
0013
0100
0000
0004
0013
,
0100
1000
0001
1000
0010
1000
0010
0100
,
0001
0000
0100
0000
0001
0000
1000
0000
0001
0000
4000
3001
1000
0000
4000
3001
,
1000
0001
1000
0010
0100
0001
0010
0100
,
1000
0001
0010
0001
1000
0010
0100
0001
,
1000
0000
0010
0000
0100
0000
0001
0000
0010
0000
0100
0000
1000
0000
0004
1003
,
0100
0000
0004
1003
0100
0000
0004
1003
0100
0000
0010
0000
0001
0000
1000
0000
,
0010
0100
0001
0010
0001
1000
0010
1000
,
0010
0100
0001
1000
0010
0100
0001
0010
,
0100
0000
1000
0000
0001
0000
0010
0000
0100
0000
1000
0000
0040
0130
0001
0000
,
0040
0130
0001
0000
1000
0000
0001
0000
1000
0000
0010
0000
0100
0000
0001
0000
,
1000
0001
1000
0010
0100
0001
1000
0001
,
1000
0001
1000
0010
0100
0001
1000
0010
,
0100
0000
0001
1000
0001
1000
0001
1000
0001
1000
0004
4000
0000
0000
0000
3000
,
1003
0000
1000
0010
0100
0001
0010
0100
,
1000
0000
0004
0103
0010
0000
0004
0103
0010
0000
0004
0103
0010
0000
1000
0000
,
0010
0100
0001
0010
0100
1000
0001
0010
,
0400
1300
0001
0000
0400
1300
0001
0000
0400
1300
0001
0000
1000
0000
0010
0000
,
0100
0001
0010
0100
1000
0010
1000
0010
,
0100
0001
0100
0001
1000
0010
0100
0001
,
0010
0000
0001
0000
0010
0000
0100
0000
1000
0000
0004
0013
0100
0000
0004
0013
,
0100
0000
0004
0013
0100
0000
1000
0000
0010
0000
0100
0000
0001
0000
1000
0000
,
0010
1000
0010
1000
0010
1000
0001
1000
,
0010
0100
0001
1000
0100
0010
0100
1000
,
0001
0000
0010
0000
0100
0000
0010
0000
0001
0000
1000
0001
0010
0000
0100
0000
,
1000
0001
1000
0001
1000
0010
0100
0010
,
0100
0001
1000
0010
0100
0001
0010
0100
,
1000
0001
0010
0001
1000
0010
0100
0001
,
1000
0010
0100
0001
0010
0100
1000
0001
,
0020
0000
0230
0000
2300
0000
3020
0000
0230
0000
0302
0000
2003
0000
3004
0103
,
0001
0000
0004
0103
0001
0000
0004
0103
0001
0000
1000
0000
0010
0000
0100
0000
,
0001
0000
0000
0010
0000
0000
0100
0000
0000
1000
0000
0000
0001
0000
0000
1000
0000
0000
0010
0000
0000
0100
0010
0100
,
0020
0000
0000
0000
0000
0000
0000
0000
0000
0130
0010
0100
0010
0000
0000
0100
0000
0000
0001
0000
0000
1000
0000
0000
,
0010
0100
0001
0010
0100
1000
0001
0010
,
0001
1000
0010
0100
0001
1000
0010
0100
,
0001
0000
0010
0000
0100
0000
4000
3001
0010
0000
4000
3001
0010
0000
4000
3001
,
0010
0100
1000
0010
0100
0010
0100
0001
,
1000
0010
0100
0001
0010
0100
1000
0001
,
0010
0001
1000
0010
0100
0001
1000
0010
,
0220
0000
0000
0000
0330
0000
0040
1030
0100
0000
0040
1030
0100
0000
0010
0000
,
0001
1000
0010
1000
0010
0100
0001
0010
,
0100
0000
1000
0000
0001
0000
0040
0130
1000
0000
0040
0130
1000
0000
0001
0000
,
1000
0000
0010
0000
0100
0000
0001
0000
0010
0000
0100
1000
0100
1000
0100
1000
,
0100
1000
0100
1000
0400
4000
0000
0000
0000
0300
3001
0000
0010
0000
0100
0000
,
1000
0000
0010
0000
0100
0000
0001
0000
1000
0000
0040
0130
0001
0000
0040
0130
,
0001
0000
0040
0130
0001
0000
0010
0000
0100
0000
1000
0000
0010
0000
0100
0000
,
0001
0000
0000
1000
0000
0000
0010
0000
0000
0100
0000
0000
0001
0000
0000
1000
0001
1000
0002
0000
0000
0000
0000
0000
,
0000
0000
0000
1003
0001
1000
0001
0000
0000
1000
0000
0000
0010
0000
0000
0100
0000
0000
0001
0000
0000
0010
0000
0000
,
0100
1000
0001
0010
0001
1000
0010
0100
,
0001
1000
0010
0100
0001
0010
0100
1000
,
0001
0000
0040
0130
1000
0000
0040
0130
1000
0000
0040
0130
1000
0000
0001
0000
,
0010
0100
1000
0010
0100
0010
0100
0001
,
1000
0010
0100
0001
0010
0001
1000
0010
,
1000
0010
0100
0001
0010
0100
1000
0202
,
0303
0000
0004
1003
0010
0000
0004
1003
0010
0000
0100
0000
0001
0000
1000
0000
,
0010
0100
0001
0010
0100
1000
0100
1000
,
0100
0000
4000
3001
0010
0000
4000
3001
0010
0000
0100
0000
1000
0000
0010
0000
,
0100
0000
0000
0000
0000
0000
0000
0000
0000
0000
0000
0000
0000
0000
0000
0000
0000
0000
0000
0000
0000
0000
0000
0000
0001
0000
0000
0000
0000
0000
0000
0000
0000
0000
0000
0000
0000
0000
0000
0000
0000
0000
0000
0000
0000
0000
0000
0000
0010
0000
0000
0000
0000
0000
0000
0000
0000
0000
0000
0000
0000
0000
0000
0000
0000
0000
0000
0000
0000
0000
0000
0000
0100
0000
0000
0000
0000
0000
0000
0000
0000
0000
0000
0000
0000
0000
0000
0000
0000
0000
0000
0000
0000
0000
0000
0000
0010
0000
0100
0000
0010
0000
0100
0000
0010
0000
0100
0000
0010
0000
0100
0000
0010
0000
0100
0000
0010
0000
0100
0000
0010
0000
0100
0000
0000
0000
0000
0000
0000
0000
0000
0000
0000
0000
0000
0000
0000
0000
0000
0000
0000
0000
0000
0000
0000
0000
0000
0000
0000
0000
0000
0000
0000
0000
0000
0000
0000
0000
0000
0000
0000
0000
0000
0000
0000
0000
0000
0000
0000
0000
0000
0000
0000
0000
0000
0000
0000
0000
0000
0000
0000
0000
0000
0000
0000
0000
0000
0000
0000
0000
0000
0000
,
0000
0000
0000
0000
0000
0000
0000
0000
0000
0000
0000
0000
0000
0000
0000
0000
0000
0000
0000
0000
0000
0000
0000
0000
0000
0000
0000
0000
0000
0000
0000
0000
0000
0000
0000
0000
0010
0000
1000
0000
0010
0000
1000
0000
0010
0000
1000
0000
0010
0000
1000
0000
0000
0000
0000
0000
0000
0000
0000
0000
0000
0000
0000
0000
0000
0000
0000
0000
0000
0000
0000
0000
0000
0000
0000
0000
0000
0000
0000
0000
0000
0000
0000
0000
0000
0000
0000
0000
0000
0000
0000
0000
0000
0000
0000
0000
0000
0000
0000
0000
0000
0000
0000
0000
0000
0000
0000
0000
0000
0000
0000
0000
0000
0000
0000
0000
0000
0000
0000
0000
0000
0000
0000
0000
0000
0000
0000
0000
0000
0000
0000
0000
0000
0000
0000
0000
0000
0000
0000
0000
0000
0000
0000
0000
0000
0000
0000
0000
0000
0000
0000
0000
0000
0000
0000
0000
0100
0000
0010
0000
0100
0000
0010
0000
0100
0000
0010
0000
0100
0000
0010
0000
0000
0000
0000
0000
0000
0000
0000
0000
0000
0000
0000
0000
0000
0000
0000
0000
0000
0000
0000
0000
,
0000
0000
0000
0000
0000
0000
0000
0000
0000
0000
0000
0000
0000
0000
0000
0000
0000
0000
0000
0000
0000
0000
0000
0000
0000
0000
0000
0000
0000
0000
0000
0000
0000
0000
0000
0000
0000
0000
0000
0000
0000
0000
0000
0000
0000
0000
0000
0000
0000
0000
0000
0000
0000
0000
0000
0000
0000
0000
0000
0000
0000
0000
0000
0000
0000
0000
0000
0000
0000
0000
0000
0000
0000
0000
0000
0000
0000
0000
0000
0000
0000
0000
1000
0000
0001
0000
1000
0000
0001
0000
1000
0000
0001
0000
1000
0000
0001
0000
0000
0000
0000
0000
0000
0000
0000
0000
0000
0000
0000
0000
0000
0000
0000
0000
0000
0000
0000
0000
0000
0000
0000
0000
0000
0000
0000
0000
0000
0000
0000
0000
0000
0000
0000
0000
0000
0000
0000
0000
0000
0000
0000
0000
0000
0000
0000
0000
0000
0000
0000
0000
0000
0000
0000
0000
0000
0000
0000
0000
0000
0000
0000
0000
0000
0000
0000
0000
0000
0000
0000
0000
0000
0000
0000
0000
0000
0000
0000
0000
0000
0000
0000
0000
0000
0000
0000
0000
0000
0000
0000
0000
0000
0000
,
0000
0000
0000
0000
0000
0000
0000
1000
0000
0010
0000
1000
0000
0010
0000
1000
0000
0010
0000
1000
0000
0010
0000
0000
0000
0000
0000
0000
0000
0000
0000
0000
0000
0000
0000
0000
0000
0000
0000
0000
0000
0000
0000
0000
0000
0000
0000
0000
0000
0000
0000
0000
0000
0000
0000
0000
0000
0000
0000
0000
0000
0000
0000
0000
0000
0000
0000
0000
0000
0000
0000
0000
0000
0000
0000
0000
0000
0000
0000
0000
0000
0000
0000
0000
0000
0000
0000
0000
0000
0000
0000
0000
0000
0000
0000
0000
0000
0000
0000
0000
0000
0000
0000
0000
0000
0000
0000
0000
0000
0000
0000
0000
0000
0000
0000
0000
0000
0000
0000
0000
0000
0000
0000
0000
0000
0100
0000
0001
0000
0100
0000
0001
0000
0100
0000
0001
0000
0100
0000
0001
0000
0000
0000
0000
0000
0000
0000
0000
0000
0000
0000
0000
0000
0000
0000
0000
0000
0000
0000
0000
0000
0000
0000
0000
0000
0000
0000
0000
0000
0000
0000
0000
0000
0000
0000
0000
0000
0000
0000
0000
0000
0000
0000
0000
0000
0000
0000
0000
0000
0000
0000
0000
,
0000
0000
0000
0000
0000
0000
0000
0000
0000
0000
0000
0000
0000
0000
0000
0000
0000
0000
0000
0000
0000
0000
0000
0000
0000
0000
0000
0000
0000
0000
0000
0000
0000
0000
0000
0000
0000
0000
0000
0000
0000
0000
0000
0000
0000
0000
0000
0000
1000
0000
0010
0000
1000
0000
0010
0000
1000
0000
0010
0000
1000
0000
0010
0000
1000
0000
0000
0000
0000
0000
0000
0000
0000
0000
0000
0000
0000
0000
0000
0000
0000
0000
0000
0000
0000
0000
0000
0000
0000
0000
0000
0000
0000
0000
0000
0000
0000
0000
0000
0000
0000
0000
0000
0000
0000
0000
0000
0000
0000
0000
0000
0000
0000
0000
0000
0000
0000
0000
0000
0000
0000
0000
0000
0000
0000
0000
0000
0000
0000
0000
0000
0000
0000
0000
0000
0000
0000
0000
0000
0000
0000
0000
0000
0000
0000
0000
0000
0000
0000
0000
0000
0000
0000
0000
0000
0000
0000
0000
0000
0000
0000
0000
0000
0000
0000
0000
0000
0000
0100
0000
0010
0000
0100
0000
0010
0000
0100
0000
0010
0000
0100
0000
0010
0000
0000
0000
0000
0000
0000
0000
0000
0000
,
0000
0000
0000
0000
0000
0000
0000
0000
0000
0000
0000
0000
0000
0000
0000
0000
0001
0100
0001
0100
0001
0100
0001
0100
0001
0100
0001
0100
0001
0100
0001
0100
0001
0100
0001
0100
0001
0100
0001
0100
0001
0100
0001
0100
0001
0100
0001
0100
0001
0100
0001
0100
0001
0100
0001
0100
0001
0100
0001
0100
0001
0100
0001
0100
,
0001
0100
0001
0100
0001
0100
0001
0000
0100
0000
0001
0100
0001
0100
0001
0000
0100
0000
0001
0000
0100
0000
0010
0000
1000
0000
0001
0000
0100
0000
0001
0000
0100
0000
0010
0000
1000
0000
0001
0000
0100
0001
0100
0001
0100
0001
0100
0001
0100
0001
0100
0001
0100
0001
0100
0001
0100
0001
0100
0001
0100
0001
0100
0001
,
0100
0000
1000
0000
0010
0000
0100
0001
0100
0001
0100
0001
0100
0001
0100
0000
0001
0000
1000
0000
0010
0000
0100
0000
0001
0000
0010
0000
0100
0000
1000
0000
0010
0000
0100
0000
0001
0100
0001
0100
0001
0100
0001
0100
0001
0100
0001
0100
0001
0100
0001
0100
0001
0100
0001
0100
0001
0100
0001
0100
0000
0001
0000
0100
,
0000
0001
0100
0001
0100
0001
0100
0001
0100
0001
0100
0000
0001
0000
0100
0000
0001
0000
1000
0000
0010
0000
1000
0000
0001
0000
1000
0000
0001
0000
0100
0001
0100
0001
0100
0001
0100
0001
0100
0001
0100
0001
0100
0001
0100
0001
0100
0001
0100
0001
0100
0001
0100
0001
0100
0000
0001
0000
1000
0000
0010
0000
0100
0001
,
0100
0001
0100
0001
0100
0000
0000
0000
0001
0000
0000
0000
0000
0000
0000
0000
1000
0000
0000
0000
0000
0000
0000
0000
0010
0000
0000
0000
0000
0000
0000
0000
0100
0000
0000
0000
0000
0000
0000
0000
0001
0000
0000
0000
0000
0000
0000
0000
0010
0000
0000
0000
0000
0000
0000
0000
0100
0000
0000
0000
0000
0000
0000
0000
,
1000
0000
0000
0010
0000
0000
0100
0000
0001
0100
0000
0000
0001
0000
0000
1000
0000
0000
0001
0000
0000
1000
0000
0000
,
0010
0100
0001
0010
0100
1000
0001
0010
,
0100
1000
0010
0100
0010
0100
0001
1000
,
0010
0000
0100
0000
0001
0000
0010
0000
0100
0000
1000
0000
0004
1003
0010
0000
,
0004
1003
0010
0000
0100
0000
0001
0000
0010
0000
0100
0000
1000
0000
0010
0000
,
0100
0010
0100
0001
1000
0010
0100
0001
,
0010
0100
1000
0001
0010
0100
1000
0001
,
0040
0130
1000
0000
0040
0130
1000
0000
0040
0130
1000
0000
0001
0000
0010
0000
,
0100
1000
0010
0100
0001
1000
0010
0100
,
0001
0010
0001
0010
0100
0010
0100
1000
,
0010
0000
0100
0000
0001
0000
1000
0000
0010
0000
0100
0000
0001
0000
0040
0130
,
1000
0000
0040
0130
1000
0000
0001
0000
0010
0000
0100
0000
1000
0000
0010
0000
,
0100
0001
1000
0010
1000
0010
0100
0001
,
0010
0100
1000
0001
0010
0100
1000
0010
,
0100
0000
0001
0000
1000
0001
1000
0001
1000
0001
1000
0001
4000
0004
0000
0000
,
0000
3000
0103
0000
0010
0000
1000
0000
0100
0000
0010
0000
0001
0000
1000
0000
,
0010
0000
0400
0301
0100
0000
0400
0301
0100
0000
0400
0301
0100
0000
0001
0000
,
1000
0010
0100
0201
0302
0023
0230
2300
,
3020
0000
0230
0000
0302
0000
2003
0000
3004
0013
0100
0000
0004
0013
0100
0000
,
1000
0001
0010
0100
1000
0010
0100
0001
,
1000
0010
0100
0001
0010
0100
1000
0001
,
0010
0000
0001
0000
1000
0000
0010
0000
0100
0000
0004
0103
0010
0000
0004
0103
,
0010
0000
0004
0103
0010
0000
1000
0000
0001
0000
0100
0000
0010
0000
1000
0000
,
0100
0010
0001
1000
0010
1000
0010
0100
,
0001
0010
0100
1000
0010
0100
0001
1000
,
0010
0000
0100
0000
0001
0000
0010
0000
0100
0000
1000
0001
0100
0000
0010
0000
,
1000
0001
1000
0010
0100
0001
1000
0010
,
0100
0001
0010
0100
1000
0010
0100
0001
,
1000
0100
0010
0100
1000
0001
0010
0100
,
0010
0001
1000
0010
0100
0001
1000
0010
,
0200
0000
0000
0000
0000
0020
0000
0000
,
0000
0000
0000
0000
,
0000
0000
0000
0000
,
0000
0000
0000
0000
,
0000
0000
0000
0000
,
0000
0000
0000
0000
,
0000
0000
0000
0000
,
0000
0000
0000
0000
,
0000
0000
0000
0000
,
0000
0000
0000
0000
,
0000
0000
0000
0000
,
0000
0000
0000
0000
,
0000
0000
0000
0000
,
0000
0000
0000
0000
,
0000
0000
0000
0000
,
0000
0000
0000
0000
,
0000
0000
0000
0000
,
0000
0000
0000
0000
,
0000
0000
0000
0000
,
0000
0000
0000
0000
,
0000
0000
0000
0000
,
0000
0000
0000
0000
,
0000
0000
0000
0000
,
0000
0000
0000
0000
,
0000
0000
0000
0000
,
0000
0000
0000
0000
,
0000
0000
0000
0000
,
0000
0000
0000
0000
,
0000
0000
0000
0000
,
0000
0000
0000
0000
,
0000
0000
0000
0000
,
0000
0000
0000
0000
,
0000
0000
0000
0000
,
0000
0000
0000
0000
,
0000
0000
0330
0000
;

//---------------dance-double - M. Simmons----------------
#NOTES:
     dance-double:
     M. Simmons:
     Challenge:
     14:
     0.433,0.375,0.192,0.033,0.392,863.000,59.000,10.000,0.000,0.000:
00000000
00000000
00000000
00000000
,
00000000
00000000
00000000
00000000
,
00000000
00000000
00000000
00000000
,
00000000
00000000
00000000
00000000
00000000
00000000
00000100
00001000
,
00000100
00010000
00001000
00000000
00010000
00001000
01000000
00000000
00100000
10000000
00010000
00000000
01000000
00010000
10000000
00000000
,
01000000
00100000
00010000
00000000
00100000
01000000
10000000
00000000
00010000
01000000
00001000
00000000
00010000
00000100
00010000
00000000
,
00000100
00000010
00000001
00000000
00001000
00000001
00000100
00000000
00000010
00001000
00000001
00000000
00000100
00000010
00001000
00000000
,
00000001
00000010
00000100
00000000
00000010
00000001
00001000
00000000
00002002
00000000
00000000
00000000
00003003
00000000
00000000
00000000
,
00000001
00000100
00000010
00000000
00010000
00000100
00001000
00000000
00000100
00010000
00001000
00000000
00010000
00001000
01000000
00000000
,
00010000
01000000
00010000
00000000
00100000
01000000
10000000
00000000
01000000
00100000
01000000
00000000
00100000
00010000
10000000
00000000
,
00010000
10000000
01000000
00000000
00100000
00001000
00010000
00000000
00000100
00001000
00000001
00000000
00000100
00000010
00001000
00000000
,
00000001
00000100
00000001
00000000
00001000
00000100
00010000
00000000
00020200
00000000
00000000
00000000
00030300
00000000
00000000
00000000
,
00001000
01000000
00100000
00000000
01000000
00010000
10000000
00000000
01000000
00100000
00010000
00000000
00100000
01000000
10000000
00000000
,
00010000
01000000
00001000
00000000
00010000
00000100
00010000
00000000
00000100
00000010
00000001
00000000
00001000
00000010
00000100
00000000
,
00000010
00001000
00000001
00000000
00000100
00000001
00001000
00000000
00000001
00000100
00000001
00000000
00001000
00000100
00000010
00000000
,
00000100
00010000
00001000
00000000
00010000
00001000
01000000
00000000
01001000
00000000
00000000
00000000
00110000
00000000
00000000
00000000
,
01001000
00000000
00001000
00010000
00000100
00000010
00001000
00010000
,
00000010
00000100
00000001
00000010
00001000
00010000
00100000
00010000
,
00011000
01000000
00100000
10000000
01000000
00010000
00001000
00000100
,
00000010
00000000
00001000
00000100
00000010
00000000
00000100
00000000
00010000
00000000
00000010
00000000
00000100
00000000
00001000
00000000
,
00011000
00010000
00100000
10000000
00100000
01000000
00001000
00010000
,
00000100
00000000
00000010
00000000
00001000
00000000
00010000
00000000
00001000
00000000
00000100
00000000
00000020
00000000
00000000
00000030
,
00001001
00000000
00011000
00000000
,
10010000
00000000
00000000
00000000
00101000
00000000
00000000
00000000
00010000
00000000
00000100
00000000
00000010
00000100
00010000
00001000
,
00010000
00000000
00001000
00000000
01000000
00100000
10000000
00000000
00010000
00000000
01000000
00001000
00010000
00000000
00001000
00010000
,
00000100
00000000
00000010
00000000
00000100
00001000
00000100
00000000
00000010
00000000
00000100
00010000
00001000
00000000
00010000
00001000
,
00100000
00000000
01000000
00000000
00100000
00001000
00010000
00000000
00000100
00000000
00010000
00001000
01000000
00000000
00010000
01000000
,
00001000
00000000
00010000
00000000
00000100
00000010
00000100
00000000
00010000
00000000
00000010
00000100
00000010
00000100
00000001
00001000
,
00000001
00000000
00000001
00000000
00000010
00000100
00001000
00000000
00000100
00000000
00001000
00000100
00010000
00000000
00001000
01000000
,
00010000
00000000
00100000
00000000
01000000
00100000
01000000
00000000
10000000
00000000
00010000
01000000
00100000
00000000
10000000
00010000
,
10000000
00000000
00010000
00000000
00100000
01000000
00100000
00000000
00001000
00000000
01000000
00001000
00010000
00000000
00000100
00010000
,
00001000
00000000
00010000
00000000
00000100
00000010
00000100
00000000
00001000
00000000
00000001
00000100
00000010
00000100
00000001
00001000
,
00000001
00000000
00000010
00000100
00001000
00000000
00000001
00000100
00000010
00000000
00001000
00000100
00001000
00000000
00000001
00000000
,
00000101
00000000
00000001
00001000
00000100
00000000
00010000
00000100
00001000
00000000
00000100
00010000
00001000
00000000
01000000
00000000
,
01001000
00000000
00001000
00100000
00010000
00000000
01000000
00100000
10000000
00000000
00010000
01000000
00010000
00000000
10000000
00000000
,
10000000
00010000
01000000
00000000
00001000
01000000
00100000
00000000
00010000
00000000
00100000
00000000
10000000
00000000
00010000
00000000
,
00100000
00000000
00010000
01000000
00001000
00000000
00001000
01000000
00100000
00000000
10000000
00010000
00100000
00000000
00001000
00000000
,
00011000
00000000
00010000
00000100
00001000
00000000
00000010
00000100
00000010
00000000
00001000
00000001
00010000
00000000
00000100
00000000
,
00010100
00000000
00000100
00000010
00000001
00000000
00001000
00000010
00000100
00000000
00000010
00001000
00000001
00000000
00000010
00000000
,
00000011
00000000
00000010
00000100
00001000
00000000
00000010
00000000
00001000
00000000
00000001
00000000
00000100
00000010
00001000
00000000
,
00000010
00010000
00001000
00000000
00100000
00001000
00010000
00000000
00000100
00000000
00001000
00000000
00000010
00000100
00000001
00000000
,
00000100
00000010
00001000
00000000
00000100
00000010
00000100
00000000
00000010
00000000
00000001
00000000
00001000
00000100
00001000
00000000
,
00000100
00010000
00001000
00000000
00010000
00000100
00010000
00000000
00001000
00000000
00100000
00000000
01000000
00000000
10000000
00100000
,
01000000
00000000
00010000
00000000
10000000
00000000
01000000
10000000
00010000
00000000
00100000
00000000
00100000
00010000
10000000
00000000
,
00010000
01000000
00001000
00000000
01000000
00100000
10000000
00000000
00010000
00000000
00100000
00000000
01000000
00100000
00001000
00000000
,
00010000
00000100
00010000
00000000
00001000
00010000
00000010
00000000
00000100
00000000
00000010
00000000
00001000
00000001
00000100
00000000
,
00000001
00001000
00000100
00000000
00000010
00000001
00001000
00000000
00000010
00000000
00000100
00000000
00000010
00001000
00000001
00000000
,
00000010
00000001
00001000
00000000
00000010
00000100
00000010
00000000
00001000
00000100
00010000
00001000
00010000
00000000
00001000
00000000
,
01000000
00010000
10000000
00000000
00010000
01000000
00010000
00000000
10000000
00000000
01000000
00000000
00100000
00010000
00100000
00000000
,
00001000
00010000
00001000
00000000
00010000
00000000
00000100
00000000
00001100
00000000
00000100
00000000
00000010
00000100
00001000
00000000
,
00000100
00000010
00000001
00000000
00001000
00000010
00010000
00000000
00001000
00000000
01000000
00000000
00100000
10000000
00010000
00100000
,
00010000
00000000
01000000
00000000
02001000
00000000
00010000
00000000
00000000
00000000
00000000
00000000
03001000
01000000
00001000
00000000
,
00010000
00001000
00010000
00000000
00000010
00001000
00000010
00000000
00000100
00000000
00000010
00000000
00001000
00000001
00000100
00000000
,
00000001
00001000
00000100
00000000
00000010
00000000
00000100
00000000
00000110
00000000
00000001
00000000
00001000
00000001
00000010
00000000
,
00000100
00001000
00000100
00000000
00010000
00001000
00100000
00000000
01000000
00000000
00100000
00000000
00001000
00100000
00001000
00100000
,
00010000
00000000
01000000
00000000
00010000
00000000
20010000
00000000
00020000
00000000
30030000
00000000
00110000
00000000
00100000
00001000
,
00010000
00000000
00001000
00010000
00001000
00000000
00010000
00000010
00000100
00000000
00000010
00000000
00001010
00000000
00000001
00000100
,
00000010
00000000
00001000
00000001
00000100
00000000
00000001
00001000
00000100
00000000
00010000
00000000
00010100
00000000
00000100
00010000
,
00001000
00000000
01000000
00100000
01000000
00000000
00010000
10000000
01000000
00000000
00100000
00000000
01100000
00000000
01000000
10000000
,
00010000
00000000
01000000
00100000
10000000
00000000
00010000
01000000
00001000
00010000
00001000
01000000
00010000
00000000
01000000
00001000
,
00010000
00000000
00000100
00010000
00001000
00000000
00010000
00000010
00010000
00000000
00001000
00000000
00011000
00000000
00010000
00000100
,
00001000
00000000
00000100
00000010
00000100
00000000
00001000
00000001
00001000
00000000
00000010
00000000
00001010
00000000
00000100
00000001
,
00001000
00000000
00000010
00000100
00000001
00000000
00001000
00000100
00000010
00000000
00000100
00000000
00000010
00000001
00001000
00000001
,
00001000
00000000
00000010
00000000
00000100
00000010
00010000
00000010
00010000
00000000
00001000
00000000
00010000
00001000
01000000
00000000
,
00010000
10000000
01000000
00000000
00100000
00010000
10000000
00000000
00100000
10000000
00100000
00000000
01000000
00001000
00010000
00000000
,
00001000
00100000
00001000
00000000
00010000
00000100
00001000
00000000
00000001
00001000
00000001
00000000
00000100
00000010
00001000
00000000
,
00000010
00000100
00000001
00000000
00001000
00000001
00000100
00000000
00000010
00010000
00001000
00000000
00100000
00010000
01000000
00000000
,
00101000
00000000
00000000
00000000
00001000
00000000
00010000
00000000
00000010
00000000
00001000
00000000
00000010
00000100
00000001
00000000
,
00000100
00000010
00001000
00000000
00000100
00010000
00000100
00000000
00010000
00001000
00100000
00000000
00010000
01000000
00100000
00000000
,
01000000
00100000
10000000
00000000
00100000
10000000
00010000
00000000
00100000
00001000
00010000
00000000
00001000
01000000
00100000
00000000
,
10000000
00010000
01000000
00000000
00001000
00010000
00001000
00000000
00010000
00000010
00001000
00000000
00000010
00000100
00000001
00000000
,
00001010
00000000
00000000
00000000
00000010
00000000
00010000
00000000
00001000
00000000
01000000
00100000
10000000
00000000
00010000
00000000
,
00100000
01000000
00100000
00000000
00010000
00100000
00001000
00000000
00010000
00001000
00010000
00000000
00000100
00001000
00000010
00000000
,
00000100
00000001
00001000
00000000
00000100
00010000
00001000
00000000
00010000
00001000
00010000
00000000
00000100
00001000
00000001
00000000
,
00000100
00000010
00010000
00000000
00001000
00100000
00010000
00000000
10000000
01000000
00100000
00000000
00010000
01000000
00100000
00000000
,
01010000
00000000
00000000
00000000
00001000
00000000
00010000
00000000
00000010
00000000
00001000
00000001
00000100
00000000
00000010
00000000
,
00001000
00000001
00000100
00000000
00000001
00001000
00000100
00000000
00000010
00000100
00010000
00000000
00001000
00010000
00000010
00000000
,
00010000
00001000
01000000
00000000
00100000
10000000
00010000
00000000
01000000
00001000
00010000
00000000
00001000
00010000
00000100
00000000
,
00000010
00000001
00001000
00000000
00000001
00000100
00000010
00000000
00000100
00000001
00001000
00000000
00000100
00000000
00000010
00000001
,
00001000
00000000
00000010
00000000
00001001
00000000
00000001
00000100
00000010
00000000
00010000
00000000
00010010
00000000
00000000
00001100
,
00000000
00000000
00010100
00000000
00000000
00010010
00000000
00000000
00010000
00001000
00100000
00000000
10001000
00000000
00000000
01000100
,
00000000
00000000
00010001
00000000
00000000
00100010
00000000
00010000
00001000
00000000
00100000
00000000
00101000
00000000
00000000
01010000
,
00000000
00000000
00011000
00000000
00000000
00010100
00000000
00000000
00000010
00000001
00000010
00000000
00000110
00000000
00000000
00001100
,
00000000
00000000
00010100
00000000
00001000
01000000
00010000
01000000
00100000
10000000
00010000
01000000
00001000
00000000
00000000
00011000
,
00000000
00000000
00100010
00000000
00000000
00010010
00000000
00000000
00000010
00001000
00000010
00000000
00001010
00000000
00000000
00010100
,
00000000
00000000
01001000
00000000
00000000
00001000
01000000
00000000
01001000
00000000
00001000
00000000
00101000
00000000
00000000
00011000
,
00000000
00000000
00110000
00000000
00000000
01100000
00000000
00000000
10000000
00010000
01000000
00000000
01010000
00000000
00000000
01001000
,
00000000
00000000
00010100
00000000
00010000
00001000
00010000
00000000
00001000
00000000
01000000
00002000
20000000
00000000
00000000
00000000
,
00000000
00000000
00000000
30003000
;

//---------------dance-double - M. Simmons----------------
#NOTES:
     dance-double:
     M. Simmons:
     Hard:
     11:
     0.298,0.289,0.198,0.039,0.166,568.000,61.000,12.000,0.000,0.000:
00000000
00000000
00000000
00000000
,
00000000
00000000
00000000
00000000
,
00000000
00000000
00000000
00000000
,
00000000
00000000
00000000
00000000
,
00011000
01000100
00011000
00100010
,
00010010
00101000
01000010
00100100
,
01001000
00010100
00010001
00010010
,
00100010
10001000
00022000
00033000
,
01001000
01000100
00011000
00010001
,
00010010
00100010
00011000
01001000
,
00110000
11000000
10010000
01001000
,
00110000
00101000
00200020
00300030
,
00001010
00000101
00000011
00000110
,
00001001
00010001
00010100
01000100
,
00011000
01010000
00110000
01100000
,
10010000
01001000
10001000
00011000
,
00100000
00000010
00001000
00000100
00000010
00000001
00001000
00000100
,
00010000
00001000
01000000
00100000
10000000
01000000
00010000
00001000
,
00000200
00000000
00000310
00001000
00000001
00000010
00000100
00010000
,
00001000
01000000
00100000
01000000
00001000
00010000
00000100
00000010
,
00000002
00000000
00000103
00000010
00010000
00001000
01000000
00001000
,
00100000
01000000
10000000
00010000
01000000
00100000
01000000
00001000
,
00020000
00000000
00030200
00000300
,
00001100
00000000
00001010
00000000
00000001
00000001
00000001
00000000
,
00000010
00000100
00010000
00001000
01000000
00100000
01000000
00001000
,
00010000
00000100
00010000
00000010
00000100
00000001
00000010
00001000
,
00010000
00001000
01000000
00100000
10000000
01000000
10000000
00010000
,
01000000
00100000
00010000
00001000
00010000
00000100
00010000
00001000
,
01000000
00100000
10000000
01000000
00100000
00001000
00010000
00000010
,
00000100
00000010
00001000
00000001
00000010
00000100
00010000
00001000
,
01000000
00100000
01000000
00001000
00100000
01000000
10000000
00010000
,
01000000
00100000
01000000
00001000
00010000
00000010
00000100
00000001
,
00001000
00000000
00000000
00000010
00000100
00000000
00000000
00000001
00001000
00000000
00000000
00000100
00010000
00000000
00000000
00001000
,
01000000
00000000
00000000
00100000
10000000
00000000
00000000
00010000
00100000
00000000
00000000
01000000
00100000
00000000
00000000
00001000
,
00010000
00000000
00000000
00000100
01000000
00000000
00000000
00001000
00010000
00000000
00000000
00000010
00000100
00000000
00000000
00000001
,
00001000
00000100
00000100
00010000
00001000
01000000
01000000
00100000
,
10000000
00000000
00000000
00001000
00010000
00000000
00000000
00001000
01000000
00000000
00000000
00100000
01000000
00000000
00000000
00001000
,
00010000
00000000
00000000
00000100
00000010
00000000
00000000
00000001
00001000
00000000
00000000
00000010
00000100
00000000
00000000
00000001
,
00010000
00000000
00000000
00001000
00100000
00000000
00000000
01000000
10000000
00000000
00000000
01000000
00100000
00000000
00000000
00010000
,
10000000
00000000
00010000
00000000
01000000
00000000
00001000
00000000
00200000
00000000
00000000
00300000
01000000
00000000
10000000
00000000
,
00010000
01000000
00001000
00100000
01000000
00100000
00001000
00010000
,
00000010
00000100
00000001
00001000
00000100
00000010
00000100
00001000
,
00000001
00000100
00000010
00010000
00001000
01000000
00100000
01000000
,
00001000
00100000
01000000
10000000
10010000
00000000
00010000
01000000
,
00001000
00010000
00000100
00010000
00001000
00010000
00000010
00000100
,
00000001
00001000
00000100
00000010
00001000
00010000
00000010
00000100
,
00000010
00001000
00000100
00010000
00001000
01000000
00100000
01000000
,
00001000
00100000
01000000
10000000
00020000
00000000
00130000
00000000
,
01000000
00100000
00001000
00010000
,
00000010
00000000
00000100
00000000
00000010
00001000
00001000
00000000
,
00000100
00000000
00010000
00000000
00001000
00000000
00100000
00000010
,
00100000
00000010
00100010
00000000
00000000
00000000
00001000
00000000
,
01000000
00100000
10000000
00010000
,
00100000
00000000
01000000
00000000
00100000
10000000
10000000
00000000
,
00100000
00000000
00001000
00000000
00010000
00000000
00000010
00000100
,
00000001
00001000
00000100
00000010
00000100
00001000
00001001
00000000
,
00000001
00000000
00000010
00000000
00000100
00000000
00010000
00000000
00001000
00010000
00001000
00000000
00011000
00000000
00000000
00000000
,
00001000
00000000
01000000
00000000
00100000
00000000
10000000
00000000
00010000
10000000
00010000
00000000
10010000
00000000
00000000
00000000
,
00010000
00000000
00100000
00000000
01000000
00000000
00100000
00000000
00001000
00100000
00001000
00000000
00101000
00000000
00000000
00000000
,
00010000
00000000
00000100
00000000
00010000
00000000
00000010
00000000
00010000
00000001
00010000
00000000
00010001
00000000
00000000
00000000
,
00000001
00000000
00000010
00000000
00000100
00000000
00001000
00000000
00000001
00001000
00000001
00000000
00001001
00000000
00000000
00000000
,
00000010
00000000
00010000
00000000
00000100
00000000
00010000
00000000
00001000
00100000
00001000
00000000
00101000
00000000
00000000
00000000
,
00010000
00000000
10000000
00000000
01000000
00000000
10000000
00000000
00100000
10000000
00100000
00000000
10000000
00000000
00010000
10000000
,
00010000
00000000
00100000
00000000
01000000
00000000
00100000
00001000
00100000
00000000
00001000
00000000
00010000
00000000
00000000
00000010
,
00001000
00000000
00000000
00000100
00000010
00000000
00000000
00000100
00010000
00000000
00000000
00001000
01000000
00000000
00000000
00100000
,
10000000
00000000
00000000
00010000
01000000
00000000
00000000
00001000
00010000
00000000
00000000
00000100
00010000
00000000
00000000
00001000
,
00010000
00000000
00000000
00000010
00000100
00000000
00000000
00000001
00001000
00000000
00000000
00000100
00000010
00000000
00000100
00000000
,
00010000
00000000
00000000
00000000
00001000
00000000
01000000
00000000
10000000
00000000
00000000
00000000
01000000
00000000
00000000
00010000
,
10000000
00000000
00000000
01000000
00100000
00000000
00000000
01000000
10000000
00000000
00000000
00010000
01000000
00000000
00000000
00001000
,
00010000
00000000
00000000
00000100
00000010
00000000
00000000
00000100
00010000
00000000
00000000
00000010
00000100
00000000
00000000
00000001
,
00000010
00000000
00000000
00000100
00010000
00000000
00000000
00001000
00100000
00000000
00000000
01000000
10000000
00000000
00010000
00000000
,
01000000
00000000
00000000
00000000
00001000
00000000
00100000
00000000
00000010
00000000
00000000
00000000
00011000
00000000
00000000
00010000
,
00000100
00000000
00000000
00000010
00000001
00000000
00000000
00000100
00000010
00000000
00000000
00010000
00001000
00000000
00000000
01000000
,
00100000
00000000
00000000
10000000
00010000
00000000
00000000
01000000
00001000
00000000
00000000
00100000
00010000
00000000
00000000
00100000
,
00001000
00000000
00000000
00010000
00000010
00000000
00000000
00000100
00000010
00000000
00000000
00000100
00000001
00000000
00001000
00000000
,
00000100
00000000
00000000
00000000
00010000
00000000
00001000
00000000
00100000
00000000
00000000
00000000
01001000
00000000
00000000
00010000
,
10000000
00000000
00000000
01000000
00100000
00000000
00000000
01000000
00010000
00000000
00000000
00001000
00010000
00000000
00000000
00000100
,
00000010
00000000
00000000
00000001
00001000
00000000
00000000
00000010
00000100
00000000
00000000
00000010
00010000
00000000
00000000
00001000
,
01000000
00000000
00000000
00000100
00010000
00000000
00000000
00001000
00100000
00000000
00000000
01000000
10000000
00000000
00010000
00000000
,
00010000
00000000
01000000
00000000
00001000
00000000
00010000
00000000
00010000
00000000
00000100
00000000
00000010
00000000
00000000
00000001
,
00000000
00000000
00001000
00000000
00000000
00000100
00000000
00000000
00010000
00001000
00010000
00000000
00001000
00000000
00000000
01000000
,
00000000
00000000
00100000
00000000
00000000
10000000
00000000
00010000
00100000
00000000
01000000
00000000
01000000
00000000
00000000
10000000
,
00000000
00000000
00010000
00000000
00000000
01000000
00000000
00000000
00001000
00010000
00001000
00000000
00010000
00000000
00000000
00000100
,
00000000
00000000
00000010
00000000
00000000
00000004
00004000
00000000
00000000
00000000
00000000
00000000
00003003
00000000
00000000
00000001
,
00000000
00000000
00000010
00000000
00000000
00000100
00000000
00000000
00001000
00000100
00001000
00000000
00000100
00000000
00000000
00010000
,
00000000
00000000
00001000
00000000
00000000
01000000
00000000
00100000
10000000
00000000
00010000
00000000
00010000
00000000
00000000
01000000
,
00000000
00000000
00001000
00000000
00000000
00010000
00000000
00000000
00001000
00010000
00001000
00000000
00010000
00000000
00000100
00000000
,
00010000
00000010
00010000
00000000
00000100
00000000
00010000
00000000
00001000
01000000
00001000
00000000
00022000
00000000
00000000
00000000
,
00000000
00000000
00000000
00033000
;

//---------------dance-double - M. Simmons----------------
#NOTES:
     dance-double:
     M. Simmons:
     Medium:
     7:
     0.192,0.202,0.068,0.068,0.024,371.000,21.000,21.000,0.000,0.000:
00000000
00000000
00000000
00000000
,
00000000
00000000
00000000
00000000
,
00000000
00000000
00000000
00000000
,
00000000
00000000
00000000
00000000
,
00001000
00010000
00000100
00010000
,
00001000
01000000
00100000
10000000
,
00010000
00100000
01000000
10000000
,
00010000
01000000
20020000
30030000
,
00010000
00100000
01000000
00100000
,
00001000
00010000
00000010
00000100
,
00000001
00001000
00000100
00000010
,
00000100
00001000
00002002
00003003
,
00000001
00000100
00000010
00010000
,
00000100
00010000
00001000
01000000
,
00010000
00100000
01000000
10000000
,
00100000
01000000
10010000
01100000
,
10010000
00000000
00100000
00001000
00000000
00001000
00010000
00000000
,
00011000
00000000
00010000
00000100
00000000
00000100
00000010
00000100
,
00000010
00000000
00000001
00001000
00000000
00000010
00001000
00000000
,
00000100
00010000
00000100
00000000
00010000
00000100
00010000
00000000
,
00010100
00000000
00000100
00010000
00000000
00010000
00001000
00000000
,
00001000
00000000
01000000
00100000
00000000
00100000
10000000
00000000
,
10010000
00000000
01100000
00000000
,
00010000
00000000
00010000
00000000
00010000
10000000
00010000
00000000
,
00100000
01000000
00100000
00001000
,
00010000
00000100
00010000
00000010
,
00010000
00000100
00000010
00000001
,
00001000
00000000
00000010
00000000
00000100
00000000
00000001
00000100
,
00000001
00001000
00000100
00000010
,
00000100
00010000
00001000
01000000
,
00100000
10000000
00010000
00100000
,
01000000
00000000
10000000
00000000
01000000
00000000
00100000
00010000
,
00100000
00002000
00010000
00100000
,
00013000
00000200
00000010
00001000
,
00000310
00000002
00001000
00000010
,
00000103
00000000
00000010
00000000
00001000
00000100
00001000
00000000
,
00000100
00020000
00001000
00100000
,
00031000
02000000
00100000
10000000
,
03010000
00200000
01000000
10000000
,
01300000
00100000
00001000
00011000
,
00010000
00000010
00000100
00001001
,
00000001
00000010
00000100
00010100
,
00001000
00000000
00010000
00000000
00001000
00000000
01000000
00001000
,
01000000
00000000
00100000
00000000
10000000
00010000
10000000
00000000
,
01000000
00100000
00001000
00011000
,
00010000
00000010
00000100
00001001
,
00000001
00000010
00000100
00001000
,
00000100
00000000
00010000
00001000
00010000
00001000
00010000
00000000
,
00001000
01000000
00100000
01000000
,
00001000
01000000
10100000
00010000
,
00100000
00000000
01000000
00000000
00100000
00000000
00001000
00100000
,
00001000
00100000
00001000
00000000
00000000
00000000
00010000
00000000
,
00000100
00010000
00000010
00000100
,
00000001
00001000
00001001
00000001
,
00000010
00000000
00000100
00000000
00010000
00000000
00001000
00100000
,
00001000
00100000
00001000
00000000
00101000
00000000
02001000
00000000
,
00001000
00001000
03010000
20010000
,
01000000
01000000
30100000
02100000
,
00001000
00001000
03010000
00010200
,
00001000
00000000
00001000
00000000
00000310
00000100
00000020
00000000
,
00000100
00000100
00001030
00020000
,
00000100
00000100
00031000
00200000
,
01000000
00000000
01000000
00000000
10300000
00000000
00100000
00010000
,
00100000
00000000
01000000
00000000
10000000
00010000
10000000
00000000
,
00010000
01000000
00001000
00010000
,
00000100
00000010
00000001
00001000
,
00000010
00000000
00000100
00000000
00000010
00000000
00010000
00001000
,
00010000
00000000
00000100
00010000
00000100
00000000
00010000
00000000
,
00001000
01000000
00100000
10000000
,
01000000
00100000
00001000
00010000
,
00000010
00000000
00000100
00000000
00000010
00000000
00001000
00000001
,
00001000
00000000
00000010
00000100
00000010
00000000
00010000
00000000
,
00001000
00010000
00000100
00010000
,
00001000
01000000
00100000
10000000
,
01000000
00000000
00010000
00000000
00001000
00000000
00010000
00000010
,
00010000
00000000
00000100
00010000
00000100
00000000
00000010
00000000
,
00000001
00001000
00000100
00010000
,
00000010
00000100
00001000
00010000
,
00001000
00000000
01000000
00000000
00100000
00000000
10000000
00010000
,
10000000
00000000
00010000
00000000
10000000
00000000
00010000
00000000
10000000
00000000
00010000
00000000
10000000
00000000
00000000
00010000
,
00000000
00000000
00100000
00000000
00000000
00001000
00000000
00000000
00010000
00000000
00000000
00000000
00000010
00000000
00000000
00000100
,
00000000
00000000
00000010
00000000
00000000
00001000
00000000
00000000
00000001
00000000
00000000
00000000
00000010
00000000
00000000
00000100
,
00000000
00000000
00010000
00000000
00000000
00001000
00000000
00000000
00100000
00000000
00000000
00000000
01000000
00000000
00000000
10000000
,
00000000
00000000
00020000
00000000
02000000
00000000
00000000
00000000
00000000
00000000
00000000
00000000
03030000
00000000
00000000
00010000
,
00000000
00000000
01000000
00000000
00000000
00001000
00000000
00000000
00010000
00000000
00000000
00000000
00000100
00000000
00000000
00000010
,
00000000
00000000
00000100
00000000
00000000
00001000
00000000
00000000
00000001
00000000
00000000
00000000
00000100
00000000
00000000
00000010
,
00000000
00000000
00000100
00000000
00000000
00000010
00000000
00000000
00010000
00000000
00000000
00000000
00001000
00000000
00000000
00100000
,
00000000
00000000
01000000
00000000
00000000
10000000
00000000
00000000
00010000
00000000
02000000
00000000
00020000
00000000
00000000
00000000
,
00000000
00000000
00000000
03030000
;

//---------------dance-double - M. Simmons----------------
#NOTES:
     dance-double:
     M. Simmons:
     Easy:
     4:
     0.097,0.130,0.072,0.049,0.000,171.000,22.000,15.000,0.000,0.000:
00000000
00000000
00000000
00000000
,
00000000
00000000
00000000
00000000
,
00000000
00000000
00000000
00000000
,
00000000
00000000
00000000
00000000
,
00001000
00000000
00010000
00000000
,
00000100
00000000
00010000
00000000
,
00001000
00000000
01000000
00000000
,
00100000
01000000
00100000
00000000
,
01000000
00000000
00001000
00000000
,
00010000
00000000
00000100
00000000
,
00000010
00000000
00000001
00000000
,
00001000
00000001
00001000
00000000
,
00000010
00000000
00000100
00000000
,
00000010
00000000
00010000
00000000
,
00000100
00000000
00010000
00000000
,
00001000
00100000
00001000
00100000
,
00001000
00000000
00000000
00000000
,
00000000
00000000
00000000
00110000
,
00110000
00000000
00000000
00000000
,
20020000
00000000
00000000
30030000
,
10010000
00000000
00000000
00000000
,
00000000
00000000
00000000
00011000
,
00011000
00000000
00011000
00000000
,
00010000
00010000
00010000
00010000
,
00010000
00000000
00000100
00000000
,
00001000
00000000
00000010
00000000
,
00000100
00000000
00000010
00000000
,
00001000
00000000
00000001
00000010
,
00000001
00000000
00000010
00000000
,
00000100
00000000
00010000
00000000
,
00001000
00000000
01000000
00000000
,
00100000
00000000
10000000
00010000
,
10000000
00000000
00000000
00000000
,
10010000
00000000
00000000
00000000
,
00110000
00000000
00000000
00000000
,
00101000
00000000
00000000
00000000
,
00011000
00000000
00000000
00000000
,
00010100
00000000
00000000
00000000
,
00000110
00000000
00000000
00000000
,
00001001
00000000
00000000
00000001
,
00000010
00000001
00000000
00001000
,
00000100
00001000
00000000
00000010
,
00010000
00000010
00000000
00010000
,
00000000
00001000
00000000
00010000
,
00001000
00100000
00000000
01000000
,
00100000
01000000
00000000
10000000
,
00010000
10000000
00000000
00100000
,
00100000
01000000
02000000
03010000
,
00000000
00100000
00000000
00001000
,
00000000
00010000
00001000
00010000
,
00000000
00000100
00000000
00000010
,
00000010
00000010
00000000
00000100
,
00000000
00001000
00000000
00000001
,
00000000
00000100
00000010
00000100
,
00000000
00000010
00000000
00010000
,
00000010
00010000
00000010
00020000
,
00000000
00000000
00000000
00032000
,
00000000
00000000
00000000
02003000
,
00000000
00000000
00000000
03200000
,
00000000
00000000
00000000
20300000
,
00000000
00000000
00000000
30020000
,
00000000
00000000
00000000
00230000
,
00000000
00000000
00000000
02300000
,
00000000
00000000
00000000
03100000
,
00000000
00001000
00000000
00010000
,
00000000
00001000
00000000
00010000
,
00000000
00000010
00000000
00000100
,
00000010
00000100
00000010
00000100
,
00000000
00000001
00000000
00000100
,
00000000
00000010
00000000
00001000
,
00000000
00000100
00000000
00010000
,
00001000
00010000
00001000
00010000
,
00000000
00001000
00000000
01000000
,
00000000
00100000
00000000
10000000
,
00000000
01000000
00000000
00100000
,
00010000
00100000
00010000
00100000
,
00000000
00001000
00000000
00010000
,
00000000
00000010
00000000
00000100
,
00000000
00000001
00000000
00001000
,
00000001
00001000
00000001
00001000
,
00000000
00000000
00000000
00000000
,
00000000
00000000
00000000
00000000
00000100
00000000
00010000
00010100
,
00000000
00000000
00000000
00000000
,
00000000
00000000
00000000
10010000
,
00000000
00000000
00000000
00000000
00110000
00000000
00010000
00110000
,
00000000
00000000
00000000
01100000
,
00000000
01100000
00000000
20020000
,
00000000
00000000
30030000
20020000
,
00000000
00000000
00000000
30030000
;
