#TITLE:Storming The Burning Fields;
#SUBTITLE:;
#ARTIST:Dragonforce;
#TITLETRANSLIT:;
#SUBTITLETRANSLIT:;
#ARTISTTRANSLIT:;
#CREDIT:B. Abear;
#BANNER:Bn-Storming.png;
#BACKGROUND:Bg-Storming.png;
#LYRICSPATH:;
#CDTITLE:;
#MUSIC:Storming The Burning Fields.ogg;
#OFFSET:-0.821;
#SAMPLESTART:69.470;
#SAMPLELENGTH:30.000;
#SELECTABLE:YES;
#BPMS:0.000=200.000,668.000=50.000,672.000=200.000,674.000=100.000,677.000=200.000,873.000=100.000,903.000=50.000,904.000=200.000;
#STOPS:95.000=1.200
;
#BGCHANGES:;
// cache tags:
#FIRSTBEAT:4.000;
#LASTBEAT:996.750;
#SONGFILENAME:Songs/Dragonforce/Storming The Burning Fields/Storming The Burning Fields.sm;
#HASMUSIC:1;
#HASBANNER:1;
#MUSICLENGTH:319.817;
// end cache tags

//---------------dance-single - B. Abear----------------
#NOTES:
     dance-single:
     B. Abear:
     Challenge:
     15:
     1.000,1.000,0.381,0.231,1.000,2623.000,122.000,74.000,149.000,2.000:



0000
0000
0000
0000
,
2020
0000
0000
3030
2002
0000
0000
3003
,
0022
0000
0000
0033
2200
0000
0000
3300
,
4004
0000
0000
3003
,
1000
0001
1000
0001
0100
0001
0100
0001
1000
0000
0100
0000
1000
0000
0MMM
0000
,
0001
0010
0100
1000
0100
1000
0001
0100
0010
1000
0010
1000
0010
1000
0010
1000
,
0001
0010
0100
1000
0100
1000
0001
0100
0010
1000
0010
1000
0010
1000
0010
1000
,
0001
0010
0100
1000
0100
1000
0001
0100
0010
1000
0010
1000
0010
1000
0010
1000
,
0001
0100
0010
0100
0001
0000
1000
0000
040M
0000
M000
0000
000M
0000
00M0
0000
,
1300
0010
0100
0001
0100
0001
1000
0100
0010
0001
0010
0001
0010
0001
0010
0001
,
1000
0010
0100
0001
0100
0001
1000
0100
0010
0001
0010
0001
0010
0001
0010
0001
,
1000
0100
1000
0001
0100
0001
1000
0010
1000
0001
0010
0001
1000
0100
1000
0001
,
M400
00M0
000M
M000
00M0
M000
000M
M300
,
0001
1000
0100
0010
0001
1000
0001
0100
0001
1000
0010
0100
0001
1000
0100
0010
,
0001
1000
0001
0100
0010
1000
0010
0100
0001
0010
0100
1000
0100
0010
0001
1000
,
0001
1000
0010
0100
0001
1000
0100
1000
0001
0010
0100
1000
0001
0100
0001
1000
,
0M40
000M
M000
0M00
M000
000M
0M00
000M
,
1030
0100
0010
0001
0010
0001
1000
0010
0100
0001
0100
0001
0100
0001
0100
0001
,
1000
0100
0010
0001
0010
0001
1000
0010
0100
0001
0100
0001
0100
0001
0100
0001
,
1000
0000
0000
0001
0000
0000
1000
0000
0000
0001
0000
0000
1000
0000
0000
0010
0000
0000
1000
0000
0000
0010
0000
0000
0100
0000
0000
0000
0000
0000
0000
0000
0001
0000
0000
0000
0000
0000
0000
0000
1000
0000
0000
0000
0000
0000
0000
0000
,
0001
0010
0001
0010
0100
0010
0100
0010
0100
1000
0100
1000
0001
1000
0001
1000
,
0001
0100
0001
0100
0010
0100
0010
0100
0010
1000
0010
1000
0001
1000
0001
1000
,
0004
4000
0000
0000
0000
0000
0000
0000
0000
0000
0000
0000
0000
0000
3003
0000
,
1MM1
0000
0000
M1M1
0000
0000
11MM
0000
,
1000
0000
0001
0000
0100
0001
0100
0000
0010
0000
1000
0000
0001
1000
0001
0000
,
0010
0000
0100
0000
1000
0100
1000
0000
0001
0000
0100
0000
0010
0100
M02M
0000
,
0130
0000
0001
0000
1000
0100
1000
0000
0001
0000
0010
0000
0100
1000
0100
0000
,
1000
0000
0010
0000
0100
0010
0100
0000
0001
0000
1000
0000
0001
0010
MM02
0000
,
1003
0000
0010
0000
0100
0001
0100
0000
0001
0000
1000
0000
0001
0010
0001
0000
,
1000
0000
0100
0000
0010
0100
0010
0000
0100
0000
1000
0000
0101
0000
0101
0000
,
0001
0000
0001
0000
1000
0001
1000
0000
0001
0000
0001
0000
1000
0001
1000
0000
,
0010
0100
0010
0100
0001
0100
0010
0100
0010
0100
0001
0100
0010
1000
0001
1000
,
01M0
0000
001M
0000
0001
1000
0001
0000
10M0
0000
0M10
0000
0100
0001
0100
0000
,
M010
0000
100M
0000
0001
0010
0001
0000
1M00
0000
01M0
0000
0010
0100
0010
0000
,
M100
0000
100M
0000
0001
0100
0001
0000
10M0
0000
0M10
0000
1000
0100
1000
0000
,
00M1
0000
0M10
0000
0100
1000
0100
0000
2000
0000
3002
0000
0203
0000
0320
0000
,
013M
0000
M001
0000
1000
0100
1000
0000
00M1
0000
0M10
0000
0100
1000
0100
0000
,
10M0
0000
0M10
0000
0100
0001
0100
0000
M001
0000
10M0
0000
0001
1000
0001
0000
,
0M10
0000
M100
0000
1000
0100
1000
0000
0M01
0000
01M0
0000
0001
0100
0001
0000
,
1000
0010
0100
0001
0100
0001
1000
0010
0100
0001
0100
0001
1000
0001
1000
0001
,
0010
0100
1000
0001
0100
0001
1000
0010
1000
0001
0010
0100
1000
0001
0100
0010
,
0100
0001
1000
0100
0010
0001
0010
0100
1000
0001
0100
0001
0100
0010
1000
0001
,
1000
0100
0010
0001
0010
0100
1000
0100
0010
0001
0010
0100
,
1000
0010
0100
0001
0100
0001
1000
0100
0010
0001
0010
0001
1000
0010
0100
0001
,
1000
0100
1000
0001
0010
0001
1000
0010
0100
0001
1000
0100
1000
0001
0010
0100
,
1000
0001
0100
0001
1000
0010
1000
0001
0010
0100
1000
0001
0100
0010
1000
0010
,
0100
0001
0010
0100
0010
0001
1000
0001
1000
0010
0100
0001
1000
0001
0010
0100
,
1000
0001
1000
0001
0100
0001
0100
0001
0100
0010
0100
0010
1000
0010
1000
0010
,
0200
0000
0301
1000
2100
0000
3100
0010
,
0011
0001
1000
0010
1010
1000
0001
0001
,
1100
0001
1010
0100
0011
1000
0101
0001
,
1000
1000
0101
1000
0011
0010
1100
0001
,
1000
0010
1000
0010
1000
0010
1000
0010
0100
0010
0100
0010
0100
0010
0100
0010
,
1000
0001
1000
0001
1000
0001
1000
0001
0010
0001
0010
0001
0010
0001
0010
0001
,
1000
0100
1000
0100
1000
0100
1000
0100
1000
0001
1000
0001
1000
0001
1000
0001
,
0100
0010
0100
0010
1000
0001
1000
0001
0100
0010
0100
0010
1000
0001
1000
0001
,
0040
0000
0000
0000
,
0130
1000
0001
0100
0001
1000
0010
0100
0001
1000
0100
0010
0001
1000
0001
1000
,
0010
0100
0001
0100
0010
1000
0001
0010
0100
1000
0100
0010
0001
1000
0001
0100
,
0010
0000
0100
0000
0001
1000
0001
0000
1000
0000
0100
0000
0010
0001
0010
0000
,
0100
0000
1000
0000
0001
0100
0001
0000
1000
0000
0010
0000
0100
0001
0100
0000
,
0101
0000
0001
0000
1000
0100
1000
0000
0001
0000
0010
0000
0100
1000
0100
0000
,
1100
0000
1000
0000
0001
0100
0001
0000
1000
0000
0010
0000
0100
0010
0100
0000
,
0001
0100
0010
0100
0010
0100
0010
0100
0010
0100
0010
0100
0001
0100
0010
0100
,
0010
1000
0010
1000
0001
1000
0001
1000
0001
0010
0001
0010
0100
0010
0100
0010
,
0001
1000
0010
0100
0001
1000
0100
0010
0001
0010
0100
1000
0001
0100
0001
1000
,
0100
1000
0001
0010
0100
0010
0001
1000
0010
1000
0001
0100
0001
1000
0100
1000
,
0001
0100
0001
0100
0001
0100
0010
1000
0001
0010
0100
1000
0100
1000
0001
0100
,
0010
1000
0010
0100
0001
1000
0001
0010
0100
1000
0100
1000
0001
0100
0010
1000
,
0001
0010
0100
1000
0010
0100
0001
1000
0001
0010
0100
1000
0001
0100
0001
0000
,
1001
1000
1001
0001
1001
1000
1001
0001
,
1000
0010
0100
0001
0100
0001
1000
0010
0100
0001
0100
0001
1000
0001
1000
0001
,
0040
0000
0000
0000
,
0230
0000
0000
0000
1300
0001
0100
0000
0010
0000
1000
0000
0001
0010
0100
0000
,
1000
0010
0100
0001
1000
0010
0100
0001
1000
0100
0010
0001
2000
0000
0000
0000
,
3001
0100
0001
1000
0010
0100
0001
1000
0100
0010
0001
1000
0001
1000
0100
0000
,
0040
0000
0030
0000
0004
0000
0003
0000
1000
0001
0100
0000
0404
0000
0303
0000
,
M0M1
0000
M0M1
0000
1000
0100
1000
0000
M0M1
0000
M0M1
0000
1000
0100
1000
0000
,
01MM
0000
01MM
0000
0010
0001
0010
0000
01MM
0000
01MM
0000
0010
0001
0010
0000
,
0001
0001
0000
1000
0000
0010
0000
0100
,
0001
0100
0001
0100
0010
0100
0010
0100
0010
1000
0010
1000
0001
1000
0001
1000
,
0100
0100
0000
0010
0000
0001
1000
0001
,
0010
0010
0100
0010
0000
0004
0000
0000
,
1003
1000
0001
1000
0000
0001
0000
0100
,
0010
0010
1000
0000
0001
0010
0100
0000
,
1100
1000
1000
0001
0000
0100
0000
0010
,
1000
0001
1000
0001
0100
0001
0100
0001
1000
0001
1000
0001
0100
0001
0100
0001
,
4000
0000
0000
0004
0000
0000
0040
0000
,
0000
0400
0000
3333
,
0001
0000
1000
0000
0010
1000
0010
0000
0100
0000
0001
0000
1000
0001
1000
0000
,
0100
0000
0010
0000
0001
0010
0001
0000
1000
0000
0010
0000
0100
0010
M20M
0000
,
0310
0000
1000
0000
0001
0010
0001
0000
1000
0000
0100
0000
0010
0001
0010
0000
,
0001
0000
0100
0000
0010
0100
0010
0000
1000
0000
0001
0000
1000
0100
20MM
0000
,
3001
0000
0100
0000
0010
1000
0010
0000
1000
0000
0001
0000
1000
0100
1000
0000
,
0001
0000
0010
0000
0100
0010
0100
0000
0010
0000
0001
0000
1010
0000
1010
0000
,
1000
0000
1000
0000
0001
1000
0001
0000
1000
0000
1000
0000
0001
1000
0001
0000
,
0100
0010
0100
0010
1000
0010
0100
0010
0100
0010
1000
0010
0100
0001
1000
0001
,
0M10
0000
M100
0000
1000
0001
1000
0000
0M01
0000
01M0
0000
0010
1000
0010
0000
,
010M
0000
M001
0000
1000
0100
1000
0000
00M1
0000
0M10
0000
0100
0010
0100
0000
,
001M
0000
M001
0000
1000
0010
1000
0000
0M01
0000
01M0
0000
0001
0010
0001
0000
,
1M00
0000
01M0
0000
0010
0001
0010
0000
0002
0000
2003
0000
3020
0000
0230
0000
,
M310
0000
100M
0000
0001
0010
0001
0000
1M00
0000
01M0
0000
0010
0001
0010
0000
,
0M01
0000
01M0
0000
0010
1000
0010
0000
100M
0000
0M01
0000
1000
0001
1000
0000
,
01M0
0000
001M
0000
0001
0010
0001
0000
10M0
0000
0M10
0000
1000
0010
1000
0000
,
0001
0100
0010
1000
0010
1000
0001
0100
0010
1000
0010
1000
0001
1000
0001
1000
,
0100
0010
0001
1000
0010
1000
0001
0100
0001
1000
0100
0010
0001
1000
0010
0100
,
0010
1000
0001
0010
0100
1000
0100
0010
0001
1000
0010
1000
0010
0100
0001
1000
,
0001
0010
0100
1000
0100
0010
0001
0010
0100
1000
0100
0010
,
0001
0100
0010
1000
0010
0100
0001
0100
0010
1000
0010
0100
,
0001
0010
0001
1000
0100
1000
0001
0100
0010
1000
0001
0010
0001
1000
0100
0010
,
0001
1000
0010
1000
0001
0100
0001
1000
0100
0010
0001
1000
0010
0100
0001
0100
,
0010
1000
0100
0010
0100
1000
0001
1000
0001
0100
0010
1000
0001
1000
0100
0010
,
0001
1000
0001
1000
0010
1000
0010
1000
0010
0100
0010
0100
0001
0100
0001
0100
,
0020
0000
1030
0001
0012
0000
0013
0100
,
1100
1000
0001
0100
0101
0001
1000
1000
,
0011
1000
0101
0010
1100
0001
1010
1000
,
0001
0001
1010
0001
1100
0100
0011
1000
,
0001
0100
0001
0100
0001
0100
0001
0100
0010
0100
0010
0100
0010
0100
0010
0100
,
0001
1000
0001
1000
0001
1000
0001
1000
0100
1000
0100
1000
0100
1000
0100
1000
,
0001
0010
0001
0010
0001
0010
0001
0010
0001
1000
0001
1000
0001
1000
0001
1000
,
0010
0100
0010
0100
0001
1000
0001
1000
0010
0100
0010
0100
0001
1000
0001
1000
,
0400
0000
0000
0000
,
0310
0001
1000
0010
1000
0001
0100
0010
1000
0001
0010
0100
1000
0001
1000
0001
,
0100
0010
1000
0010
0100
0001
1000
0100
0010
0001
0010
0100
1000
0001
1000
0010
,
0100
0000
0010
0000
1000
0001
1000
0000
0001
0000
0010
0000
0100
1000
0100
0000
,
0010
0000
0001
0000
1000
0010
1000
0000
0001
0000
0100
0000
0010
1000
0010
0000
,
1010
0000
1000
0000
0001
0010
0001
0000
1000
0000
0100
0000
0010
0001
0010
0000
,
0011
0000
0001
0000
1000
0010
1000
0000
0001
0000
0100
0000
0010
0100
0010
0000
,
1000
0010
0100
0010
0100
0010
0100
0010
0100
0010
0100
0010
1000
0010
0100
0010
,
0100
0001
0100
0001
1000
0001
1000
0001
1000
0100
1000
0100
0010
0100
0010
0100
,
1000
0001
0100
0010
1000
0001
0010
0100
1000
0100
0010
0001
1000
0010
1000
0001
,
0010
0001
1000
0100
0010
0100
1000
0001
0100
0001
1000
0010
1000
0001
0010
0001
,
1000
0010
1000
0010
1000
0010
0100
0001
1000
0100
0010
0001
0010
0001
1000
0010
,
0100
0001
0100
0010
1000
0001
1000
0100
0010
0001
0010
0001
1000
0010
0100
0001
,
1000
0100
0010
0001
0100
0010
1000
0001
1000
0100
0010
0001
1000
0010
1000
0000
,
1001
0001
1001
1000
1001
0001
1001
1000
,
0001
0100
0010
1000
0010
1000
0001
0100
0010
1000
0010
1000
0001
1000
0001
1000
,
0400
0000
0000
0000
,
0322
0000
0000
0033
1001
0000
0000
0202
,
0000
0303
1001
0000
1100
0000
0220
0000
,
0000
0330
0011
0000
1001
0001
0100
0100
,
0010
1010
0000
1010
1000
0001
0022
0033
,
1001
0000
0000
0000
1000
0100
1000
0100
0010
0100
0010
0100
0010
0001
0010
0001
,
1000
1000
1010
0010
0000
0010
0000
0010
,
0110
0100
0001
1000
1001
0001
0010
0100
,
1001
0100
1001
1000
0000
0001
0000
0100
,
1010
0001
0001
0001
1010
0001
0001
0000
,
1000
0001
1000
0001
1000
0000
0001
0000
0000
0000
0010
0000
0000
0000
0100
0000
,
0000
0000
0000
0000
1000
0001
1000
0001
1000
0000
0001
0000
0000
0000
0100
0000
,
0010
0100
0010
0100
0010
0000
1000
0000
0000
0000
0001
0000
0000
0000
0010
0000
,
0000
0000
0000
0000
0100
1000
0100
1000
0100
0000
0010
0000
0000
0000
0001
0000
,
1000
0010
0100
0001
1000
0100
1000
0001
0010
0100
1000
0001
,
1000
0100
0010
0001
0100
0010
0100
0010
1000
0001
1000
0100
,
0010
0001
0010
0100
1000
0001
0100
0010
1000
0001
1000
0001
,
0010
0100
0010
0001
1000
0001
0100
0010
1000
0001
0100
0010
,
1000
0001
0100
0001
1000
0000
1001
0000
0001
0000
0101
0000
0100
0000
0110
0000
,
0010
0000
1010
0000
1000
0010
1000
0001
0010
0000
0011
0000
0001
0000
1000
0000
,
0010
0100
0001
1000
0100
0000
0110
0000
0010
0000
0011
0000
0001
0000
1001
0000
,
1000
0000
1010
0000
0010
1000
0001
1000
0100
0000
0010
0000
0001
0000
1000
0000
,
0001
0100
0010
1000
0001
1000
0100
0010
0001
0010
0100
1000
,
0001
0100
0010
0100
0001
1000
0001
0010
0100
1000
0100
0010
,
0001
1000
0010
1000
0001
0010
0001
1000
0100
0010
0001
0100
,
0010
1000
0001
0100
0010
1000
0001
0010
0100
0010
0001
1000
,
0010
0100
0010
1000
0001
1000
0001
1000
0100
0010
0001
0010
,
0001
1000
0010
0100
0001
1000
0100
1000
0001
0010
0100
1000
,
0001
0100
0010
0100
0001
1000
0100
0010
0001
1000
0001
0100
,
0010
1000
0001
0010
0100
1000
0001
0100
0010
1000
0001
1000
,
20M2
0M00
00M0
0M00
00M0
0M00
00M0
0M00
00M0
0M00
00M0
0M00
00M0
0M00
30M3
0000
,
1001
0110
M00M
0000
2M02
00M0
0M00
00M0
,
0M00
30M3
0001
0000
0020
0000
0230
0000
,
2300
3004
0000
0203
,
0340
0000
2030
3002
,
0203
0304
0000
2003
,
3400
0000
0320
0032
,
2003
0000
3010
0010
0100
0001
1000
1000
,
0100
0010
0001
0001
0100
0001
0010
0100
,
1000
0000
0001
0000
1000
0010
1000
0010
0100
0010
0100
0010
1000
0001
1000
0001
,
0010
0001
0010
0001
1000
0000
1000
0000
0001
0100
0001
0000
1000
0000
1000
0000
,
0001
0100
0001
0000
0010
0000
0010
0000
0100
1000
0100
0000
0010
0000
0010
0000
,
0002
0000
0000
0000
1003
0010
0100
0001
1000
0100
0010
0001
1000
0001
1000
0010
,
0100
0001
0100
0010
1000
0001
0010
0100
1000
0001
0100
0001
1000
0100
1000
0001
,
0040
0000
0000
0000
0130
1000
0100
1000
0001
0100
0001
0100
0010
1000
0010
1000
,
0001
0010
0001
0010
0100
1000
0100
1000
0001
0100
0001
0100
0010
0100
0010
0100
,
0001
1000
0001
1000
0001
0010
0100
1000
0001
0010
0100
1000
0010
0100
0001
1000
,
0010
0100
0001
1000
0001
0100
0001
0100
0010
0100
0010
0100
0001
0100
0001
0100
,
0010
0100
0010
0100
0001
0000
0002
0000
0000
0000
1003
0000
0100
0000
0010
0000
,
0100
1000
0001
0002
0000
0013
0100
1000
,
0020
0000
0130
0100
0001
1000
0001
0001
,
1000
0100
1000
0000
0001
0400
0000
0000
,
0000
0000
0000
0000
0310
1000
0010
1000
0010
1000
0010
1000
0001
0010
0100
1000
,
0002
0000
0000
0000
1003
0100
1000
0100
1000
0100
1000
0100
0010
0001
1000
0001
,
0200
0000
0000
0000
0310
1000
0001
1000
0100
0010
0001
0010
0100
1000
0001
0100
,
0001
1000
0100
1000
0010
0100
0010
0100
0001
0100
0001
0100
0001
1000
0001
1000
,
0100
1000
0100
1000
0001
0100
0010
1000
0100
1000
0001
0010
0100
1000
0100
1000
,
0001
0100
0010
0100
0010
1000
0001
0010
0100
1000
0100
0010
0001
1000
0001
0100
,
0020
0000
0030
0000
0100
0000
0001
1000
0100
0000
0010
0000
0001
1000
0001
0100
,
0010
1000
0010
1000
0001
0000
0010
0000
0100
0000
1000
0000
0002
0000
0000
0000
,
2003
0000
0000
3001
0010
0100
1000
0100
0010
0001
0100
0010
,
1000
0010
0100
0001
0010
0100
0010
0001
1000
0010
0100
0010
,
4000
0000
0000
0000
0000
0000
0000
0000
0000
0000
0000
0000
3001
0000
0000
0010
0000
0000
0100
0000
1000
0000
0001
0000
0100
0000
0000
0001
0000
0000
1000
0000
0001
0000
0100
0000
0001
0000
0000
0000
0000
0000
0000
0000
0100
0000
0000
0000
,
0000
0000
0000
0000
0010
0000
0000
0000
0000
0000
0000
0000
1000
0000
0000
0010
0000
0000
0100
0000
0000
0001
0000
0000
0100
0000
0000
0001
0000
0000
1000
0000
0000
0010
0000
0000
0100
0000
0000
0001
0000
0000
1000
0000
0000
0010
0000
0000
,
0100
0001
1000
0100
1000
0001
1000
0001
0010
0001
0010
0001
1000
0001
1000
0001
,
0010
0001
0010
0001
1000
0000
0010
0000
0100
0001
0100
0000
0010
0000
1000
0000
,
0001
0010
0001
0000
1000
0000
0001
0000
0010
0001
0010
0000
0100
0000
1000
0000
,
0001
0100
0001
0000
1000
0000
0001
0000
1000
0100
1000
0000
0001
0000
0010
0000
,
0100
1000
0100
0000
4000
0000
0000
0000
0000
0000
0000
0000
0000
0000
0000
0000
,
0000
0000
0000
0000
3001
0100
0010
1000
0001
1000
0100
0010
0001
1000
0001
0010
,
0100
1000
0001
0100
0001
0100
0010
1000
0001
1000
0100
0010
0001
0010
0100
1000
,
0001
0100
0001
0010
0100
0000
1000
0000
0001
0000
0100
0000
0010
0000
0100
0000
,
0001
0000
1000
0000
0001
0010
0001
0010
0100
0010
0100
0010
0100
1000
0100
1000
,
0001
1000
0001
1000
0010
0100
0010
0100
0010
0100
0001
0100
0001
0100
0001
0100
,
0001
1000
0001
1000
0100
1000
0100
1000
0100
1000
0100
0010
0100
0010
0100
0010
,
0001
0010
0001
0010
0100
0000
1000
0000
0001
0000
0100
0000
0010
0000
0100
0000
,
0001
2000
0000
3001
0010
0100
1000
0001
,
0200
0000
0310
0010
1000
0020
0030
0010
,
1000
0000
0010
0000
0100
0001
0100
0001
1000
0001
1000
0001
0020
0000
0000
0000
,
0000
0000
1130
1000
1001
0001
0101
0100
,
0110
0000
0010
0000
1000
0000
0001
0000
1000
0100
1000
0100
0010
0100
0010
0100
,
1000
0001
0100
0010
1000
000M
0000
0000
0000
M000
0000
0000
00M0
0000
0000
0000
,
0M00
0000
0000
0000
0000
000M
0000
0000
00M0
0000
0000
0M00
M000
0000
0000
0000
,
0000
00M0
0000
0000
0000
0M00
0000
0000
000M
0000
0000
0000
M000
0000
0000
0000
,
0000
000M
0000
0000
0000
00M0
0000
0000
0000
0000
0M00
M000
0000
0000
0000
000M
,
0000
M000
0001
0000
1001
0000
0000
1000
,
1100
0000
0100
0000
0110
0000
0000
0010
,
0011
0000
0001
0000
1001
0000
0000
1000
,
1010
2002
0000
3113
,
0001
1000
0001
0100
0001
1000
0010
0100
0001
1000
0100
0010
0001
1000
0001
1000
,
0010
0100
0001
0100
0010
1000
0001
0010
0100
1000
0100
0010
0001
1000
0001
0100
,
0010
0000
0100
0000
0001
1000
0001
0000
1000
0000
0100
0000
0010
0001
0010
0000
,
0100
0000
1000
0000
0001
0100
0001
0000
1000
0000
0010
0000
0100
0001
0100
0000
,
0101
0000
0001
0000
1000
0100
1000
0000
0001
0000
0010
0000
0100
1000
0100
0000
,
1100
0000
1000
0000
0001
0100
0001
0000
1000
0000
0010
0000
0100
0010
0100
0000
,
0001
0100
0010
0100
0010
0100
0010
0100
0010
0100
0010
0100
0001
0100
0010
0100
,
0010
1000
0010
1000
0001
1000
0001
1000
0001
0010
0001
0010
0100
0010
0100
0010
,
0001
1000
0010
0100
0001
1000
0100
0010
0001
0010
0100
1000
0001
0100
0001
1000
,
0100
1000
0001
0010
0100
0010
0001
1000
0010
1000
0001
0100
0001
1000
0100
1000
,
0001
0100
0001
0100
0001
0100
0010
1000
0001
0010
0100
1000
0100
1000
0001
0100
,
0010
1000
0010
0100
0001
1000
0001
0010
0100
1000
0100
1000
0001
0100
0010
1000
,
0001
0010
0100
1000
0010
0100
0001
1000
0001
0010
0100
1000
0001
0100
0001
0000
,
1001
1000
1001
0001
1001
1000
1001
0001
,
1000
0010
0100
0001
0100
0001
1000
0010
0100
0001
0100
0001
1000
0001
1000
0001
,
0400
0000
0000
0000
,
0301
0100
0001
0100
0001
0100
0001
0100
0001
0100
0001
0100
0001
0100
0001
0100
,
0001
0100
0001
0100
0001
0100
0001
0100
0011
0100
0001
0100
0011
0100
0001
0100
,
0022
0000
0000
0033
2020
0000
0000
3030
,
2002
0000
0000
3003
2200
0000
0000
3300
,
0440
0000
0000
0000
0000
0000
0000
0330
,
0100
0000
1000
0000
0001
0000
0100
0000
0010
1000
0001
1000
0001
0010
0100
1000
,
1001
0000
0000
0000
2002
0000
0000
0000
0000
0000
0000
0000
0003
0000
3000
0001
,
1000
0001
0000
MMM0
0000
0000
0000
0000
0000
0000
0000
0000
0000
0000
0000
0000
;
