#TITLE:BEE;
#SUBTITLE:;
#ARTIST:Banya;
#TITLETRANSLIT:;
#SUBTITLETRANSLIT:;
#ARTISTTRANSLIT:;
#CREDIT:;
#BANNER:bee.png;
#BACKGROUND:bee bg.png;
#LYRICSPATH:;
#CDTITLE:;
#MUSIC:Bee.mp3;
#OFFSET:-0.055;
#SAMPLESTART:42.000;
#SAMPLELENGTH:12.000;
#SELECTABLE:YES;
#BPMS:0.000=160.000;
#STOPS:;
#BGCHANGES:;
// cache tags:
#FIRSTBEAT:0.000;
#LASTBEAT:220.000;
#SONGFILENAME:Songs/IzzySM Keyboard Mega Pack/BEE/Bee.sm;
#HASMUSIC:1;
#HASBANNER:1;
#MUSICLENGTH:85.638;
// end cache tags

//---------------dance-single - ----------------
#NOTES:
     dance-single:
     :
     Hard:
     10:
     1.000,1.000,0.152,0.023,1.000,676.000,13.000,2.000,0.000,0.000:  // measure 1
0010
0000
0000
0000
,  // measure 2
0100
0000
0000
0000
,  // measure 3
0001
0100
0010
1000
0001
0100
0010
1000
0100
0010
0001
1000
0100
1000
0010
0100
,  // measure 4
0001
1000
0010
1000
0001
0100
0001
1000
0100
0010
0001
1000
0100
1000
0010
0100
,  // measure 5
0001
1000
0010
1000
0001
0010
0100
1000
0001
1000
0010
0100
0001
1000
0100
0010
,  // measure 6
0100
1000
0001
1000
0100
1000
0010
1000
0001
0100
0010
1000
0001
0010
0100
0010
,  // measure 7
0001
0010
0001
0010
0100
1000
0100
1000
0010
1000
0001
0100
0010
1000
0001
1000
,  // measure 8
0100
0010
0001
1000
0010
1000
0001
0100
0010
1000
0001
0010
0100
1000
0001
1000
,  // measure 9
0010
0100
0001
0010
0100
1000
0100
0010
0001
1000
0100
1000
0010
0100
0001
1000
,  // measure 10
0010
1000
0100
0010
0001
1000
0010
1000
0001
0100
0010
1000
0001
0010
0100
1000
,  // measure 11
0100
1000
0100
1000
0100
1000
0100
1000
0010
0100
0010
0100
0010
0100
0010
1000
,  // measure 12
0100
1000
0100
1000
0100
1000
0100
1000
0010
1000
0010
1000
0010
1000
0010
1000
,  // measure 13
0001
0100
0001
0100
0001
1000
0001
1000
0001
0010
0100
1000
0001
1000
0010
0100
,  // measure 14
0001
1000
0100
0010
0001
0010
0100
1000
0020
0000
0000
0000
0000
0000
1030
0000
,  // measure 15
0001
1000
0100
0010
0100
1000
0001
1000
0010
0100
0001
0100
0001
0100
0001
0100
,  // measure 16
0001
1000
0100
0010
0001
1000
0100
0010
0001
1000
0001
1000
0001
1000
0001
1000
,  // measure 17
0100
1000
0100
1000
0010
1000
0010
0100
0010
0100
0001
1000
0001
0010
0100
1000
,  // measure 18
0001
1000
0010
0100
0001
0010
0100
1000
0002
0000
0000
0000
0000
0000
1000
0000
,  // measure 19
1003
0100
0010
0001
1000
0010
1000
0001
0100
0010
1000
0001
0010
0100
1000
0001
,  // measure 20
1000
0010
0100
0001
1000
0010
1000
0100
0010
0001
0010
0100
1000
0001
1000
0010
,  // measure 21
0100
0001
0010
0100
1000
0100
1000
0010
1000
0001
0100
0010
1000
0001
1000
0001
,  // measure 22
0010
0001
0010
0001
0010
0100
0010
0100
1000
0100
1000
0100
1000
0010
1000
0010
,  // measure 23
0100
0001
0100
0010
1000
0001
0010
0100
1000
0010
1000
0001
0100
0010
1000
0001
,  // measure 24
0010
0000
0000
0000
,  // measure 25
1001
0000
0000
0000
,  // measure 26
0010
0010
0010
0010
,  // measure 27
1000
0100
0010
0001
0010
0100
1000
0010
1000
0001
0100
0010
1000
0001
1000
0100
,  // measure 28
0010
0001
0010
0100
1000
0010
1000
0010
0100
0010
0100
0010
0100
0010
0100
0010
,  // measure 29
1000
0001
0010
0100
1000
0010
1000
0001
0100
0010
1000
0100
0010
0001
1000
0100
,  // measure 30
1000
0010
1000
0001
0100
0010
1000
0001
0010
0100
1000
0010
1000
0001
0100
0010
,  // measure 31
1000
0001
0010
0100
1000
0100
1000
0010
1000
0001
0100
0010
1000
0001
1000
0100
,  // measure 32
0010
0100
1000
0100
1000
0010
1000
0001
0100
0010
1000
0001
0010
0001
1000
0100
,  // measure 33
1000
0100
0010
0001
1000
0100
1000
0100
0010
0001
0010
0001
1000
0100
1000
0010
,  // measure 34
0100
0001
0010
0001
1000
0100
1000
0010
1000
0001
0100
0010
1000
0100
1000
0100
,  // measure 35
1000
0010
0100
0010
1000
0100
1000
0100
0010
0001
1000
0100
1000
0010
0100
0001
,  // measure 36
0010
0100
1000
0001
0010
0100
1000
0010
1000
0001
0100
0010
0100
0001
1000
0010
,  // measure 37
0100
0010
1000
0100
1000
0001
0010
0100
1000
0001
0100
0010
1000
0001
0100
0010
,  // measure 38
1000
0001
0010
0100
1000
0010
1000
0001
0100
0010
0100
0001
1000
0100
0010
0001
,  // measure 39
1000
0000
1000
0001
0010
0100
1000
0010
,  // measure 40
0101
0000
1010
0000
,  // measure 41
1100
0000
0001
0100
0010
0001
1000
0100
,  // measure 42
1010
0000
1001
0000
,  // measure 43
0001
0010
0100
1000
0001
1000
0010
0100
0001
1000
0100
0010
0001
1000
0100
1000
,  // measure 44
0010
1000
0001
0100
0010
1000
0001
0010
0100
0010
0001
1000
0010
1000
0001
0100
,  // measure 45
0010
0000
1000
0001
0010
0100
1000
0010
,  // measure 46
0101
0000
1010
0000
,  // measure 47
1001
0000
0001
0100
1000
0010
0100
0010
,  // measure 48
1001
0000
1010
0000
,  // measure 49
1000
0100
0010
0001
1000
0100
1000
0010
0100
0001
0100
0010
1000
0001
0010
0100
,  // measure 50
1000
0010
1000
0001
0100
0010
1000
0001
1000
0100
0010
0100
0010
0001
1000
0010
,  // measure 51
0100
0001
0100
0001
0100
0001
0010
0001
1000
0010
1000
0010
0100
0010
0100
0010
,  // measure 52
1000
0001
1000
0100
0010
0001
1000
0100
1000
0010
0100
0001
0100
0010
1000
0001
,  // measure 53
0010
0000
0000
0000
,  // measure 54
1001
0000
1001
0000
,  // measure 55
1000
0100
0010
0001
1000
0100
1000
0010
0100
0001
1000
0100
0010
0001
1000
0010
,  // measure 56
0100
0000
0000
0000
;

//---------------dance-double - ----------------
#NOTES:
     dance-double:
     :
     Hard:
     10:
     0.669,0.578,0.070,0.000,0.000,395.000,6.000,0.000,0.000,0.000:  // measure 1
00000000
00000000
00000000
00000000
,  // measure 2
00000000
00000000
00000000
00000000
,  // measure 3
10000000
01000000
00010000
00001000
00000010
00000001
00000100
00000010
,  // measure 4
00001000
00010000
01000000
10000000
00100000
01000000
00010000
00100000
,  // measure 5
00001000
00010000
00000100
00001000
00010000
00100000
10000000
00010000
,  // measure 6
01000000
00001000
00010000
00000100
00001000
00000010
00000100
00000001
,  // measure 7
00001000
00000100
00010000
00001000
00100000
10000000
00100000
01000000
,  // measure 8
10000000
00100000
00010000
00001000
00000100
00000001
00000010
00001000
,  // measure 9
00100000
00010000
01000000
00100000
10000000
00010000
00100000
00001000
,  // measure 10
00010000
01000000
00010000
00001000
00000100
00000010
00000100
00001000
,  // measure 11
00010000
00100000
01000000
10000000
00100000
00010000
00001000
00000100
,  // measure 12
00000010
00000001
00000100
00000010
00001000
00010000
00100000
01000000
,  // measure 13
10000000
00100000
01000000
00001000
00010000
00100000
00010000
00001000
,  // measure 14
00100000
00010000
00001000
00000100
00000010
00000001
00000100
00000001
,  // measure 15
00001000
00000100
00010000
00001000
01000000
00100000
00010000
10000000
,  // measure 16
00100000
01000000
00010000
00100000
01000000
00100000
00001000
00010000
,  // measure 17
00100000
00001000
00010000
00000100
00001000
00010000
01000000
10000000
,  // measure 18
00100000
01000000
00010000
00001000
00000100
00000010
00000001
00000100
,  // measure 19
00001000
00010000
00100000
10000000
01000000
00100000
01000000
10000000
,  // measure 20
00010000
00100000
01000000
00001000
00100000
00010000
01000000
00001000
,  // measure 21
00010000
00000100
00001000
00000010
00000100
00000001
00001000
00000100
,  // measure 22
00010000
00001000
00010000
00100000
01000000
10000000
00100000
01000000
,  // measure 23
00010000
00001000
00000100
00000010
00000001
00000100
00000010
00001000
,  // measure 24
00010000
10000000
00010000
10000000
,  // measure 25
00010000
10000000
01000000
00010000
,  // measure 26
00000001
00001000
00000001
00001000
,  // measure 27
00000001
00001000
00000001
00000100
,  // measure 28
00000010
00001000
00010000
01000000
,  // measure 29
10010000
00010000
01000000
00100000
10000000
01000000
00100000
00010000
,  // measure 30
01000000
00001000
00010000
00000100
00001000
00010000
00001000
00000100
,  // measure 31
00000010
00000001
00000100
00001000
00010000
00100000
10000000
00010000
,  // measure 32
00100000
00001000
00010000
00000100
00001000
00010000
00100000
01000000
,  // measure 33
10000000
00100000
00010000
00001000
00000100
00000001
00000010
00000100
,  // measure 34
00010000
00100000
01000000
00100000
10000000
00100000
01000000
00010000
,  // measure 35
00001000
00000100
00000001
00000100
00000010
00001000
00010000
00100000
,  // measure 36
10000000
00010000
00100000
01000000
00001000
00010000
00000100
00001000
,  // measure 37
00000010
00010000
00000100
00001000
00010000
01000000
00100000
10000000
,  // measure 38
00010000
00100000
00001000
00010000
01000000
10000000
00100000
00010000
,  // measure 39
00001000
00000100
00000010
00000001
00000100
00001000
00010000
00100000
,  // measure 40
01000000
10000000
00100000
00010000
00001000
00100000
00010000
01000000
,  // measure 41
00100000
10000000
01000000
00100000
00010000
01000000
00001000
00010000
,  // measure 42
00000100
00001000
00000010
00000100
00001000
00010000
01000000
10000000
,  // measure 43
01000000
00100000
00001000
00000100
00000001
00000010
00001000
00010000
,  // measure 44
00100000
10000000
00010000
01000000
00001000
00010000
00000010
00000100
,  // measure 45
00000001
00000010
00000100
00010000
00100000
01000000
10000000
00010000
,  // measure 46
01000000
00001000
00010000
00100000
00010000
00001000
00000100
00000001
,  // measure 47
00000100
00000010
00001000
00010000
00100000
01000000
10000000
00100000
,  // measure 48
01000000
00001000
00100000
00010000
01000000
00100000
10000000
00010000
,  // measure 49
01000000
00001000
00100000
00001000
00010000
00000100
00001000
00000010
,  // measure 50
00000001
00000010
00000100
00010000
00100000
01000000
10000000
00100000
,  // measure 51
00010000
00001000
00000100
00010000
00001000
00100000
01000000
00010000
,  // measure 52
00100000
01000000
10000000
00100000
00010000
00001000
00000100
00000001
,  // measure 53
00011000
00000000
00000010
00000000
00001000
00000100
00000010
00000001
,  // measure 54
00001001
00000100
00001000
00100000
,  // measure 55
10010000
01000000
00011000
00000100
,  // measure 56
00001001
00000000
00000000
00000000
;

//---------------dance-double - ----------------
#NOTES:
     dance-double:
     :
     Challenge:
     11:
     0.897,1.000,0.619,0.000,0.321,485.000,53.000,0.000,0.000,0.000:  // measure 1
00000000
00000000
00000000
00000000
,  // measure 2
00110000
00001000
00010000
00001000
00010000
00001000
00010000
00001000
00010000
00001000
00010000
00001000
00010000
00001000
00010000
00001000
,  // measure 3
00110000
01000000
00010000
00001000
00000010
00000001
00000100
00000010
,  // measure 4
00011000
00010000
01000000
10000000
00100000
01000000
00010000
00100000
,  // measure 5
00101000
00010000
00000100
00001000
00010000
00100000
10000000
00010000
,  // measure 6
01001000
00001000
00010000
00000100
00001000
00000010
00000100
00000001
,  // measure 7
00001001
00000100
00010000
00001000
00100000
10000000
00100000
01000000
,  // measure 8
11000000
00100000
00010000
00001000
00000100
00000001
00000010
00001000
,  // measure 9
00101000
00010000
01000000
00100000
10000000
00010000
00100000
00001000
,  // measure 10
00011000
01000000
00010000
00001000
00000100
00000010
00000100
00001000
,  // measure 11
00011000
00100000
01000000
10000000
00100000
00010000
00001000
00000100
,  // measure 12
00000011
00000001
00000100
00000010
00001000
00010000
00100000
01000000
,  // measure 13
11000000
00100000
01000000
00001000
00010000
00100000
00010000
00001000
,  // measure 14
00101000
00010000
00001000
00000100
00000010
00000001
00000100
00000001
,  // measure 15
00001001
00000100
00010000
00001000
01000000
00100000
00010000
10000000
,  // measure 16
10100000
01000000
00010000
00100000
01000000
00100000
00001000
00010000
,  // measure 17
00110000
00001000
00010000
00000100
00001000
00010000
01000000
10000000
,  // measure 18
10100000
01000000
00010000
00001000
00000100
00000010
00000001
00000100
,  // measure 19
00001100
00010000
00100000
10000000
01000000
00100000
01000000
10000000
,  // measure 20
10010000
00100000
01000000
00001000
00100000
00010000
01000000
00001000
,  // measure 21
00011000
00000100
00001000
00000010
00000100
00000001
00001000
00000100
,  // measure 22
00010100
00001000
00010000
00100000
01000000
10000000
00100000
01000000
,  // measure 23
01010000
00001000
00000100
00000010
00000001
00000100
00000010
00001000
,  // measure 24
00010100
00001000
00010000
00001000
00010000
00001000
00010000
00001000
00010000
00001000
00010000
00001000
00010000
00001000
00010000
00001000
,  // measure 25
00010000
00001000
00010000
00001000
00010000
00001000
00010000
00001000
00010000
00001000
00010000
00001000
00010000
00001000
00010000
00001000
,  // measure 26
00010000
00001000
00010000
00001000
00010000
00001000
00010000
00001000
00010000
00001000
00010000
00001000
00010000
00001000
00010000
00001000
,  // measure 27
00010000
00001000
00010000
00001000
00010000
00001000
00010000
00001000
00010000
00001000
00010000
00001000
00010000
00001000
00010000
00001000
,  // measure 28
00110000
00000100
00100000
00000100
00100000
00000100
00100000
00000100
00100000
00000100
00100000
00000100
00100000
00000100
00100000
00000100
,  // measure 29
10010000
00010000
01000000
00100000
10000000
01000000
00100000
00010000
,  // measure 30
01001000
00001000
00010000
00000100
00001000
00010000
00001000
00000100
,  // measure 31
00000011
00000001
00000100
00001000
00010000
00100000
10000000
00010000
,  // measure 32
00101000
00001000
00010000
00000100
00001000
00010000
00100000
01000000
,  // measure 33
10010000
00100000
00010000
00001000
00000100
00000001
00000010
00000100
,  // measure 34
00011000
00100000
01000000
00100000
10000000
00100000
01000000
00010000
,  // measure 35
00011000
00000100
00000001
00000100
00000010
00001000
00010000
00100000
,  // measure 36
11000000
00010000
00100000
01000000
00001000
00010000
00000100
00001000
,  // measure 37
00001010
00010000
00000100
00001000
00010000
01000000
00100000
10000000
,  // measure 38
10010000
00100000
00001000
00010000
01000000
10000000
00100000
00010000
,  // measure 39
00011000
00000100
00000010
00000001
00000100
00001000
00010000
00100000
,  // measure 40
11000000
10000000
00100000
00010000
00001000
00100000
00010000
01000000
,  // measure 41
00110000
10000000
01000000
00100000
00010000
01000000
00001000
00010000
,  // measure 42
00010100
00001000
00000010
00000100
00001000
00010000
01000000
10000000
,  // measure 43
11000000
00100000
00001000
00000100
00000001
00000010
00001000
00010000
,  // measure 44
01100000
10000000
00010000
01000000
00001000
00010000
00000010
00000100
,  // measure 45
00001001
00000010
00000100
00010000
00100000
01000000
10000000
00010000
,  // measure 46
01100000
00001000
00010000
00100000
00010000
00001000
00000100
00000001
,  // measure 47
00000101
00000010
00001000
00010000
00100000
01000000
10000000
00100000
,  // measure 48
01010000
00001000
00100000
00010000
01000000
00100000
10000000
00010000
,  // measure 49
01010000
00001000
00100000
00001000
00010000
00000100
00001000
00000010
,  // measure 50
00001001
00000010
00000100
00010000
00100000
01000000
10000000
00100000
,  // measure 51
00110000
00001000
00000100
00010000
00001000
00100000
01000000
00010000
,  // measure 52
00110000
01000000
10000000
00100000
00010000
00001000
00000100
00000001
,  // measure 53
00011000
00000100
00010000
00000100
00000010
00000100
00000000
00000000
00001000
00000001
00000100
00000001
00000010
00000100
00000001
00001000
,  // measure 54
00001001
00000010
00000100
00010000
00001000
00010000
00100000
10000000
,  // measure 55
10010000
00100000
01000000
00000000
00011000
00000010
00000100
00000000
,  // measure 56
00001001
00000000
00000000
00000000
;
