#TITLE:Still Blastin';
#SUBTITLE:;
#ARTIST:Nemesis Theory;
#TITLETRANSLIT:;
#SUBTITLETRANSLIT:;
#ARTISTTRANSLIT:;
#CREDIT:Flash;
#BANNER:../Zeppelin_bn.png;
#BACKGROUND:../bg_Zeppelin.png;
#LYRICSPATH:;
#CDTITLE:../cdtitle_ZAiA.png;
#MUSIC:Nemesis Theory - Still Blastin'.ogg;
#OFFSET:-0.055;
#SAMPLESTART:45.213;
#SAMPLELENGTH:22.720;
#SELECTABLE:YES;
#DISPLAYBPM:170.000;
#BPMS:0.000=170.000;
#STOPS:;
#BGCHANGES:;
// cache tags:
#FIRSTBEAT:28.500;
#LASTBEAT:520.000;
#SONGFILENAME:Songs/Cirque du Zeppelin/Still Blastin' - [Zaia]/Still Blastin'.sm;
#HASMUSIC:1;
#HASBANNER:1;
#MUSICLENGTH:213.916;
// end cache tags

//---------------dance-single - 16/8/32----------------
#NOTES:
     dance-single:
     16/8/32:
     Challenge:
     14:
     1.000,1.000,0.108,0.636,1.000,1343.000,23.000,136.000,0.000,0.000:
0000
0000
0000
0000
,
0000
0000
0000
0000
,
0000
0000
0000
0000
,
0000
0000
0000
0000
,
0000
0000
0000
0000
,
0000
0000
0000
0000
,
0000
0000
0000
0000
,
0000
0000
0001
1000
0010
0000
0100
0000
0001
0000
1000
0100
0000
1000
0001
0000
,
0200
0000
0000
0000
0000
0000
0000
0320
,
0000
0000
0000
0000
,
2030
0000
0000
0000
0000
0000
0000
3002
,
0000
0000
0000
0000
,
0023
0000
0000
0000
0000
0000
0000
0230
,
0000
0000
0000
0000
,
2300
0000
0000
0000
0000
0000
0000
3000
,
0001
0100
0010
1000
0001
1000
0001
0010
0100
1000
0010
0100
0001
1000
0000
0000
,
0001
1000
0100
0010
0001
1000
0001
0100
0010
0100
0001
1000
0100
1000
0010
0100
,
0001
1000
0001
0010
0100
1000
0001
1000
0010
1000
0001
0010
0001
0100
0010
1000
,
0001
0100
0010
1000
0100
0010
0001
1000
0001
0100
0010
1000
0100
0010
0001
1000
,
0001
0100
0010
1000
0100
0010
0100
1000
0001
1000
0010
0100
0001
0010
0001
0100
,
0010
1000
0001
0100
0001
1000
0001
1000
0100
0010
0001
1000
0010
1000
0001
0100
,
0001
1000
0100
0010
0001
1000
0001
0100
0010
1000
0010
0100
0001
1000
0001
0010
,
0100
1000
0001
1000
0010
0100
0001
1000
0100
1000
0001
0100
0001
1000
0100
0010
,
0001
1000
0001
0100
0010
0100
0001
1000
0100
0010
0100
1000
0010
0100
0001
1000
,
0100
1000
0010
1000
0001
0010
0100
1000
0001
1000
0010
0100
0010
1000
0001
0010
,
0001
1000
0010
0100
0001
1000
0100
1000
0001
0010
0100
1000
0001
1000
0010
0100
,
0001
1000
0100
1000
0010
0100
0001
1000
0001
0010
0100
1000
0010
0100
0001
1000
,
0001
0010
0100
1000
0010
0100
0010
1000
0001
1000
0100
0010
0001
0100
0001
0010
,
0100
1000
0001
1000
0010
0100
0001
0010
0100
1000
0100
0010
0001
1000
0010
1000
,
0001
0100
0001
0010
0001
1000
0100
1000
0001
0100
0010
0100
0001
1000
0001
0010
,
0100
1000
0001
1000
0010
0100
0001
1000
0010
1000
0001
0100
0001
1000
0100
0010
,
0100
0000
0000
1000
0000
0000
0001
0000
0000
1000
0000
0000
0010
0000
0000
0100
0000
0000
0001
0000
0000
1000
0000
0000
0001
0000
0000
1000
0000
0000
0100
0000
0000
0010
0000
0000
0100
0000
1000
0000
0001
0000
0100
0000
0000
0010
0000
0000
,
2000
0000
3002
0000
2003
3200
0310
0210
,
0000
2300
0000
3200
0000
0320
0032
2003
,
3020
0000
0000
0000
0000
0000
0230
0000
0000
0000
0000
0000
0302
0000
0000
2003
0000
0000
3200
0000
0000
0320
0000
0030
,
0001
0010
0001
1000
0100
1000
0010
1000
0001
0100
0001
0010
0001
1000
0010
0100
,
0002
0000
2003
0000
3200
0320
0032
2003
,
0000
0000
3000
0010
0100
0000
0001
0000
1000
0000
0001
0000
0010
0000
0001
0000
,
0200
0000
0320
0000
2030
3200
0320
0230
,
0000
0000
1300
0002
0000
0203
0000
0300
,
0020
0000
0000
0000
1030
0001
1000
0100
0010
0000
0001
0000
1000
0000
1001
0000
,
0000
0002
0203
0000
0320
2030
3002
0023
,
0030
0200
2300
3002
0203
0320
2030
3002
,
0013
0100
1000
0001
1000
0010
0100
0001
0010
0000
0100
0000
1000
0000
0002
0000
,
0000
0103
0010
2000
0000
3100
1000
0002
,
0000
0103
0010
2000
0000
3100
0010
0001
,
0200
0000
0320
0000
2030
0000
3002
0003
0002
0000
0203
0000
0320
0000
2030
0000
,
3000
0000
0001
1000
0100
0000
0010
0000
0001
0000
1000
0010
0000
1000
0001
0000
,
0010
0100
1000
0001
1000
0010
0100
0001
0010
0001
1000
0100
1000
0001
0100
0010
,
1000
0100
1000
0001
1000
0001
0100
0010
0100
0001
1000
0100
0010
0100
1000
0001
,
0010
0001
1000
0010
0100
0001
1000
0100
1000
0001
0100
0001
0010
0001
1000
0100
,
1000
0001
0100
0010
1000
0001
1000
0100
0010
0001
1000
0001
0100
0001
1000
0100
,
0010
0100
1000
0100
1000
0001
0100
0010
0100
0001
0010
0001
0010
0100
1000
0001
,
1000
0001
0100
0010
1000
0001
0010
0100
0010
0001
1000
0100
1000
0010
1000
0001
,
0100
0001
1000
0100
1000
0001
0010
0100
1000
0001
1000
0010
0100
0001
1000
0001
,
0010
0001
0100
0010
1000
0001
0010
0100
0010
0001
1000
0001
0100
0010
2000
0000
,
0000
0000
3002
0023
0000
0000
0230
2300
,
0000
3020
0230
0302
0023
0130
0110
0110
,
0000
0000
0100
1000
0001
0100
0010
1000
0002
0000
0000
0000
0000
0000
0023
0000
,
0000
0230
2300
3020
0000
0230
0302
0023
,
0130
0000
0000
0000
1000
0001
1000
0010
0100
0000
0001
0000
0000
0000
0010
0000
,
0100
1000
0001
1000
0010
0100
0001
0100
0010
0000
1000
0000
0001
0000
0010
0000
,
0100
1000
0001
0100
0010
0000
1000
0000
0100
0000
1000
0000
0010
0000
0100
0000
,
0001
0000
1000
0001
0010
0000
0100
0000
1000
0000
0010
1000
0000
0001
0100
0000
,
2001
0000
3001
0000
0010
0100
1000
1020
,
0000
0000
0230
0000
0301
0010
0001
0100
,
0210
0000
0320
0000
1030
0001
0010
0011
,
0001
2000
3020
0230
0000
0302
0023
0230
,
0000
1300
1010
0000
0010
0100
0001
1000
,
0000
0001
0011
0000
0010
0100
1000
0010
,
0000
0100
0001
1000
0100
0010
0001
1001
,
0000
0000
0000
1010
0000
0000
0000
0000
0000
0110
0000
0000
0000
0000
0000
0101
0000
0000
0001
1000
0100
1000
0001
0100
,
0010
0000
1000
0001
0101
0000
1000
0000
,
0001
0010
0001
0000
1000
0000
0000
0000
1010
0000
0010
0000
0000
0000
0100
0000
,
0001
0000
0000
0000
1000
0000
0001
0010
0100
0000
0000
0000
1000
0001
1000
0001
,
0100
0000
0000
0000
0000
0000
0010
0000
0000
0100
0000
0000
0000
0000
0000
0010
0000
0000
1000
0000
0000
0000
0000
0000
0001
0000
0000
0000
0000
0000
0010
0000
0000
0100
0000
0000
1000
0000
0000
0000
0000
0000
0001
0000
1000
0000
0010
0000
,
0100
0000
0000
0000
0000
0000
0000
0000
0000
0000
0000
0000
0001
0000
0000
1000
0000
0000
0001
0000
0000
0000
0000
0000
0100
0000
0010
0000
0100
0000
0010
0000
1000
0000
0001
0000
0100
0000
0000
0000
0000
0000
0010
0000
0000
0000
0000
0000
,
1000
0000
1000
0000
0001
0010
0001
0000
0100
0000
0010
1000
0000
0001
1000
0000
,
0100
0000
0000
0000
0010
0000
0001
0000
0101
0000
0100
0010
1000
0000
0002
0000
,
0000
0023
0230
2300
0000
3020
0230
0302
,
0013
0000
0000
0100
0000
0000
0010
0000
0000
0100
0000
0000
1000
0000
0000
0001
0000
0000
1000
0000
0000
0001
0000
0000
0100
0000
0000
0010
0000
0000
1000
0000
0000
0001
0000
0000
1000
0000
0010
0000
1000
0000
0001
0000
0010
0000
0001
0000
,
1000
0100
1000
0001
0100
0010
1000
0100
0010
0001
1000
0100
1000
0010
0100
0001
,
1000
0010
1000
0001
0010
0100
1000
0010
0100
0001
1000
0010
1000
0100
0010
0001
,
1000
0001
0100
0001
1000
0100
0010
0001
0100
0010
1000
0001
0100
0001
0010
0100
,
1000
0001
0010
0001
1000
0010
0100
0001
0010
0100
1000
0001
0010
0001
0100
0010
,
1000
0100
1000
0001
0100
0010
1000
0100
0010
0001
1000
0100
1000
0010
0100
0001
,
1000
0010
1000
0001
0010
0100
1000
0010
0100
0001
1000
0010
1000
0100
0010
0001
,
1000
0001
0100
0001
1000
0100
0010
0001
0100
0010
1000
0001
0100
0001
0010
0100
,
1000
0001
0010
0001
1000
0010
0100
0010
1000
0001
1000
0001
0010
0100
0010
0100
,
1000
0001
0100
0001
1000
0100
1000
0010
1000
0001
0010
0001
1000
0010
0100
0001
,
0010
0001
1000
0010
1000
0100
1000
0001
0010
0100
1000
0001
1000
0010
0100
0010
,
1000
0001
1000
0001
0010
0001
0100
0001
1000
0010
1000
0001
0010
0100
1000
0010
,
1000
0001
0100
0001
1000
0100
0010
0100
1000
0010
1000
0010
0100
0010
0100
0010
,
1000
0001
0010
0001
1000
0010
1000
0100
1000
0001
0100
0001
1000
0100
0010
0001
,
0100
0001
1000
0100
1000
0010
1000
0001
0100
0010
1000
0001
1000
0100
0010
0100
,
1000
0001
1000
0001
0100
0001
0010
0001
1000
0100
1000
0001
0100
0010
1000
0100
,
1000
0001
0010
0001
1000
0010
0100
0010
1000
0100
1000
0100
0010
0100
0010
0100
,
1000
0001
0100
0010
1000
0100
1000
0001
0100
0010
0100
0001
1000
0001
0010
0100
,
1000
0001
1000
0010
0100
0001
0010
0001
1000
0100
1000
0001
0100
0010
0100
0001
,
1000
0001
0010
0100
1000
0100
0010
0001
1000
0010
0100
0010
1000
0100
1000
0001
,
0010
0001
1000
0010
0100
0001
1000
0001
0010
0100
0010
0001
1000
0001
0100
0010
,
1000
0001
0100
0001
1000
0100
1000
0001
0010
0100
1000
0001
0100
0010
1000
0001
,
0010
0001
1000
0010
1000
0001
0100
0010
0100
0001
1000
0001
0010
0100
1000
0001
,
0100
0010
1000
0001
1000
0100
0010
0100
1000
0001
0010
0100
1000
0001
1000
0010
,
0100
0000
0001
1000
0010
0000
0100
0000
0001
0000
0010
0100
0000
1000
0100
0000
,
0010
0001
1000
0001
0100
0010
0100
0001
1000
0100
1000
0001
0010
0001
0100
0010
,
1000
0001
0100
0001
1000
0010
0100
0001
0010
0001
1000
0100
1000
0001
0100
0010
,
0100
0001
1000
0001
0010
0100
1000
0001
0100
0010
1000
0001
0010
0100
0010
0001
,
1000
0001
0100
0001
1000
0100
1000
0010
0100
0001
1000
0100
0010
0100
1000
0001
,
1000
0010
0100
0001
1000
0010
0100
0001
1000
0100
0010
0001
1000
0100
0010
0001
,
1000
0010
1000
0001
0100
0001
0010
0100
1000
0010
0100
0001
0010
0001
0100
0010
,
1000
0001
0010
0001
0100
0000
0010
0000
0100
0001
0010
0001
1000
0000
0010
0000
,
0110
0000
0000
0100
0000
0000
0101
0000
0000
1001
0000
0000
0000
0000
0000
1000
0000
0000
0001
0010
0100
1000
0001
1000
,
0010
0000
0100
0001
1000
0000
0100
0010
0001
0000
1000
0000
0010
0000
0110
0000
,
0100
0000
0001
1000
0000
0100
0010
0002
,
0000
2003
3020
0230
0300
0002
0203
0320
,
0000
2030
3002
0023
0000
0230
0000
0300
,
1000
0001
0100
0010
1000
0100
0010
0001
1000
0000
0010
0000
0100
0000
0002
0000
,
0000
0023
0000
0230
0000
2300
3001
0200
,
0000
0320
0000
0030
1000
0001
0010
0200
,
0000
2300
0000
3000
0001
1000
0010
0100
,
0001
0020
0230
2300
3020
0230
0302
0013
,
0110
0000
1100
0000
1000
0001
0100
0020
,
0000
2030
3200
0320
0000
0032
0203
0320
,
0000
0000
0000
0000
0000
0000
0000
0000
2030
0000
0000
0000
0000
0000
0000
0000
3002
0000
0000
0000
0000
0000
0000
0000
0023
0030
0000
0000
0000
0000
0000
0000
0000
0000
0000
0000
0000
0000
0000
0000
0002
0003
0000
0000
0000
0000
0000
0000
0000
0000
0000
0000
0000
0000
0000
0000
2000
3000
0000
0000
0000
0000
0000
0000
,
0000
0010
0100
0001
0010
0001
0100
0010
,
0000
1000
0100
1000
0010
0100
0001
1000
,
0000
0100
0010
0001
0100
0010
1000
0001
,
0010
0000
0100
1000
0001
0000
0100
0000
0010
0000
1000
0001
0000
0010
0100
0000
,
2000
0000
0000
0000
,
3000
0000
0000
0000
;

//---------------dance-single - 16/8/4----------------
#NOTES:
     dance-single:
     16/8/4:
     Hard:
     13:
     0.896,1.000,0.108,0.743,0.841,1160.000,23.000,159.000,0.000,0.000:
0000
0000
0000
0000
,
0000
0000
0000
0000
,
0000
0000
0000
0000
,
0000
0000
0000
0000
,
0000
0000
0000
0000
,
0000
0000
0000
0000
,
0000
0000
0000
0000
,
0000
0000
0001
1000
0010
0000
0100
0000
0001
0000
1000
0100
0000
1000
0001
0000
,
0200
0000
0000
0000
0000
0000
0000
0320
,
0000
0000
0000
0000
,
2030
0000
0000
0000
0000
0000
0000
3002
,
0000
0000
0000
0000
,
0023
0000
0000
0000
0000
0000
0000
0230
,
0000
0000
0000
0000
,
2300
0000
0000
0000
0000
0000
0000
3000
,
0001
0100
0010
1000
0001
1000
0001
0010
0100
1000
0010
0100
0001
1000
0000
0000
,
0001
1000
0100
0010
0001
1000
0001
0100
0010
0100
0001
1000
0100
1000
0010
0100
,
0001
1000
0001
0010
0100
1000
0001
1000
0010
1000
0001
0010
0001
0100
0010
1000
,
0001
0100
0010
1000
0100
0010
0001
1000
0001
0100
0010
1000
0100
0010
0001
1000
,
0001
0100
0010
1000
0100
0010
0100
1000
0001
1000
0010
0100
0001
0010
0001
0100
,
0010
1000
0001
0100
0001
1000
0001
1000
0100
0010
0001
1000
0010
1000
0001
0100
,
0001
1000
0100
0010
0001
1000
0001
0100
0010
1000
0010
0100
0001
1000
0001
0010
,
0100
1000
0001
1000
0010
0100
0001
1000
0100
1000
0001
0100
0001
1000
0100
0010
,
0001
1000
0001
0100
0010
0100
0001
1000
0100
0010
0100
1000
0010
0100
0001
1000
,
0100
1000
0010
1000
0001
0010
0100
1000
0001
1000
0010
0100
0010
1000
0001
0010
,
0001
1000
0010
0100
0001
1000
0100
1000
0001
0010
0100
1000
0001
1000
0010
0100
,
0001
1000
0100
1000
0010
0100
0001
1000
0001
0010
0100
1000
0010
0100
0001
1000
,
0001
0010
0100
1000
0010
0100
0010
1000
0001
1000
0100
0010
0001
0100
0001
0010
,
0100
1000
0001
1000
0010
0100
0001
0010
0100
1000
0100
0010
0001
1000
0010
1000
,
0001
0100
0001
0010
0001
1000
0100
1000
0001
0100
0010
0100
0001
1000
0001
0010
,
0100
1000
0001
1000
0010
0100
0001
1000
0010
1000
0001
0100
0001
1000
0100
0010
,
0100
1000
0001
1000
0010
0100
0001
1000
0001
1000
0100
0010
0100
1000
0010
0100
,
0002
0000
2003
0000
3002
0023
0130
0120
,
0000
0032
0000
0023
0000
0230
2300
3002
,
0203
0000
0000
0000
0000
0000
0320
0000
0000
0000
0000
0000
2030
0000
0000
3002
0000
0000
0023
0000
0000
0230
0000
0300
,
1000
0100
1000
0001
0010
0001
0100
0001
1000
0010
1000
0100
1000
0001
0100
0010
,
2000
0000
3002
0000
0023
0230
2300
3002
,
0000
0000
0003
0100
0010
0000
1000
0000
0001
0000
1000
0000
0100
0000
1000
0000
,
0020
0000
0230
0000
0302
0023
0230
0320
,
0000
0000
0031
2000
0000
3020
0000
0030
,
0200
0000
0000
0000
0301
1000
0001
0010
0100
0000
1000
0000
0001
0000
1001
0000
,
0000
2000
3020
0000
0230
0302
2003
3200
,
0300
0020
0032
2003
3020
0230
0302
2003
,
3100
0010
0001
1000
0001
0100
0010
1000
0100
0000
0010
0000
0001
0000
2000
0000
,
0000
3010
0100
0002
0000
0013
0001
2000
,
0000
3010
0100
0002
0000
0013
0100
1000
,
0020
0000
0230
0000
0302
0000
2003
3000
2000
0000
3020
0000
0230
0000
0302
0000
,
0003
0000
1000
0001
0010
0000
0100
0000
1000
0000
0001
0100
0000
0001
1000
0000
,
0100
0010
0001
1000
0001
0100
0010
1000
0100
1000
0001
0010
0001
1000
0010
0100
,
0001
0010
0001
1000
0001
1000
0010
0100
0010
1000
0001
0010
0100
0010
0001
1000
,
0100
1000
0001
0100
0010
1000
0001
0010
0001
1000
0010
1000
0100
1000
0001
0010
,
0001
1000
0010
0100
0001
1000
0001
0010
0100
1000
0001
1000
0010
1000
0001
0010
,
0100
0010
0001
0010
0001
1000
0010
0100
0010
1000
0100
1000
0100
0010
0001
1000
,
0001
1000
0010
0100
0001
1000
0100
0010
0100
1000
0001
0010
0001
0100
0001
1000
,
0010
1000
0001
0010
0001
1000
0100
0010
0001
1000
0001
0100
0010
1000
0001
1000
,
0100
1000
0010
0100
0001
1000
0100
0010
0100
1000
0001
1000
0010
0100
0002
0000
,
0000
0000
2003
3200
0000
0000
0320
0032
,
0000
0203
0320
2030
3200
0310
0110
0110
,
0000
0000
0010
0001
1000
0010
0100
0001
2000
0000
0000
0000
0000
0000
3200
0000
,
0000
0320
0032
0203
0000
0320
2030
3200
,
0310
0000
0000
0000
0001
1000
0001
0100
0010
0000
1000
0000
0000
0000
0100
0000
,
0010
0001
1000
0001
0100
0010
1000
0010
0100
0000
0001
0000
1000
0000
0100
0000
,
0010
0001
1000
0010
0100
0000
0001
0000
0010
0000
0001
0000
0100
0000
0010
0000
,
1000
0000
0001
1000
0100
0000
0010
0000
0001
0000
0100
0001
0000
1000
0010
0000
,
1002
0000
1003
0000
0100
0010
0001
0201
,
0000
0000
0320
0000
1030
0100
1000
0010
,
0120
0000
0230
0000
0301
1000
0100
1100
,
1000
0002
0203
0320
0000
2030
3200
0320
,
0000
0031
0101
0000
0100
0010
1000
0001
,
0000
1000
1100
0000
0100
0010
0001
0100
,
0000
0010
1000
0001
0010
0100
1000
1001
,
0000
0000
0101
0000
0000
0000
0110
0000
0000
0000
1010
0000
1000
0001
0010
0001
,
1000
0000
0001
1000
1010
0000
0001
0000
,
1000
0100
1000
0000
0001
0000
0000
0000
0101
0000
0100
0000
0000
0000
0010
0000
,
1000
0000
0000
0000
0001
0000
1000
0100
0010
0000
0000
0000
0001
1000
0001
1000
,
0010
0000
0100
0010
0000
0100
0001
0000
1000
0000
0100
0010
0001
0000
1000
0010
,
0100
0000
0000
0000
0001
1000
0001
0000
0100
0010
0100
0001
0100
0000
0010
0000
,
1000
0000
1000
0000
0001
0010
0001
0000
0100
0000
0010
1000
0000
0001
1000
0000
,
0100
0000
0000
0000
0010
0000
0001
0000
0101
0000
0100
0010
1000
0000
0002
0000
,
0000
0023
0230
2300
0000
3020
0230
0302
,
0013
0100
0010
0100
1000
0001
1000
0001
0100
0010
1000
0001
1000
0010
0100
0010
,
1000
0000
0001
0010
0001
0000
0100
0000
0010
0000
1000
0100
1000
0000
0001
0000
,
0100
0000
0010
0000
1000
0010
1000
0001
1000
0000
0100
0000
0010
0000
0100
0000
,
1000
0000
0001
0100
0001
0000
0010
0000
0100
0000
1000
0000
0010
0000
1000
0000
,
0000
0001
0000
0010
0000
0100
1000
0100
,
0010
0000
0001
1000
0001
0100
0010
0000
1000
0000
0001
0000
0010
0100
1000
0000
,
0001
0000
0100
0000
0010
1000
0010
0000
0100
0000
0001
0000
0010
0001
0010
0000
,
0100
0000
1000
0000
0001
1000
0001
1000
0010
0100
0010
1000
0001
0010
0100
0000
,
1000
0000
0001
0000
0000
0000
0100
0000
0010
0100
0010
0100
0001
1000
0001
1000
,
0100
0000
0010
0100
0010
0000
0001
0010
0001
0000
1000
0000
0000
0000
0010
0100
,
0010
0000
1000
0001
1000
0000
0100
0000
0020
0000
0230
0000
2300
0000
3002
0000
,
0203
0000
0310
0000
1000
0001
1000
0000
0100
0000
0010
0000
0001
0000
1000
0000
,
0010
0000
0200
0000
0302
0000
0023
0000
0130
1000
0100
1000
0002
0000
0003
0000
,
1000
0000
0010
1000
0010
0000
0100
0010
0100
0000
0001
0000
0000
0000
1000
0100
,
1000
0000
0001
0010
0001
0000
2000
0000
0000
0000
3020
0000
0230
0000
0302
0000
,
0013
0000
0002
0000
1003
0010
1000
0001
0100
0010
0100
0001
1000
0001
0010
0000
,
0100
0000
1000
0001
0100
0000
0010
0000
2000
0000
3200
0000
0320
0000
0032
0000
,
0103
0001
0010
0200
0000
1300
0010
0200
,
0000
0301
1000
0010
0100
0001
0010
0100
,
0000
1000
0001
0100
0000
0010
1000
0001
,
0010
0001
0100
0010
0000
1000
0001
0020
,
0000
0000
0000
0000
0130
1000
0010
0200
,
0000
0000
0000
0000
0301
0010
0001
2000
,
0000
0000
3000
0010
0000
0100
0001
1000
,
0100
0000
1000
0001
0100
0000
0010
0000
1000
0000
0100
0010
0000
0001
0010
0000
,
0100
1000
0001
1000
0010
0100
0010
1000
0001
0010
0001
1000
0100
1000
0010
0100
,
0001
1000
0010
1000
0001
0100
0010
1000
0100
1000
0001
0010
0001
1000
0010
0100
,
0010
1000
0001
1000
0100
0010
0001
1000
0010
0100
0001
1000
0100
0010
0100
1000
,
0001
1000
0010
1000
0001
0010
0001
0100
0010
1000
0001
0010
0100
0010
0001
1000
,
0001
0100
0010
1000
0001
0100
0010
1000
0001
0010
0100
1000
0001
0010
0100
1000
,
0001
0100
0001
1000
0010
1000
0100
0010
0001
0100
0010
1000
0100
1000
0010
0100
,
0001
1000
0100
1000
0010
0000
0100
0000
0010
1000
0100
1000
0001
0000
0100
0000
,
0110
0000
0010
0000
1010
0000
1001
0000
0000
0000
0001
0000
1000
0100
0010
0001
,
0100
0000
0010
1000
0001
0000
0010
0100
1000
0000
0001
0000
0100
0000
0110
0000
,
0010
0000
1000
0001
0000
0010
0100
2000
,
0000
3002
0203
0320
0030
2000
3020
0230
,
0000
0302
2003
3200
0000
0320
0000
0030
,
0001
1000
0010
0100
0001
0010
0100
1000
0001
0000
0100
0000
0010
0000
2000
0000
,
0000
3200
0000
0320
0000
0032
1003
0020
,
0000
0230
0000
0300
0001
1000
0100
0020
,
0000
0032
0000
0003
1000
0001
0100
0010
,
1000
0200
0320
0032
0203
0320
2030
3100
,
0110
0000
0011
0000
0001
1000
0010
0200
,
0000
0302
0023
0230
0000
2300
3020
0230
,
0000
0000
0000
0000
0000
0000
0000
0000
0302
0000
0000
0000
0000
0000
0000
0000
2003
0000
0000
0000
0000
0000
0000
0000
3200
0300
0000
0000
0000
0000
0000
0000
0000
0000
0000
0000
0000
0000
0000
0000
2000
3000
0000
0000
0000
0000
0000
0000
0000
0000
0000
0000
0000
0000
0000
0000
0002
0003
0000
0000
0000
0000
0000
0000
,
0000
0100
0010
1000
0100
1000
0010
0100
,
0000
0001
0010
0001
0100
0010
1000
0001
,
0000
0010
0100
1000
0010
0100
0001
1000
,
0100
0000
0010
0001
1000
0000
0010
0000
0100
0000
0001
1000
0000
0100
0010
0000
,
0002
0000
0000
0000
,
0003
0000
0000
0000
;

//---------------dance-single - 4----------------
#NOTES:
     dance-single:
     4:
     Medium:
     11:
     0.756,0.912,0.159,0.912,0.346,903.000,34.000,195.000,0.000,0.000:
0000
0000
0000
0000
,
0000
0000
0000
0000
,
0000
0000
0000
0000
,
0000
0000
0000
0000
,
0000
0000
0000
0000
,
0000
0000
0000
0000
,
0000
0000
0000
0000
,
0000
0000
0001
1000
0010
0000
0100
0000
0001
0000
1000
0100
0000
1000
0001
0000
,
0200
0000
0000
0000
0000
0000
0000
0320
,
0000
0000
0000
0000
,
2030
0000
0000
0000
0000
0000
0000
3002
,
0000
0000
0000
0000
,
0023
0000
0000
0000
0000
0000
0000
0230
,
0000
0000
0000
0000
,
2300
0000
0000
0000
0000
0000
0000
3000
,
0001
0100
0010
1000
0001
1000
0001
0010
0100
1000
0010
0100
0001
1000
0000
0000
,
0001
0100
0010
2000
0000
3001
0010
0200
,
0000
1300
0010
0200
0000
0301
1000
0010
,
0100
0001
1000
0200
0000
0310
0001
2000
,
0000
3010
0100
0002
0000
1003
0100
0020
,
0000
0000
0031
0100
0001
0000
1000
0100
1000
0000
0010
0000
0100
0000
0002
0000
,
0000
0003
1000
0100
2000
3020
0230
0302
,
0000
1003
0001
0010
0000
1100
0000
1001
,
0000
0101
0000
0110
0000
1010
1000
0001
,
0100
0010
0100
0002
0000
1003
0100
0020
,
0000
0031
0100
0020
0000
1030
0001
0100
,
0010
1000
0001
0020
0000
0130
1000
0002
,
0000
0103
0010
2000
0000
3001
0010
0200
,
0000
0000
1300
0010
1000
0000
0001
0010
0001
0000
0100
0000
0010
0000
2000
0000
,
0000
3000
0001
0010
0002
0203
0320
2030
,
0000
3001
1000
0100
0000
0011
0000
1001
,
0000
1010
0000
0110
0000
0101
0001
1000
,
0002
0000
2003
0000
3002
0023
0130
0120
,
0000
0032
0000
0023
0000
0230
2300
3002
,
0203
0000
0000
0000
0000
0000
0320
0000
0000
0000
0000
0000
2030
0000
0000
3002
0000
0000
0023
0000
0000
0230
0000
0300
,
1000
0100
1000
0001
0010
0001
0100
0001
1000
0010
1000
0100
1000
0001
0100
0010
,
2000
0000
3002
0000
0023
0230
2300
3002
,
0000
0000
0003
0100
0010
0000
1000
0000
0001
0000
1000
0000
0100
0000
1000
0000
,
0020
0000
0230
0000
0302
0023
0230
0320
,
0000
0000
0031
2000
0000
3020
0000
0030
,
0200
0000
0000
0000
0301
1000
0001
0010
0100
0000
1000
0000
0001
0000
1001
0000
,
0000
2000
3020
0000
0230
0302
2003
3200
,
0300
0020
0032
2003
3020
0230
0302
2003
,
3100
0010
0001
1000
0001
0100
0010
1000
0001
0000
0010
0000
0001
0000
2000
0000
,
0000
3010
0100
0002
0000
0013
0001
2000
,
0000
3010
0100
0002
0000
0013
0100
1000
,
0020
0000
0230
0000
0302
0000
2003
3000
2000
0000
3020
0000
0230
0000
0302
0000
,
0003
0000
1000
0001
0010
0000
0100
0000
1000
0000
0001
0100
0000
0001
1000
0000
,
0001
0000
0010
0100
0010
0000
0100
1000
0100
0000
1000
0000
0000
0000
0001
0000
,
0000
0100
0010
0100
0001
0010
0100
1000
,
0000
0000
0001
0100
0001
0000
1000
0010
1000
0000
0001
0000
0010
0000
0001
0000
,
0000
0000
1000
0000
0010
0100
0001
1000
0100
0000
0010
0000
0000
0000
0001
0000
,
1000
0000
0001
0100
0000
0010
0000
1000
,
0000
0001
0010
0000
0100
1000
0010
0100
,
0000
0201
0302
0023
0230
2300
3002
0203
,
0310
0000
1000
0000
0001
0000
1000
0000
0100
0000
1000
0000
0010
0100
0002
0000
,
0000
0000
2003
3200
0000
0000
0320
0032
,
0000
0203
0320
2030
3200
0310
0110
0110
,
0000
0000
0010
0001
1000
0010
0100
0001
2000
0000
0000
0000
0000
0000
3200
0000
,
0000
0320
0032
0203
0000
0320
2030
3200
,
0310
0000
0000
0000
0001
1000
0001
0100
0010
0000
1000
0000
0000
0000
0100
0000
,
0010
0001
1000
0001
0100
0010
1000
0010
0100
0000
0001
0000
1000
0000
0100
0000
,
0010
0001
1000
0010
0100
0000
0001
0000
0010
0000
0001
0000
0100
0000
0010
0000
,
1000
0000
0001
1000
0100
0000
0010
0000
0001
0000
0100
0001
0000
1000
0010
0000
,
1002
0000
1003
0000
0100
0010
0001
0201
,
0000
0000
0320
0000
1030
0100
1000
0010
,
0120
0000
0230
0000
0301
1000
0100
1100
,
1000
0002
0203
0320
0000
2030
3200
0320
,
0000
0031
0101
0000
0100
0010
1000
0001
,
0000
1000
1100
0000
0100
0010
0001
0100
,
0000
0010
1000
0001
0010
0100
1000
1001
,
0000
0000
0101
0000
0000
0000
0110
0000
0000
0000
1010
0000
1000
0001
0010
0001
,
1000
0000
0001
1000
1010
0000
0001
0000
,
1000
0100
1000
0000
0001
0000
0000
0000
0101
0000
0100
0000
0000
0000
0010
0000
,
1000
0000
0000
0000
0001
0000
1000
0100
0010
0000
0000
0000
0001
1000
0001
1000
,
0010
0000
0100
0010
0000
0100
0001
0000
1000
0000
0100
0010
0001
0000
1000
0010
,
0100
0000
0000
0000
0001
1000
0001
0000
0100
0010
0100
0001
0100
0000
0010
0000
,
1000
0000
1000
0000
0001
0010
0001
0000
0100
0000
0010
1000
0000
0001
1000
0000
,
0100
0000
0000
0000
0010
0000
0001
0000
0101
0000
0100
0010
1000
0000
0002
0000
,
0000
0023
0230
2300
0000
3020
0230
0302
,
0013
0100
0010
0100
1000
0001
1000
0001
0100
0010
1000
0001
1000
0010
0100
0010
,
1000
0000
0001
0010
0001
0000
0100
0000
0010
0000
1000
0100
1000
0000
0001
0000
,
0100
0000
0010
0000
1000
0010
1000
0001
1000
0000
0100
0000
0010
0000
0100
0000
,
1000
0000
0001
0100
0001
0000
0010
0000
0100
0000
1000
0000
0010
0000
1000
0000
,
0000
0001
0000
0010
0000
0100
1000
0100
,
0010
0000
0001
1000
0001
0100
0010
0000
1000
0000
0001
0000
0010
0100
1000
0000
,
0001
0000
0100
0000
0010
1000
0010
0000
0100
0000
0001
0000
0010
0001
0010
0000
,
0100
0000
1000
0000
0001
1000
0001
1000
0010
0100
0010
1000
0001
0010
0100
0000
,
1000
0000
0001
0000
0000
0000
0100
0000
0010
0100
0010
0100
0001
1000
0001
1000
,
0100
0000
0010
0100
0010
0000
0001
0010
0001
0000
1000
0000
0000
0000
0010
0100
,
0010
0000
1000
0001
1000
0000
0100
0000
0020
0000
0230
0000
2300
0000
3002
0000
,
0203
0000
0310
0000
1000
0001
1000
0000
0100
0000
0010
0000
0001
0000
1000
0000
,
0010
0000
0200
0000
0302
0000
0023
0000
0130
1000
0100
1000
0002
0000
0003
0000
,
1000
0000
0010
1000
0010
0000
0100
0010
0100
0000
0001
0000
0000
0000
1000
0100
,
1000
0000
0001
0010
0001
0000
2000
0000
0000
0000
3020
0000
0230
0000
0302
0000
,
0013
0000
0002
0000
1003
0010
1000
0001
0100
0010
0100
0001
1000
0001
0010
0000
,
0100
0000
1000
0001
0100
0000
0010
0000
2000
0000
3200
0000
0320
0000
0032
0000
,
0103
0001
0010
0200
0000
1300
0010
0200
,
0000
0301
1000
0010
0100
0001
0010
0100
,
0000
1000
0001
0100
0000
0010
1000
0001
,
0010
0001
0100
0010
0000
1000
0001
0020
,
0000
0000
0000
0000
0130
1000
0010
0200
,
0000
0000
0000
0000
0301
0010
0001
2000
,
0000
0000
3000
0010
0000
0100
0001
1000
,
0100
0000
1000
0001
0100
0000
0010
0000
1000
0000
0100
0010
0000
0001
0010
0000
,
0100
1000
0001
0100
0010
0100
0001
0010
,
0000
0100
1000
0001
0100
0010
0100
0002
,
0000
0023
0230
2300
0000
3002
0000
0103
,
0010
1000
0001
0010
0100
1000
0010
1000
,
0001
0100
0010
1000
0001
0100
0010
1000
0001
0010
0100
1000
0001
0010
0100
1000
,
0001
0100
0001
1000
0010
1000
0100
0010
0001
0100
0010
1000
0100
1000
0010
0100
,
0001
1000
0100
1000
0010
0000
0100
0000
0010
1000
0100
1000
0001
0000
0100
0000
,
0110
0000
0010
0000
1010
0000
1001
0000
0000
0000
0001
0000
1000
0100
0010
0001
,
0100
0000
0010
1000
0001
0000
0010
0100
1000
0000
0001
0000
0100
0000
0110
0000
,
0010
0000
1000
0001
0000
0010
0100
2000
,
0000
3002
0203
0320
0030
2000
3020
0230
,
0000
0302
2003
3200
0000
0320
0000
0030
,
0001
1000
0010
0100
0001
0010
0100
1000
0001
0000
0100
0000
0010
0000
2000
0000
,
0000
3200
0000
0320
0000
0032
1003
0020
,
0000
0230
0000
0300
0001
1000
0100
0020
,
0000
0032
0000
0003
1000
0001
0100
0010
,
1000
0200
0320
0032
0203
0320
2030
3100
,
0110
0000
0011
0000
0001
1000
0010
0200
,
0000
0302
0023
0230
0000
2300
3020
0230
,
0000
0000
0000
0000
0000
0000
0000
0000
0302
0000
0000
0000
0000
0000
0000
0000
2003
0000
0000
0000
0000
0000
0000
0000
3200
0300
0000
0000
0000
0000
0000
0000
0000
0000
0000
0000
0000
0000
0000
0000
2000
3000
0000
0000
0000
0000
0000
0000
0000
0000
0000
0000
0000
0000
0000
0000
0002
0003
0000
0000
0000
0000
0000
0000
,
0000
0100
0010
1000
0100
1000
0010
0100
,
0000
0001
0010
0001
0100
0010
1000
0001
,
0000
0010
0100
1000
0010
0100
0001
1000
,
0100
0000
0010
0001
1000
0000
0010
0000
0100
0000
0001
1000
0000
0100
0010
0000
,
0002
0000
0000
0000
,
0003
0000
0000
0000
;
