#TITLE:30's Swing Tek;
#SUBTITLE:;
#ARTIST:FLOXYTEK vs BILLX;
#TITLETRANSLIT:;
#SUBTITLETRANSLIT:;
#ARTISTTRANSLIT:;
#CREDIT:;
#BANNER:../ban - Jawn2.png;
#BACKGROUND:../Jawn2 - bg.png;
#LYRICSPATH:;
#CDTITLE:../CDa.png;
#MUSIC:30's Swing Tek.ogg;
#OFFSET:0.009;
#SAMPLESTART:105.390;
#SAMPLELENGTH:20.000;
#SELECTABLE:YES;
#BPMS:0.000=191.287;
#STOPS:;
#BGCHANGES:;
// cache tags:
#FIRSTBEAT:32.000;
#LASTBEAT:751.000;
#SONGFILENAME:Songs/Jimmy Jawns 2/30's Swing Tek - [Aoreo]/30's Swing Tek.sm;
#HASMUSIC:1;
#HASBANNER:1;
#MUSICLENGTH:236.875;
// end cache tags

//---------------dance-single - J. Nero----------------
#NOTES:
     dance-single:
     J. Nero:
     Challenge:
     16:
     1.000,1.000,0.038,0.139,1.000,2345.000,9.000,33.000,1.000,0.000:
0000
0000
0000
0000
,
0000
0000
0000
0000
,
0000
0000
0000
0000
,
0000
0000
0000
0000
,
0000
0000
0000
0000
,
0000
0000
0000
0000
,
0000
0000
0000
0000
,
0000
0000
0000
0000
,
1001
0000
0000
0000
0001
0000
0100
0000
0000
0010
0000
0000
1000
0000
0000
0000
0000
0000
0100
0000
0000
0010
0000
0000
,
0001
0000
0000
0000
0100
0000
0010
0000
0000
1000
0000
0000
0001
0000
0000
0000
0000
0000
1000
0000
0000
0010
0000
0000
,
0100
0000
0001
0010
0100
0000
1000
0010
,
0100
0000
0001
1000
0000
0100
0010
0000
,
0001
0000
0000
0000
1000
0000
0100
0000
0000
1000
0000
0000
0010
0000
0000
0000
0000
0000
0100
0000
0000
0001
0000
0000
,
0010
0000
0100
1000
0001
0000
1000
0001
,
0101
0100
1010
1000
,
0022
0033
1000
0022
0033
1000
0001
0000
,
1000
0001
1000
0100
0010
0001
1000
0001
0100
0010
1000
0010
0100
0001
0010
0100
,
1000
0001
1000
0010
0100
0010
1000
0001
0100
0001
0010
0100
1000
0010
1000
0001
,
0100
0001
1000
0001
0100
0010
1000
0001
1000
0100
0010
0001
1000
0001
0100
0010
,
0100
0001
1000
0100
0010
0100
1000
0001
1000
0100
0010
0001
0100
0001
1000
0010
,
0100
0010
1000
0001
0010
0001
1000
0010
1000
0001
0100
0001
0010
0100
1000
0001
,
1000
0010
0100
0001
0100
0010
1000
0001
1000
0100
0010
0001
0100
0001
1000
0010
,
0100
0010
1000
0001
1000
0100
0010
0001
1000
0001
0100
0010
0100
0001
0010
0100
,
1000
0000
1000
0000
0010
0000
0010
0000
0100
0000
0100
0001
0000
1000
0000
1000
,
0001
0100
0001
1000
0100
0010
0001
1000
0001
0100
0001
1000
0010
1000
0001
0010
,
0100
0010
0001
1000
0001
0100
0010
1000
0010
0100
0001
1000
0100
0010
0001
1000
,
0010
1000
0100
0010
0001
1000
0001
0100
0010
0100
0001
0100
0001
1000
0100
0010
,
0001
1000
0100
1000
0010
0100
0010
1000
0001
1000
0100
0010
0001
0100
0001
1000
,
0010
0000
0100
0000
0010
0000
1000
0100
0010
0000
0100
0000
1000
0000
0001
0100
,
0010
0000
0100
0000
0001
0000
0010
0100
1000
0000
0001
0000
1000
0000
0001
0100
,
0001
0000
0100
0000
0001
0000
0010
0100
1000
0000
0010
0000
0100
0000
0001
1000
,
0010
0100
0001
1000
0002
0103
0002
0013
,
0100
0000
1000
0000
0010
0000
0100
0000
0010
0000
1000
0001
1000
0000
0100
0010
,
0001
0000
1000
0000
0010
0000
0100
0000
0001
0000
0010
0100
1000
0000
0010
0100
,
0001
1000
0100
0000
0010
0000
0001
0000
1000
0000
0010
0100
0001
0000
1000
0100
,
0010
0000
0100
0000
1000
0000
0001
0000
0100
0000
0001
0010
0100
0000
1000
0001
,
1000
0000
0010
0000
0100
0000
0001
0000
0010
0000
0100
0000
1000
0000
0010
0100
,
0001
0000
1000
0000
0100
0000
0010
0000
0100
0000
1000
0010
0100
0000
0001
1000
,
0100
0000
0010
0000
0001
0000
1000
0000
0010
0000
0100
0001
0100
0000
0001
0010
,
0100
0000
1000
0000
0010
0000
0100
0000
0001
0000
1000
0100
1000
0000
0001
0000
,
0101
0000
0001
0000
0010
0000
0010
0000
0100
0000
0100
0000
1000
0000
0001
0100
,
0010
0000
0010
0000
1000
0000
1000
0000
0010
0000
0100
0001
0000
0010
0000
0010
,
0100
0000
1000
0010
0100
0000
0001
1000
0010
0000
0100
0001
0100
0000
0001
0010
,
0100
0000
1000
0100
0010
0000
0001
0000
2000
0000
3100
0000
2000
0000
3010
0000
,
0100
0001
0100
0010
1000
0001
0010
0100
0010
0001
1000
0001
1000
0100
0010
0001
,
1000
0001
0100
0001
1000
0010
1000
0001
1000
0100
0010
0001
1000
0001
0100
0010
,
1000
0010
0100
0001
1000
0100
1000
0001
1000
0001
0010
0100
0010
0100
1000
0001
,
1000
0010
0100
0001
0100
0010
1000
0001
1000
0100
0010
0100
1000
0001
1000
0100
,
0010
0001
1000
0001
0100
0010
0100
0001
1000
0100
1000
0001
1000
0100
0010
0001
,
1000
0001
0100
0010
0100
0001
1000
0001
0010
0100
0010
0100
1000
0001
1000
0010
,
1000
0001
0100
0010
0100
0001
1000
0001
0010
0100
0010
0100
1000
0001
1000
0010
,
0100
0001
1000
0001
0010
0100
1000
0001
1000
0001
1000
0010
0100
0000
0020
0030
,
1000
0001
1000
0100
0010
0001
1000
0010
1000
0100
0010
0001
1000
0001
0100
0001
,
0100
0010
1000
0010
0100
0001
1000
0100
0010
0100
1000
0010
0100
0001
0100
0010
,
1000
0001
1000
0100
0010
0001
1000
0010
1000
0100
0010
0001
0100
0001
1000
0010
,
1000
0001
1000
0010
0100
0001
0100
0001
1000
0100
0010
0001
0100
0001
1000
0010
,
0100
0001
0010
0001
0100
0010
1000
0001
1000
0100
0010
0001
0100
0001
1000
0010
,
1000
0100
0010
0001
1000
0001
0100
0010
0100
0001
1000
0100
0010
0100
1000
0010
,
0100
0010
1000
0001
1000
0100
0010
0001
0100
0001
1000
0010
1000
0001
0100
0001
,
0010
0100
0010
0001
1000
0010
0100
0010
1000
0100
0010
0001
1000
0001
0100
0010
,
1000
0000
0001
0000
0100
0000
0001
0000
1000
0100
1000
0001
0000
0100
0010
0000
,
0100
0000
0001
0000
0010
0000
0100
0000
1000
0001
1000
0010
0000
0100
0001
0000
,
0010
0000
0000
0000
0100
0000
1000
0000
0000
0000
0000
0000
0001
0000
0000
0000
0000
0000
1000
0000
0000
0000
0000
0000
0010
0000
0000
0100
0000
0000
0001
0000
0000
1000
0000
0000
0000
0000
0000
0001
0000
0000
0100
0000
0000
0000
0000
0000
,
0001
0000
0001
0000
0010
0000
0010
0000
0100
0000
1000
0001
0000
0100
0000
0100
,
0001
1000
0001
0100
0010
0100
0001
1000
0010
1000
0100
0010
0001
1000
0001
0100
,
0001
0010
0100
1000
0001
1000
0010
0100
0001
0100
0001
1000
0100
0010
0100
0010
,
0001
0100
0001
1000
0010
1000
0100
0010
0001
1000
0001
1000
0010
0100
0001
0010
,
0100
1000
0010
1000
0001
0100
0001
1000
0010
0100
0010
1000
0001
1000
0100
0010
,
0001
0100
0001
1000
0010
1000
0010
0100
0001
1000
0001
0010
0100
1000
0001
1000
,
0100
1000
0001
0100
0010
0100
0001
0010
0100
0010
0001
1000
0001
0100
0010
1000
,
0100
0010
0001
1000
0001
0100
0010
0100
0001
1000
0001
0100
0001
0010
0100
1000
,
0001
1000
0010
0100
0010
1000
0001
1000
0010
1000
0001
0100
0002
0000
0003
0000
,
1000
0001
1000
0100
1000
0001
0100
0001
1000
0001
0010
0100
1000
0001
1000
0010
,
0100
0001
0100
0001
1000
0001
1000
0100
0010
0001
1000
0001
0100
0010
0100
0001
,
1000
0100
1000
0001
0010
0100
0010
0001
1000
0001
0100
0010
1000
0010
0100
0001
,
1000
0000
0001
0000
0100
0000
0001
0010
0100
0000
1000
0000
0001
0000
0001
0000
,
1000
0010
1000
0100
0010
0001
1000
0001
0010
0100
0010
0001
1000
0001
1000
0010
,
1000
0100
0010
0001
1000
0001
0100
0001
1000
0100
0010
0100
1000
0001
0100
0001
,
0010
0100
1000
0001
1000
0010
0100
0010
1000
0001
0010
0100
0010
0100
1000
0001
,
0100
0001
1000
0010
0100
0010
1000
0001
1000
0100
0010
0001
0100
0001
1000
0010
,
1000
0010
0100
0001
1000
0001
0010
0100
1000
0001
1000
0100
1000
0001
0100
0001
,
1000
0100
0010
0100
1000
0001
1000
0010
0100
0001
1000
0001
0010
0001
0010
0100
,
1000
0001
1000
0010
0100
0010
1000
0001
0010
0001
0010
0100
1000
0001
1000
0010
,
0100
0001
1000
0001
0010
0100
1000
0001
0100
0001
1000
0010
1000
0100
0010
0001
,
0100
0001
1000
0010
1000
0001
0010
0100
1000
0010
1000
0001
0100
0001
1000
0001
,
1000
0010
0100
0001
1000
0001
0010
0100
1000
0001
0100
0001
0010
0100
1000
0001
,
1000
0010
0100
0010
1000
0001
1000
0100
0010
0001
0100
0001
0010
0100
1000
0010
,
1000
0001
0100
0001
0100
0010
1000
0010
0100
0001
1000
0100
0010
0100
1000
0010
,
1000
0001
0100
0001
0100
0010
0100
0001
1000
0010
1000
0100
0010
0001
1000
0001
,
0100
0010
1000
0001
1000
0100
0010
0001
1000
0010
1000
0100
0010
0100
1000
0001
,
1000
0010
1000
0001
0010
0001
1000
0010
1000
0100
0010
0001
1000
0001
0100
0010
,
0100
0001
1000
0100
1000
0001
0100
0001
0010
0100
1000
0010
1000
0100
0010
0001
,
1000
0000
0001
0100
0010
0000
1000
0100
0010
0000
0001
1000
0001
0100
0010
1000
,
0001
0000
1000
0100
0010
0000
0001
0100
0010
0000
1000
0001
1000
0100
0010
0001
,
1000
0000
0001
0100
0010
0000
1000
0010
0100
0000
0001
0010
0100
0000
1000
0000
,
0001
0000
0001
0000
1000
0000
1000
0000
0001
0000
1000
0010
0000
0100
0000
0100
,
0001
1000
0010
0000
1000
0001
0100
0001
0010
0100
1000
0001
0100
0001
1000
0001
,
0100
0010
1000
0100
0010
0000
0001
0000
4000
0000
0000
3000
0001
0100
0001
1000
,
0010
1000
0100
0010
0001
1000
0010
0100
0010
1000
0001
0100
0001
0000
0010
0100
,
1000
0000
0000
0010
0000
0000
0100
0000
0000
0010
0000
0000
1000
0000
0000
0001
0000
0000
0100
0000
0000
0001
0000
0000
0020
0000
0000
0000
0000
0000
0000
0000
0000
0000
0000
0000
0130
0000
0000
0000
1000
0000
0000
0000
0000
0000
0000
0000
,
0001
1000
0001
0010
0100
1000
0001
1000
0010
0100
0001
0010
0001
1000
0010
0100
,
0010
1000
0100
0010
0001
1000
0001
0100
0010
0000
0010
0000
2000
0000
0000
3000
,
0001
0000
0000
0000
0100
0000
0010
0000
0000
0000
0000
0000
1000
0000
0000
0000
0000
0000
0100
0000
0000
0000
0000
0000
1000
0000
0000
0100
0000
0000
0010
0000
0000
0100
0000
0000
0000
0000
0000
1000
0000
0000
0001
0000
0000
0000
0000
0000
,
0100
0000
0000
0010
0000
0000
1000
0000
0000
0001
0000
0000
2000
0000
0000
0000
3001
0000
0100
0000
0000
0000
0000
0000
,
0001
0100
0001
0010
0100
1000
0001
1000
0010
0100
0010
1000
0100
0010
0001
1000
,
0001
0100
0001
1000
0100
1000
0001
0100
0010
1000
0010
0100
0001
1000
0001
0010
,
0100
1000
0001
0100
0001
0010
0001
1000
0100
0010
0100
1000
0010
0100
0010
1000
,
0001
0100
0001
0010
0100
1000
0001
1000
0010
0100
0010
1000
0004
0000
0000
0003
,
1000
0000
0010
0000
0400
0000
0000
0300
0001
0000
1000
0000
0004
0000
0000
0003
,
0010
0100
1000
0001
1000
0010
0100
0001
,
0000
0000
0000
0000
,
0000
0000
0000
0000
0000
0000
0000
0000
0100
0001
1000
0001
0010
0000
0100
0000
,
1000
0010
1000
0100
0010
0001
1000
0010
1000
0100
0010
0100
1000
0001
0100
0001
,
0010
0001
1000
0010
0100
0010
1000
0100
0010
0001
1000
0001
1000
0010
0100
0001
,
0010
0100
0010
0100
1000
0001
0100
0001
0010
0001
1000
0010
0100
0010
1000
0100
,
1000
0001
0100
0001
0010
0100
1000
0010
1000
0100
0010
0001
0100
0001
0010
0001
,
0100
0010
1000
0010
0100
0001
0010
0100
0010
0001
1000
0010
1000
0100
0010
0001
,
1000
0001
0100
0010
1000
0100
1000
0001
0010
0001
0100
0010
1000
0001
0100
0001
,
0010
0100
1000
0001
1000
0010
0100
0010
1000
0001
0010
0100
0010
0001
1000
0010
,
0200
0300
0002
0003
0020
0030
0200
0300
2000
3000
0020
0030
2000
3000
0002
0003
,
1000
0010
1000
0100
0010
0001
1000
0001
0100
0001
0010
0100
1000
0010
1000
0001
,
0100
0001
0010
0100
1000
0010
1000
0001
0100
0001
0010
0100
1000
0010
1000
0100
,
0010
0001
0100
0001
1000
0010
0100
0010
1000
0001
0100
0001
0010
0100
1000
0010
,
1000
0001
0100
0001
0010
0100
1000
0010
1000
0001
0100
0001
0010
0100
1000
0010
,
0100
0001
0010
0001
1000
0100
0010
0001
1000
0010
1000
0100
0010
0001
0100
0001
,
1000
0010
1000
0100
0010
0001
0100
0001
1000
0010
1000
0100
0010
0001
0100
0001
,
0010
0100
1000
0010
1000
0001
0100
0001
1000
0010
1000
0100
0010
0001
0100
0001
,
1000
0000
0001
0100
0001
1000
0010
0100
0001
0000
0010
0100
2000
0000
0000
0000
,
3001
0100
0001
0010
0100
1000
0001
0100
0001
1000
0010
1000
0100
0010
0001
0100
,
0001
0010
0100
0010
0100
1000
0001
0100
0001
1000
0010
1000
0100
0010
0001
0100
,
0001
0010
0100
1000
0001
1000
0010
1000
0001
0100
0001
0010
0100
1000
0010
1000
,
0100
0010
0100
0010
0001
1000
0010
0100
0001
1000
0010
1000
0100
0010
0001
0100
,
0001
0010
0100
1000
0001
1000
0010
1000
0001
0100
0001
0010
0100
1000
0010
1000
,
0100
0010
0001
0100
0001
0010
0100
1000
0010
0100
0010
1000
0001
1000
0100
0010
,
0001
0100
0001
1000
0010
0100
0010
1000
0001
0100
0001
0010
0100
1000
0010
1000
,
0002
0000
0000
0003
2200
0000
0000
3300
0001
0000
0001
0000
0000
0000
1000
0000
,
0001
0100
0001
0010
0100
0010
0001
1000
0010
0100
0010
1000
0001
1000
0010
0100
,
0001
0010
0001
1000
0100
1000
0010
1000
0010
0100
0001
1000
0001
0010
0100
1000
,
0010
1000
0001
0100
0010
1000
0010
0100
0001
0010
0001
1000
0010
1000
0001
0100
,
0010
1000
0100
1000
0001
0010
0100
1000
0010
1000
0010
0100
0001
0010
0100
1000
,
0010
1000
0100
0010
0001
0100
0001
1000
0010
1000
0001
1000
0100
0010
0100
1000
,
0010
0100
0001
0100
0001
1000
0100
1000
0010
1000
0001
0100
0010
1000
0001
0100
,
0001
0010
0100
1000
0010
1000
0001
0100
0001
0100
0010
1000
0001
1000
0100
0010
,
0001
0100
0001
1000
0100
0010
0001
1000
0010
0000
0100
0001
0100
0000
0001
0010
,
0100
1000
0010
1000
0001
0100
0001
1000
0100
1000
0001
0010
0001
0100
0010
0100
,
0001
0010
0100
0010
0001
1000
0010
1000
0001
0010
0001
1000
0001
1000
0010
0100
,
0010
1000
0100
1000
0001
0100
0001
1000
0100
0010
0001
0100
0001
0010
0100
1000
,
0010
0100
0001
0010
0001
1000
0010
1000
0001
0100
0001
0100
0020
0000
0000
0030
,
1000
0001
1000
0100
0010
0001
0100
0001
1000
0100
1000
0010
0100
0010
1000
0001
,
1000
0100
0010
0001
1000
0001
0100
0010
1000
0100
1000
0001
0100
0001
1000
0001
,
0010
0100
0000
1000
0001
1000
0010
0100
0001
0000
1000
0010
0100
0000
0100
0000
,
0002
0000
2003
0000
3002
0000
0023
0000
0230
0000
2300
0000
3000
0002
0000
0000
,
1003
0100
0010
0001
,
1000
0010
0100
0001
,
1000
0100
0010
0001
,
1000
0100
1000
0010
,
0100
0010
1000
0001
,
0010
0100
1000
0001
,
0101
0000
0000
0000
0100
0000
0000
0000
1010
0000
0010
0000
1000
0001
0100
0000
,
0001
1000
0100
0000
0000
0000
0000
0000
0000
0000
0000
0000
0000
0000
0000
0000
,
1000
0100
1000
0001
1000
0001
0100
0010
0100
0001
1000
0100
0010
0001
0100
0001
,
1000
0010
1000
0001
0010
0001
1000
0100
1000
0001
0100
0001
0010
0100
1000
0001
,
1000
0010
0100
0010
1000
0100
1000
0001
0010
0001
0100
0001
1000
0010
0100
0010
,
1000
0001
1000
0100
0010
0001
0100
0001
1000
0010
0100
0010
1000
0001
0100
0010
,
0100
0001
1000
0100
0010
0001
1000
0001
0100
0001
1000
0100
0010
0100
1000
0001
,
1000
0010
0100
0010
1000
0100
1000
0001
0010
0100
0010
0001
1000
0001
0100
0010
,
1000
0010
0100
0001
1000
0100
0010
0100
1000
0010
0100
0001
1000
0100
0010
0001
,
0100
0001
0010
0100
,
1000
0010
1000
0001
1000
0100
0010
0001
1000
0001
0100
0001
0100
0010
1000
0001
,
1000
0100
1000
0100
0010
0001
1000
0010
0100
0010
1000
0001
0100
0001
1000
0100
,
0010
0100
1000
0001
0100
0001
0100
0010
1000
0001
1000
0100
0010
0001
1000
0001
,
0100
0001
0100
0010
1000
0001
1000
0100
1000
0001
0100
0001
1000
0010
1000
0100
,
0010
0001
1000
0001
0100
0010
0100
0001
1000
0001
0100
0010
0100
0001
1000
0100
,
1000
0010
0100
0010
1000
0001
1000
0001
0010
0001
0100
0010
1000
0010
0100
0001
,
1000
0100
0010
0001
1000
0001
0100
0010
1000
0001
0010
0100
1000
0100
1000
0001
,
1000
0001
0100
0001
0100
0010
1000
0001
0100
0001
1000
0010
0100
0010
1000
0001
,
0010
0001
1000
0100
0010
0001
1000
0001
0100
0010
1000
0001
1000
0100
0010
0001
,
0100
0001
1000
0001
0100
0010
1000
0001
0100
0001
1000
0100
0010
0100
1000
0010
,
1000
0001
0100
0001
0100
0001
1000
0010
1000
0001
1000
0100
0010
0001
0100
0001
,
1000
0010
0100
0010
1000
0001
0100
0001
1000
0100
0010
0001
1000
0010
1000
0100
,
0010
0001
1000
0001
0100
0010
0100
0001
1000
0100
0010
0001
1000
0010
1000
0100
,
0010
0001
1000
0010
0100
0010
1000
0001
1000
0100
0010
0100
1000
0010
1000
0001
,
0100
0001
1000
0001
0010
0100
1000
0001
0100
0001
1000
0100
0010
0001
0100
0001
,
1000
0100
1000
0001
1000
0010
0100
0001
0100
0001
1000
0001
0010
0100
1000
0001
,
0100
0000
0000
0000
,
0000
0000
0000
0000
,
0000
0000
0000
0000
,
0000
0000
0000
000M
;
