#TITLE:Grief & Malice;
#SUBTITLE:;
#ARTIST:Helblinde;
#TITLETRANSLIT:;
#SUBTITLETRANSLIT:;
#ARTISTTRANSLIT:;
#CREDIT:;
#BANNER:../banner.png;
#BACKGROUND:../bg.png;
#LYRICSPATH:;
#CDTITLE:;
#MUSIC:Grief & Malice.ogg;
#OFFSET:-0.093;
#SAMPLESTART:52.880;
#SAMPLELENGTH:21.580;
#SELECTABLE:YES;
#BPMS:0.000=199.999;
#STOPS:;
#BGCHANGES:;
// cache tags:
#FIRSTBEAT:0.000;
#LASTBEAT:489.000;
#SONGFILENAME:Songs/Cirque du Lykan/Grief & Malice - [Zaia]/Grief & Malice.sm;
#HASMUSIC:1;
#HASBANNER:1;
#MUSICLENGTH:147.095;
// end cache tags

//---------------dance-single - Zaia - 15(high)----------------
#NOTES:
     dance-single:
     Zaia - 15(high):
     Challenge:
     15:
     1.000,1.000,0.143,0.082,1.000,1454.000,21.000,12.000,0.000,3.000:
1000
0010
0100
0000
0001
0010
0100
0000
,
1000
0001
0100
0000
0000
0000
0000
0000
,
0000
0000
0000
0000
0000
0000
0000
0000
0000
0001
0100
0010
,
1000
0100
0010
0000
0001
0100
0010
0000
,
1000
0001
0010
0000
0000
0000
0000
0000
,
0000
0000
0000
0000
,
0001
0000
0100
0010
0000
1000
0001
0000
0010
0100
0000
1000
,
0001
0000
1000
0010
0000
1000
0001
0000
0100
0001
0000
0010
,
0001
0000
1000
0100
0000
1000
0010
0000
1000
0001
0000
1000
,
0100
0000
0010
0001
0000
0001
1000
0000
0010
1000
0000
1000
,
0100
0000
1000
0010
0000
0100
0001
0000
1000
0001
0000
0100
,
0001
0000
1000
0100
0000
0010
0100
0000
1000
0001
0000
0100
,
0010
0000
0100
0001
0000
0010
0100
0000
1000
0010
0000
0100
,
0001
0000
1000
0001
0000
1000
0100
1000
0010
1000
0001
0010
,
0100
1000
0010
0100
0001
1000
0001
1000
0010
1000
0001
0010
0100
1000
0100
1000
,
0001
0100
0010
0100
0001
1000
0100
1000
0001
0010
0001
1000
0001
0100
0010
1000
,
0001
0010
0100
1000
0001
0100
0001
0100
0010
1000
0001
1000
0100
0010
0100
0010
,
0001
0100
0010
1000
0001
1000
0100
0010
0100
1000
0001
1000
0010
0100
0001
1000
,
0001
1000
0100
0010
0001
1000
0001
1000
0100
1000
0001
0100
0010
1000
0010
1000
,
0001
0010
0100
0010
0001
1000
0010
1000
0001
0100
0001
1000
0001
0010
0100
1000
,
0001
0100
0001
0100
0010
0000
1010
0000
,
1000
0001
0010
0001
0010
0100
1000
0000
,
2001
0000
3010
0000
0100
0001
0001
1000
,
0200
0000
0310
0100
1000
0001
0100
0100
,
0020
0000
1030
0000
0001
0010
0200
0000
,
1300
0000
0010
0000
0100
0001
0010
0010
,
0200
0000
1300
0000
0001
0100
0100
0010
,
2000
0000
3001
0010
0100
1000
0001
0001
,
0200
0000
0000
0000
0320
0000
0000
0000
1030
0001
1000
0000
0010
0000
0100
0000
,
0001
0001
0020
0000
0130
0100
2000
0000
,
3001
0100
0010
0100
0001
1000
0001
0010
0100
1000
0001
1000
0010
0100
0001
1000
,
0100
1000
0001
1000
0001
0010
0001
0010
0100
0010
0001
0100
0010
1000
0001
0100
,
0001
1000
0100
0010
0100
1000
0001
1000
0010
0100
0001
1000
0001
0010
0100
1000
,
0001
0100
0001
1000
0001
1000
0010
1000
0010
0100
0010
1000
0100
0010
0001
1000
,
0100
1000
0001
0100
0010
1000
0001
1000
0100
0010
0001
1000
0010
0100
0001
1000
,
0100
0010
0001
0010
0100
1000
0010
0100
0001
1000
0100
0010
0100
1000
0001
1000
,
0010
0100
0001
0100
0010
1000
0100
1000
0001
1000
0010
0100
0001
0010
0100
1000
,
0001
0010
0100
0010
0001
1000
0010
1000
0001
0100
0001
0010
0100
1000
0001
1000
,
0010
0100
0001
1000
0001
1000
0010
0100
0001
0010
0100
0010
0001
1000
0010
1000
,
0001
0010
0001
1000
0100
0010
0100
1000
0001
1000
0001
0100
0001
1000
0010
0100
,
0001
0010
0100
1000
0001
1000
0001
0100
0010
0100
0001
1000
0100
1000
0001
0100
,
0010
1000
0001
1000
0100
1000
0001
0100
0010
0100
0001
1000
0001
0010
0100
1000
,
0001
1000
0010
0100
0001
1000
0100
1000
0001
0100
0010
1000
0001
1000
0001
0010
,
0100
1000
0100
0010
0001
1000
0010
0100
0001
1000
0001
0100
0001
1000
0010
1000
,
0100
0010
0001
0010
0100
1000
0010
1000
0001
1000
0100
0010
0001
0100
0010
1000
,
0001
0100
0010
0100
0001
1000
0100
1000
0001
0010
0001
0100
0010
1000
0001
1000
,
0100
0010
0001
1000
0001
1000
0100
0010
0001
0100
0010
0100
0001
1000
0100
1000
,
0001
0100
0001
1000
0010
0100
0010
1000
0001
1000
0001
0010
0001
1000
0100
0010
,
0001
0100
0010
1000
0001
1000
0001
0010
0100
0010
0001
1000
0010
1000
0001
0010
,
0100
1000
0001
1000
0010
1000
0001
0010
0100
0010
0001
1000
0001
0100
0010
1000
,
0100
0010
0001
1000
0001
1000
0010
1000
0001
0010
0100
1000
0001
0100
0010
1000
,
0001
1000
0010
0100
0001
1000
0001
0100
0010
1000
0001
0010
0001
1000
0100
1000
,
0010
0100
0010
1000
0001
1000
0100
0010
0001
0100
0010
1000
0001
0010
0100
1000
,
0010
0100
0001
1000
0001
1000
0100
1000
0001
0100
0010
1000
0001
0010
0100
1000
,
0001
1000
0100
0010
0001
1000
0001
0010
0100
1000
0001
0100
0001
1000
0010
1000
,
0100
0010
0100
1000
0001
1000
0010
0100
0001
0010
0100
1000
0001
0100
0010
1000
,
0100
0010
0001
1000
0001
1000
0010
1000
0001
0010
0100
1000
0001
0100
0010
1000
,
0001
1000
0010
0100
0001
1000
0001
0100
0010
1000
0001
0010
0001
1000
0100
1000
,
0010
0100
0010
1000
0001
1000
0100
0010
0001
0100
0010
1000
0001
0010
0100
1000
,
0010
0100
0001
1000
0001
1000
0100
1000
0001
0100
0010
1000
0001
0010
0100
1000
,
0001
0000
1000
0000
0010
0100
0002
0000
,
0000
0000
0003
0000
,
1001
1001
0000
0000
,
0011
0011
1100
0000
,
0000
0000
0000
0000
,
0001
0010
0001
0100
0001
0010
0100
1000
,
0010
1000
0001
1000
0100
0010
0100
1000
,
0010
0100
0001
0010
0100
1000
0010
0100
,
0001
1000
0010
1000
0100
1000
0001
0100
,
0001
1000
0001
0010
0100
1000
0010
0100
,
0001
1000
0100
1000
0001
0010
0001
0100
,
0110
0010
1000
1111
,
0100
0001
1111
0010
,
0100
0000
1111
0000
1000
0001
0100
0010
,
1010
1000
1001
0001
,
0011
0110
1100
1001
,
0101
0000
0100
0000
0010
0000
1000
0000
0010
0100
0010
0100
0001
0000
0000
0000
,
1000
0100
1000
0001
1000
0010
0100
0001
1000
0001
0010
0001
0100
0010
1000
0001
,
1000
0100
0010
0100
1000
0001
1000
0010
0100
0001
1000
0001
0010
0100
1000
0010
,
1000
0001
1000
0001
0010
0001
1000
0010
0100
0001
0010
0100
1000
0001
1000
0010
,
0100
0001
1000
0100
1000
0001
0010
0001
1000
0010
0100
0001
1000
0001
0010
0100
,
1000
0010
1000
0001
1000
0100
0010
0001
1000
0001
0100
0001
0010
0100
1000
0001
,
1000
0010
0100
0010
1000
0001
1000
0100
0010
0001
1000
0001
0100
0010
1000
0100
,
1000
0001
1000
0001
0100
0001
1000
0100
0010
0001
0100
0010
1000
0001
1000
0100
,
0010
0001
1000
0010
1000
0001
0100
0001
1000
0100
0010
0001
1000
0001
0100
0010
,
1000
0001
1000
0001
0100
0010
1000
0001
,
0010
0100
0010
0100
1000
0001
0100
0010
,
1000
0100
0010
0001
1000
0001
1000
0010
1000
0001
0100
0010
1000
0001
0010
0001
,
1000
0010
1000
0100
0010
0001
0100
0001
0010
0001
1000
0100
1000
0010
0100
0001
,
0010
0100
1000
0010
0100
0100
0001
1000
,
0100
0010
0001
0100
0010
0010
1000
0001
,
0010
0100
1000
0010
0100
0100
0001
1000
,
0100
0010
0001
1000
0010
0010
0200
0000
,
0301
1000
0001
0100
0010
1000
0001
1000
0100
0010
0001
1000
0001
0010
0001
1000
,
0010
1000
0001
1000
0100
0010
0100
1000
0001
1000
0010
0100
0001
0010
0001
1000
,
0001
1000
0010
0100
0001
1000
0001
0010
0100
1000
0001
0100
0010
1000
0001
0010
,
0001
1000
0001
0010
0100
1000
0001
1000
0010
0100
0001
1000
0100
1000
0010
0100
,
0001
1000
0001
0010
0001
1000
0010
0100
0001
1000
0001
0010
0100
1000
0001
0100
,
0010
0100
0001
1000
0001
0010
0100
1000
0001
1000
0010
0100
0001
1000
0001
0010
,
0100
0010
0001
1000
0001
0100
0010
0100
0001
1000
0100
1000
0001
0100
0001
1000
,
0010
0100
0001
1000
0001
0010
0100
0010
0001
1000
0010
0100
0001
1000
0001
0010
,
0100
1000
0001
0010
0001
1000
0010
1000
0001
1000
0100
0010
0001
1000
0001
0100
,
0010
0100
0001
1000
0001
0010
0100
0010
0001
1000
0010
1000
0001
0010
0001
1000
,
0100
0010
0001
1000
0001
0100
0010
0100
0001
1000
0100
0010
0001
1000
0001
0100
,
0010
1000
0001
0100
0001
1000
0100
1000
0001
1000
0100
0010
0001
0100
0010
1000
,
0010
0100
0001
1000
0001
0010
0100
1000
0001
1000
0010
1000
0001
0100
0001
1000
,
0100
0010
0001
1000
0001
0100
0010
0100
0001
1000
0100
1000
0001
0100
0010
1000
,
0001
1000
0001
0100
0001
1000
0100
1000
0001
0010
0100
1000
0001
1000
0010
1000
,
0001
0100
0010
0100
0001
1000
0100
1000
0001
0100
0010
1000
0001
1000
0100
0010
,
0100
1000
0001
1000
0010
0100
0010
1000
0001
0010
0001
0100
0001
1000
0001
0010
,
0100
1000
0001
1000
0001
0000
0000
0100
,
0001
1000
0001
0100
0001
1000
0010
0100
0001
0010
0100
0010
0001
1000
0010
1000
,
0001
0010
0001
1000
0100
0010
0100
1000
0001
1000
0001
0100
0001
1000
0010
0100
,
0001
0010
0100
1000
0001
1000
0001
0100
0010
0100
0001
1000
0100
1000
0001
0100
,
0010
1000
0001
1000
0100
1000
0001
0100
0010
0100
0001
1000
0001
0010
0100
1000
,
0001
1000
0010
0100
0001
1000
0100
1000
0001
0100
0010
1000
0001
1000
0001
0010
,
0100
1000
0100
0010
0001
1000
0010
0100
0001
1000
0001
0100
0001
1000
0010
1000
,
0100
0010
0001
0010
0100
1000
0010
1000
0001
1000
0100
0010
0001
0100
0010
1000
,
0001
0100
0010
0100
0001
1000
0100
1000
0001
0010
0001
0100
0010
1000
0001
1000
,
0100
0010
0001
1000
0001
1000
0100
0010
0001
0100
0010
0100
0001
1000
0100
1000
,
0001
0010
0010
1100
,
1000
1000
0101
0001
,
0001
0110
0000
0000
;

//---------------dance-single - Zaia - 13(low-mid)----------------
#NOTES:
     dance-single:
     Zaia - 13(low-mid):
     Hard:
     13:
     1.000,1.000,0.238,0.082,0.778,1068.000,35.000,12.000,0.000,3.000:
1000
0010
0100
0000
0001
0010
0100
0000
,
1000
0001
0100
0000
0000
0000
0000
0000
,
0000
0000
0000
0000
0000
0000
0000
0000
0000
0001
0100
0010
,
1000
0100
0010
0000
0001
0100
0010
0000
,
1000
0001
0010
0000
0000
0000
0000
0000
,
0000
0000
0000
0000
,
0001
0000
0100
0010
0000
1000
0001
0000
0010
0100
0000
1000
,
0001
0000
1000
0010
0000
1000
0001
0000
0100
0001
0000
0010
,
0001
0000
1000
0100
0000
1000
0010
0000
1000
0001
0000
1000
,
0100
0000
0010
0001
0000
0001
1000
0000
0010
1000
0000
1000
,
0100
0000
1000
0010
0000
0100
0001
0000
1000
0001
0000
0100
,
0001
0000
1000
0100
0000
0010
0100
0000
1000
0001
0000
0100
,
0010
0000
0100
0001
0000
0010
0100
0000
1000
0010
0000
0100
,
0001
0000
1000
0001
0000
1000
0100
1000
0010
1000
0001
0010
,
0100
0000
1000
0001
0100
0000
0010
0000
1000
0000
0001
0010
0100
0000
1000
0000
,
0001
0000
0100
0010
1000
0000
0001
0000
0010
0000
0100
0010
0001
0000
0100
0000
,
0010
0000
1000
0010
0100
0000
0001
0000
1000
0000
0100
1000
0001
0000
0010
0000
,
0100
0000
0010
0001
1000
0000
0010
0000
0100
0000
0001
0100
0010
0000
1000
0000
,
0001
0000
1000
0001
0010
0000
0100
0000
0010
0000
0001
1000
0010
0000
0100
0000
,
0010
0000
1000
0100
0010
0000
0001
0000
1000
0000
0010
0100
0001
0000
1000
0000
,
0001
0100
0001
0100
0010
0000
1010
0000
,
1000
0001
0010
0001
0010
0100
1000
0000
,
2001
0000
3010
0000
0100
0001
0001
1000
,
0200
0000
0310
0100
1000
0001
0100
0100
,
0020
0000
1030
0000
0001
0010
0200
0000
,
1300
0000
0010
0000
0100
0001
0010
0010
,
0200
0000
1300
0000
0001
0100
0100
0010
,
2000
0000
3001
0010
0100
1000
0001
0001
,
0200
0000
0000
0000
0320
0000
0000
0000
1030
0001
1000
0000
0010
0000
0100
0000
,
0001
0001
0020
0000
0130
0100
2000
0000
,
3001
0100
0010
0100
0001
1000
0100
1000
,
0001
0000
1000
0010
1000
0000
0001
0000
0010
0000
0100
0000
1000
0000
0001
0000
,
0100
0001
1000
0100
1000
0001
0100
0010
,
0100
0000
0001
1000
0001
0000
0100
0000
0010
0000
0100
0000
0001
0000
0010
0000
,
0100
1000
0001
0100
0010
1000
0001
1000
0100
0010
0001
1000
0010
0100
0001
1000
,
0100
0010
0001
0010
0100
1000
0010
0100
0001
1000
0100
0010
0100
1000
0001
1000
,
0010
0100
0001
0100
0010
1000
0100
1000
0001
1000
0010
0100
0001
0010
0100
1000
,
0001
0010
0100
0010
0001
1000
0010
1000
0001
0100
0001
0010
0100
1000
0001
1000
,
0010
0100
0010
0100
0001
0010
0001
0100
,
0001
1000
0100
1000
1001
0001
0100
0010
,
1000
0001
1000
0100
0010
0100
1000
0010
,
0110
0100
0001
1000
0001
0010
0001
1000
,
0010
1000
0100
1000
1100
0100
0010
0001
,
0100
0010
0010
1000
0001
0010
0001
1000
,
1001
0001
0010
0100
1000
0010
1000
0100
,
1000
0001
0100
0001
1001
1000
0100
0010
,
0001
1000
0001
0100
0010
0100
0100
0001
,
0101
0100
0001
1000
0001
0100
0001
1000
,
0100
1000
0010
1000
1010
0010
1000
0100
,
0010
0100
1000
0001
1000
0001
0001
1000
,
1100
0100
0010
0100
1000
0100
1000
0010
,
1000
0001
0010
0001
1001
1000
0010
0100
,
0100
0001
1000
0100
0010
0100
1000
0010
,
0110
0100
0001
1000
0001
0010
0001
1000
,
0010
1000
0100
1000
1001
0001
0100
0010
,
1000
0100
0100
1000
0001
0010
0010
0001
,
1001
1000
0100
0010
0001
0100
0001
0010
,
0001
1000
0010
1000
1100
0100
0010
0001
,
1000
0001
1000
0010
0100
0010
1000
0001
,
0011
0010
0001
1000
0001
0100
0001
1000
,
0100
0000
1000
0000
0010
0100
0002
0000
,
0000
0000
0003
0000
,
1001
1001
0000
0000
,
0011
0011
1100
0000
,
0000
0000
0000
0000
,
0001
0010
0001
0100
0001
0010
0100
1000
,
0010
1000
0001
1000
0100
0010
0100
1000
,
0010
0100
0001
0010
0100
1000
0010
0100
,
0001
1000
0010
1000
0100
1000
0001
0100
,
0001
1000
0001
0010
0100
1000
0010
0100
,
0001
1000
0100
1000
0001
0010
0001
0100
,
0110
0010
1000
1111
,
0100
0001
1111
0010
,
0100
0000
1111
0000
1000
0001
0100
0010
,
1010
1000
1001
0001
,
0011
0110
1100
1001
,
0101
0000
0100
0000
0010
0000
1000
0000
0010
0100
0010
0100
0001
0000
0000
0000
,
1000
0100
1000
0001
1000
0010
0100
0001
1000
0001
0010
0001
0100
0010
1000
0001
,
1000
0100
0010
0100
1000
0001
1000
0010
0100
0001
1000
0001
0010
0100
1000
0010
,
1000
0001
1000
0001
0010
0001
1000
0010
0100
0001
0010
0100
1000
0001
1000
0010
,
0100
0001
1000
0100
1000
0001
0010
0001
,
1000
0010
1000
0001
1000
0100
0010
0001
1000
0001
0100
0001
0010
0100
1000
0001
,
1000
0010
0100
0010
1000
0001
1000
0100
0010
0001
1000
0001
0100
0010
1000
0100
,
1000
0001
1000
0001
0100
0001
1000
0100
0010
0001
0100
0010
1000
0001
1000
0100
,
0010
0001
1000
0010
1000
0001
0100
0001
1000
0100
0010
0001
1000
0001
0100
0010
,
1000
0001
1000
0001
0100
0010
1000
0001
,
0010
0100
0010
0100
1000
0001
0100
0010
,
1000
0100
0010
0001
1000
0001
1000
0010
1000
0001
0100
0010
1000
0001
0010
0001
,
1000
0010
1000
0100
0010
0001
0100
0001
0010
0001
1000
0100
1000
0010
0100
0001
,
0010
0100
1000
0010
0100
0100
0001
1000
,
0100
0010
0001
0100
0010
0010
1000
0001
,
0010
0100
1000
0010
0100
0100
0001
1000
,
0100
0010
0001
1000
0010
0010
0200
0000
,
0301
0100
0010
1000
0100
0010
0001
1000
,
0001
0100
0100
0010
1000
0001
0010
0001
,
1000
0010
1000
0001
0010
0100
1000
0001
,
0100
0010
1000
0001
0001
0010
0100
0010
,
0001
1000
0010
0100
0001
1000
0100
1000
,
0001
0100
0001
1000
0001
0010
0010
0100
,
0100
1000
0001
0010
0100
0010
0001
0100
,
0010
1000
0001
1000
0100
1000
0010
0100
,
0001
0010
0100
0010
0001
1000
0010
0100
,
0010
1000
0100
0010
0001
0100
0001
0010
,
0100
1000
0010
0100
0001
1000
0100
1000
,
0001
0100
0010
1000
0001
0010
0100
0010
,
0001
1000
0010
0100
0001
1000
0100
1000
,
0010
1000
0001
0100
0001
0010
0001
1000
,
0100
0010
0001
1000
0010
0100
0001
1000
,
0010
1000
0001
0010
0001
1000
0100
0010
,
0100
1000
0100
1000
0001
1000
0001
0100
,
0010
1000
0001
1000
0001
0000
0000
0100
,
0001
1000
0001
0100
0001
1000
0010
0100
0001
0010
0100
0010
0001
1000
0010
1000
,
0001
0010
0001
1000
0100
0010
0100
1000
0001
1000
0001
0100
0001
1000
0010
0100
,
0001
0010
0100
1000
0001
1000
0001
0100
0010
0100
0001
1000
0100
1000
0001
0100
,
0010
1000
0001
1000
0100
1000
0001
0100
0010
0100
0001
1000
0001
0010
0100
1000
,
0001
1000
0010
0100
0001
1000
0100
1000
0001
0100
0010
1000
0001
1000
0001
0010
,
0100
1000
0100
0010
0001
1000
0010
0100
0001
1000
0001
0100
0001
1000
0010
1000
,
0100
0010
0001
0010
0100
1000
0010
1000
0001
1000
0100
0010
0001
0100
0010
1000
,
0001
0100
0010
0100
0001
1000
0100
1000
0001
0010
0001
0100
0010
1000
0001
1000
,
0100
0010
0001
1000
0001
1000
0100
0010
0001
0100
0010
0100
0001
1000
0100
1000
,
0001
0010
0010
1100
,
1000
1000
0101
0001
,
0001
0110
0000
0000
;

//---------------dance-single - Zaia - 10(low)----------------
#NOTES:
     dance-single:
     Zaia - 10(low):
     Medium:
     10:
     0.902,0.790,0.476,0.082,0.122,841.000,70.000,12.000,0.000,3.000:
1000
0010
0100
0000
0001
0010
0100
0000
,
1000
0001
0100
0000
0000
0000
0000
0000
,
0000
0000
0000
0000
0000
0000
0000
0000
0000
0001
0100
0010
,
1000
0100
0010
0000
0001
0100
0010
0000
,
1000
0001
0010
0000
0000
0000
0000
0000
,
0000
0000
0000
0000
,
0001
0000
0100
0010
0000
1000
0001
0000
0010
0100
0000
1000
,
0001
0000
1000
0010
0000
1000
0001
0000
0100
0001
0000
0010
,
0001
0000
1000
0100
0000
1000
0010
0000
1000
0001
0000
1000
,
0100
0000
0010
0001
0000
0001
1000
0000
0010
1000
0000
1000
,
0100
0000
1000
0010
0000
0100
0001
0000
1000
0001
0000
0100
,
0001
0000
1000
0100
0000
0010
0100
0000
1000
0001
0000
0100
,
0010
0000
0100
0001
0000
0010
0100
0000
1000
0010
0000
0100
,
0001
0000
1000
0001
0000
1000
0100
1000
0010
1000
0001
0010
,
0100
1000
0010
1000
0100
0010
0001
0100
,
0001
1000
0100
1000
0010
1000
0001
0100
,
0001
0010
0001
1000
0100
0010
0001
1000
,
0010
0100
0001
0010
0001
1000
0010
1000
,
0001
0010
0100
1000
0001
1000
0010
0100
,
0010
1000
0100
0010
0001
0100
0010
1000
,
0001
0100
0001
0100
0010
0000
1010
0000
,
1000
0001
0010
0001
0010
0100
1000
0000
,
2001
0000
3010
0000
0100
0001
0001
1000
,
0200
0000
0310
0100
1000
0001
0100
0100
,
0020
0000
1030
0000
0001
0010
0200
0000
,
1300
0000
0010
0000
0100
0001
0010
0010
,
0200
0000
1300
0000
0001
0100
0100
0010
,
2000
0000
3001
0010
0100
1000
0001
0001
,
0200
0000
0320
0000
1030
0001
0010
0100
,
1000
1000
0020
0000
0130
0100
0002
0000
,
1003
0100
0010
0100
1000
0001
0100
0001
,
1000
0001
1000
0001
0010
0100
1000
0001
,
0100
0001
1000
0100
1000
0001
0100
0010
,
0100
0001
1000
0100
0010
0100
1000
0100
,
0010
0001
1000
0001
0010
0100
1000
0001
,
0100
0010
1000
0010
0100
0001
0010
0100
,
1000
0010
0100
0001
1000
0100
0010
0100
,
1000
0001
0100
0010
0100
0001
1000
0001
,
0100
0010
0100
0010
1000
0100
1000
0010
,
1000
0001
0010
0001
1001
1000
0010
0100
,
0001
1000
0001
0010
0100
0010
0001
0100
,
0110
0010
1000
0001
1000
0100
1000
0001
,
0100
0001
0010
0001
0011
0010
0100
1000
,
0010
0100
0100
0001
1000
0100
1000
0001
,
1001
1000
0100
0010
0001
0100
0001
0010
,
0001
1000
0010
1000
1001
0001
0010
0100
,
1000
0001
1000
0010
0100
0010
0010
1000
,
1010
0010
1000
0001
1000
0010
1000
0001
,
0010
0001
0100
0001
0101
0100
0001
0010
,
0100
0010
0001
1000
0001
1000
1000
0001
,
0011
0010
0100
0010
0001
0010
0001
0100
,
0001
1000
0100
1000
1001
0001
0100
0010
,
0010
1000
0001
0010
0100
0010
0001
0100
,
0110
0010
1000
0001
1000
0100
1000
0001
,
0100
0001
0010
0001
1001
1000
0010
0100
,
0001
0010
0010
0001
1000
0100
0100
1000
,
1001
0001
0010
0100
1000
0010
1000
0100
,
1000
0001
0100
0001
0011
0010
0100
1000
,
0001
1000
0001
0100
0010
0100
0001
1000
,
1100
0100
1000
0001
1000
0010
1000
0001
,
0010
0000
0001
0000
0100
0010
2000
0000
,
0000
0000
3000
0000
,
1001
1001
0000
0000
,
1100
1100
0011
0000
,
0000
0000
0000
0000
,
1000
0100
1000
0010
1000
0100
0010
0001
,
0100
0001
1000
0001
0010
0100
0010
0001
,
0100
0010
1000
0100
0010
0001
0100
0010
,
1000
0001
0100
0001
0010
0001
1000
0010
,
1000
0001
1000
0100
0010
0001
0100
0010
,
1000
0001
0010
0001
1000
0100
1000
0010
,
0110
0100
0001
1111
,
0010
1000
1111
0100
,
0010
0000
1111
0000
0001
1000
0010
0100
,
0101
0001
1001
1000
,
1100
0110
0011
1001
,
1010
0010
0100
0001
0100
0010
1000
0000
,
0001
0010
0100
1000
0100
0010
0001
0100
,
0010
1000
0100
0010
0001
0100
0010
1000
,
0010
0100
0001
0010
0100
1000
0010
0100
,
0001
0010
0100
1000
0100
0010
0001
0100
,
0010
1000
0010
0100
0001
0010
0100
1000
,
0010
0100
0001
0010
0100
1000
0100
0010
,
0001
0100
0010
1000
0100
0010
0001
0100
,
0010
1000
0010
0100
0001
0010
0100
0010
,
0001
1000
0001
1000
0010
0100
0001
1000
,
0100
0010
0100
0010
0001
1000
0010
0100
,
0001
0010
0001
1000
0001
0100
0010
0100
,
0001
0010
0100
1000
0010
0100
0010
1000
,
0100
0010
0001
0100
0010
0010
1000
0001
,
0010
0100
1000
0010
0100
0100
0001
1000
,
0100
0010
0001
0100
0010
0010
1000
0001
,
0010
0100
1000
0001
0100
0100
0020
0000
,
1030
0010
0100
0001
0010
0100
1000
0001
,
1000
0010
0010
0100
0001
1000
0100
1000
,
0001
0100
0001
1000
0100
0010
0001
1000
,
0010
0100
0001
1000
1000
0100
0010
0100
,
1000
0001
0100
0010
1000
0001
0010
0001
,
1000
0010
1000
0001
1000
0100
0100
0010
,
0010
0001
1000
0100
0010
0100
1000
0010
,
0100
0001
1000
0001
0010
0001
0100
0010
,
1000
0100
0010
0100
1000
0001
0100
0010
,
0100
0001
0010
0100
1000
0010
1000
0100
,
0010
0001
0100
0010
1000
0001
0010
0001
,
1000
0010
0100
0001
1000
0100
0010
0100
,
1000
0001
0100
0010
1000
0001
0010
0001
,
0100
0001
1000
0010
1000
0100
1000
0001
,
0010
0100
1000
0001
0100
0010
1000
0001
,
0100
0001
1000
0100
1000
0001
0010
0100
,
0010
0001
0010
0001
1000
0001
1000
0010
,
0100
0001
1000
0001
1000
0000
0000
0010
,
1010
1001
0101
0110
,
1010
1001
0011
0110
,
1100
1001
0101
1010
,
1001
0011
1100
1001
,
1010
0110
0101
1001
,
1100
0000
0110
0000
0011
0001
1000
0100
,
1100
0011
1010
0101
,
1001
0110
1001
0011
,
0110
1100
0101
1010
,
1000
0100
0100
0011
,
0001
0001
1010
1000
,
1000
0110
0000
0000
;
