#TITLE:The Warrior Inside;
#SUBTITLE:;
#ARTIST:Dragonforce;
#TITLETRANSLIT:;
#SUBTITLETRANSLIT:;
#ARTISTTRANSLIT:;
#CREDIT:B. Abear;
#BANNER:Bn-Warrior.png;
#BACKGROUND:Bg-Warrior.png;
#LYRICSPATH:;
#CDTITLE:;
#MUSIC:The Warrior Inside.ogg;
#OFFSET:-0.200;
#SAMPLESTART:69.760;
#SAMPLELENGTH:19.000;
#SELECTABLE:YES;
#DISPLAYBPM:200.000;
#BPMS:0.000=200.000,1184.000=100.000,1280.000=50.000;
#STOPS:;
#BGCHANGES:;
// cache tags:
#FIRSTBEAT:16.000;
#LASTBEAT:1292.500;
#SONGFILENAME:Songs/Dragonforce/The Warrior Inside/The Warrior Inside.sm;
#HASMUSIC:1;
#HASBANNER:1;
#MUSICLENGTH:434.625;
// end cache tags

//---------------dance-single - B. Abear----------------
#NOTES:
     dance-single:
     B. Abear:
     Challenge:
     15:
     1.000,1.000,0.764,0.313,1.000,2969.000,332.000,136.000,162.000,15.000:

0000
0000
0000
0000
,
0000
0000
0000
0000
,
0000
0000
0000
0000
,
0000
0000
0000
0000
,
1001
0001
1000
0100
0000
0010
0000
0001
,
0000
1000
0000
0010
0000
0100
0001
1000
,
1100
0000
0100
0010
0000
0001
0000
1000
,
0000
0010
0100
0001
1000
0000
0001
0010
,
0011
0001
1000
0100
0010
0000
0100
1000
,
0000
0001
0000
0100
0000
0010
1000
0010
,
0110
0100
0001
1000
0000
0001
0000
0010
,
0000
0100
0000
1000
0001
0100
0010
1000
,
1001
1001
0001
0010
,
0100
0000
1000
0000
0000
1001
1001
1001
,
0101
0101
0101
0001
0000
1000
0000
0100
,
0000
0010
0001
1000
0020
0000
0000
0030
,
0110
0101
1001
1100
,
0110
0011
1001
1010
,
M110
011M
M000
0M00
00M0
01M1
M101
10M1
,
1M01
11M0
110M
00M0
0M00
M000
0M00
00M0
,
1000
0001
0100
0010
0100
0010
1000
0001
0100
0010
0100
0010
1000
0001
1000
0001
,
0010
0000
0100
0000
1000
0100
1000
0000
0001
0000
0100
0000
0010
1000
0010
0000
,
0100
0000
0001
0000
1000
0100
1000
0000
0001
0000
1000
0000
0001
0010
0001
0000
,
1000
0100
0010
0001
1000
0010
0100
0010
1000
0001
0100
0001
1000
0100
0010
0001
,
1000
0200
0000
0310
0010
0002
0000
1003
,
0010
0100
0001
1000
0100
1000
0001
0010
0100
1000
0001
0100
0010
1000
0010
1000
,
0004
0100
0000
0100
0000
0103
0040
1000
0000
1000
0000
1030
0004
1000
0000
1003
,
0100
0010
0001
1000
0100
1000
0001
0010
0001
1000
0100
0010
0001
1000
0010
1000
,
0001
0100
0010
1000
0010
1000
0001
0100
0010
1000
0010
1000
0001
1000
0001
1000
,
0100
0100
0010
0010
0001
0001
1000
1000
,
0010
0010
0100
0100
0001
0001
1000
1000
,
0002
0100
1003
0002
0010
1003
0001
1000
,
2000
0010
3001
2000
0100
3001
1000
0001
,
0200
0000
0000
0320
0000
0000
2030
0000
,
3004
0010
0000
0010
0000
0013
0400
1000
0000
1000
0000
1300
0004
1000
0000
1003
,
0010
1000
0010
1000
0001
1000
0001
1000
0001
0010
0001
0010
0100
0010
0100
0000
,
0110
0000
0110
0011
0000
0011
1001
0000
,
100M
0010
0100
00M1
1000
0100
10M0
0001
0010
010M
1000
0001
,
1001
1000
1100
0100
0110
0010
0011
0001
,
2MM2
0000
0000
0000
0000
0000
0000
0000
0000
0000
0000
0000
0000
0000
0000
3003
0110
0000
0000
0000
1MM1
0000
0000
0000
0000
0000
0000
0000
0000
0000
0000
0000
,
1000
0100
1000
0000
0100
0010
0100
0000
0010
0001
0010
0000
0001
1000
0001
0000
,
1000
0010
1000
0000
0010
0100
0010
0000
0100
0001
0100
0000
0002
0000
2003
0000
,
3100
0010
0100
0000
0010
0001
0010
0000
0001
1000
0001
0000
1000
0010
1000
0000
,
0M10
0000
0000
0000
0000
0000
0000
0000
0M10
0000
0000
0000
0000
0000
0000
0000
0100
0000
0000
0000
0100
0000
0000
0000
2MM2
0000
0000
0000
0000
0000
0000
0003
,
3001
0010
0001
0000
1000
0001
1000
0000
0010
0100
0010
0000
0100
0001
0100
0000
,
0001
1000
0001
0000
1000
0100
1000
0000
0001
0010
0001
0000
1000
0100
1000
0000
,
0001
0010
0100
1000
0100
1000
0001
0010
0100
1000
0100
1000
0001
1000
0001
1000
,
0010
M10M
0010
M10M
0010
M10M
0010
M10M
,
0001
1000
0100
1000
0001
0010
0100
1000
0001
0100
0001
1000
0010
0100
0010
1000
,
0001
1000
0100
0010
0001
0010
0100
1000
0001
0010
0001
1000
0010
1000
0001
1000
,
0100
0010
0001
1000
0001
0100
0001
1000
0100
1000
0001
0010
0100
1000
0010
1000
,
0001
0100
0010
1000
0001
1000
0100
0010
0001
0010
0100
1000
,
2002
0000
0000
0000
0000
0000
0003
3000
0011
0000
0000
0000
0110
0000
0000
0000
,
2200
0000
0000
0000
0000
0000
3000
0300
1001
0000
0000
0000
0101
0000
0000
0000
,
0110
0000
0010
1000
1001
0000
0001
0010
,
0000
0110
0000
0100
1100
0000
1001
0000
,
1000
0001
1000
0001
1000
0001
1000
0001
1000
0001
1000
0001
1000
0001
1000
0001
,
1000
0001
1000
0001
1000
0001
1000
0001
1000
0001
1000
0001
1000
0000
0000
0000
,
M0M2
0100
0103
0020
1000
1030
0002
1003
,
0001
0010
0100
1000
0100
0001
0100
1000
,
0020
0100
0130
0002
1000
1003
0002
0013
,
0100
1000
0100
1000
0001
1000
0001
1000
0010
1000
0010
1000
0010
0100
0010
0100
,
0001
0000
1001
1000
1100
0100
0110
0010
,
0011
0001
1001
1000
1010
0010
0110
0100
,
0001
1000
0100
0010
0001
1000
0001
1000
0010
0100
0001
1000
0010
0100
0001
1000
,
0001
0010
0100
1000
0001
1000
0001
0010
0100
1000
0001
1000
0020
0000
0230
0000
,
0301
1000
0001
1000
0100
0010
0001
0010
0100
1000
0001
0100
0001
1000
0010
0100
,
0001
0100
0010
1000
0001
1000
0100
0010
0001
1000
0001
1000
0100
0010
0001
1000
,
0010
1000
0001
0100
0010
0100
0001
1000
0100
1000
0001
0010
0100
1000
0001
1000
,
0100
0010
0001
1000
0010
1000
0010
0100
0001
0100
0010
1000
0001
1000
0100
0010
,
0004
1000
0000
1000
0000
1000
0000
1000
0000
1000
0000
1000
0000
1000
0000
1003
,
0040
0100
0000
0100
0000
0100
0000
0100
0000
0100
0000
0100
0000
0100
0000
0130
,
0001
1000
0010
0100
0010
0100
0001
1000
0010
0100
0010
0100
0001
1000
0001
1000
,
0100
0010
0001
1000
0100
0010
0001
1000
0100
0010
0001
1000
0100
0010
0001
1000
,
0002
0000
0000
0103
M11M
0000
0010
1000
,
2M1M
0000
0000
3001
MM11
0000
0010
0100
,
21MM
0000
3002
0100
0100
0103
0020
0000
,
0000
0000
0000
0000
1030
0100
1000
0001
0100
0010
1000
0001
1MM0
0000
0000
0000
,
1001
0000
0000
0000
1100
0000
0000
0000
0110
0000
0010
0001
1000
0000
0000
0000
,
1001
0000
1010
0000
0110
0100
0101
0001
,
1001
1100
0110
0011
1001
1010
0110
0101
,
1001
1100
0110
1100
1MM1
0000
0000
0000
,
1000
0010
1000
0000
0010
0100
0010
0000
0100
0001
0100
0000
0001
1000
0001
0000
,
1000
0100
1000
0000
0001
0010
0001
0000
1000
0100
1000
0000
0001
1000
0001
0000
,
0100
0010
0100
0000
0010
1000
0010
0000
1000
0001
1000
0000
0001
0010
0001
0000
,
0020
0030
02M0
0300
2M00
3000
M002
0000
,
1003
0010
1000
0000
0010
0100
0010
0000
0100
0001
0100
0000
0001
1000
0001
0000
,
1000
0100
1000
0000
0001
0010
0001
0000
1000
0001
1000
0000
0100
1000
0100
0000
,
0010
0001
1000
0100
1000
0100
0010
0001
1000
0100
1000
0100
1000
0001
1000
0000
,
1001
0MM0
1001
0MM0
1001
0MM0
1001
0MM0
,
0001
0100
0001
0000
0100
0010
0100
0000
0010
1000
0010
0000
1000
0001
1000
0000
,
0001
1000
0001
0000
1000
0100
1000
0000
0001
0010
0001
0000
0100
0010
0100
0000
,
0010
1000
0010
0000
0100
0001
0100
0000
0001
1000
0001
0000
1000
0100
1000
0000
,
0100
0010
0100
0000
0010
0001
0010
0000
0001
1000
0001
0000
1000
0010
1000
0000
,
0001
1000
0001
0000
1000
0100
1000
0000
0001
0010
0001
0000
1000
0010
1000
0000
,
0010
0100
0010
0000
0100
0001
0100
0000
0001
1000
0001
0000
0010
0001
0010
0000
,
0100
1000
0100
0000
1000
0001
1000
0000
0010
0100
0010
0000
0100
0001
0100
0000
,
0001
1000
0001
0000
1000
0100
1000
0000
0100
0010
0100
0000
0010
0001
0010
0000
,
0001
0010
0100
1000
0010
0100
0010
0100
0001
0010
0100
1000
0010
0100
0010
0100
,
0001
0100
0010
1000
0001
0100
0010
1000
0001
0100
0010
1000
0001
0100
0010
1000
,
0001
0010
0100
1000
0000
0000
1001
0000
,
0000
0000
0101
0000
0000
0101
0110
1010
,
1001
0000
0000
0000
0000
0000
1000
0100
0010
0000
0001
0000
0001
0000
1000
0000
,
0000
0001
0001
0001
0100
0110
1010
1001
,
0011
0110
1200
0000
0000
1300
1001
0000
,
0001
0101
0000
0000
0000
0110
0110
0110
,
2020
0000
0000
3030
0022
0000
0000
0003
,
0031
0010
0100
1000
0001
0010
0100
1000
0001
0100
0010
1000
0001
0100
0010
1000
,
0002
0000
0000
0023
0000
0000
0032
0000
,
4003
0000
0000
0000
0000
0000
3010
0100
,
0002
0000
0000
1003
0200
0000
0310
0M00
,
0004
4000
0000
0000
0000
0000
0000
0000
0000
0000
0000
3003
0010
0000
0010
0000
,
0100
0010
1000
0001
1000
0001
0100
0010
1000
0001
1000
0001
0100
0001
0010
0100
,
1000
0001
0100
0010
0100
0010
1000
0001
0100
0010
0100
0010
1000
0001
1000
0100
,
0010
0001
1000
0001
0100
0000
0101
0000
0000
0000
0001
0000
1000
0000
1000
0000
,
0100
0000
0000
0000
1000
0001
0010
0100
1000
0001
1000
0010
0200
0000
0302
0000
,
1003
0100
0010
0001
1000
0010
1000
0001
0100
0010
0100
0001
1000
0100
1000
0001
,
0010
0100
1000
0010
0100
0001
0100
0010
1000
0001
1000
0100
0010
0100
1000
0001
,
0100
0010
0100
0000
0001
1000
0001
0000
0100
0010
0100
0000
0001
1000
0001
0000
,
1000
0100
0000
0010
0000
0004
0000
0000
,
1003
0010
0100
0000
0101
0000
0001
0000
0000
0000
1000
0000
0100
0000
0100
0000
,
0110
0000
0000
0000
0010
0001
0010
0100
1000
0001
1000
0010
0100
0001
1000
0000
,
1001
1100
0000
1100
1001
0101
0000
0000
,
1001
0011
0000
0011
1001
1020
0000
0000
,
0130
0001
0100
0000
0001
1000
0001
0000
1000
0100
1000
0000
0100
0010
0100
0000
,
0010
0001
0010
0000
0001
1000
0001
0000
0100
0010
0100
0000
0020
0000
2030
0000
,
3001
0010
0001
0000
1000
0001
1000
0000
0010
0100
0010
0000
0100
0001
0100
0000
,
00M1
0000
0000
0000
10M0
0000
0000
0000
0100
0000
0100
0000
2MM2
0000
0000
3000
,
1003
0010
1000
0000
0010
0100
0010
0000
0100
0001
0100
0000
0001
1000
0001
0000
,
1000
0100
1000
0000
0100
0010
0100
0000
0010
0001
0010
0000
0001
1000
0001
0000
,
1000
0100
0010
0001
1000
0001
0100
0010
0100
0001
1000
0100
0010
0001
0010
0100
,
1000
0001
1000
0010
1000
0001
0100
0010
0100
0001
1000
0100
0010
0001
1000
0001
,
1000
0000
0100
0000
0010
0001
0010
0000
0001
0000
1000
0000
0010
0100
0010
0000
,
0100
0000
0001
0000
1000
0001
1000
0000
0001
0000
0010
0000
0100
1000
0100
0000
,
0010
0000
0001
0000
1000
0001
1000
0000
0010
0000
0100
0000
0001
0100
0001
0000
,
1001
1000
0100
0010
0001
1000
1010
0010
0100
0001
1000
0001
,
MM21
0000
0000
0130
1100
1000
1001
0000
,
M2M1
0000
0000
0301
1001
0000
1100
0100
,
M12M
0000
0031
1000
1100
0000
0100
0000
,
1000
1001
0001
0000
0101
0000
0110
0000
,
0001
1000
0001
1000
0001
1000
0001
1000
0001
1000
0001
1000
0001
1000
0001
1000
,
0001
1000
0001
1000
0001
1000
0001
1000
0001
1000
0001
1000
0001
0000
0000
0000
,
2M0M
0010
3010
0200
0001
0301
2000
3001
,
1000
0100
0010
0001
0100
1000
0100
0001
,
0200
0010
0310
2000
0001
3001
2000
3100
,
0010
0001
0010
0001
1000
0001
1000
0001
0100
0001
0100
0001
0100
0010
0100
0010
,
4000
0001
0000
0001
0000
0001
0000
0001
0000
0001
0000
0001
0000
0001
0000
3001
,
0040
0100
0000
0100
0000
0100
0000
0100
0000
0100
0000
0100
0000
0100
0000
0130
,
1000
0001
0010
0100
1000
0001
1000
0001
0100
0010
1000
0001
0100
0010
1000
0001
,
1000
0100
0010
0001
1000
0001
1000
0100
0010
0001
1000
0001
0200
0000
0320
0000
,
2030
0100
3100
0020
0001
0031
2000
3001
,
0100
0010
0100
0010
0100
1000
0100
0001
,
2000
0010
3010
0200
0001
0301
2000
3001
,
0010
0100
0010
0100
0010
1000
0010
0001
,
4000
0001
0000
0001
0000
0001
0000
0001
0000
0001
0000
0001
0000
0001
0000
3001
,
0400
0010
0000
0010
0000
0010
0000
0010
0000
0010
0000
0010
0000
0010
0000
0310
,
4000
0010
0000
0010
0000
0001
0000
0001
0000
0010
0000
0010
0000
0001
0000
3001
,
0400
0010
0000
0010
0000
0001
0000
0001
0000
0010
0000
0010
0000
0001
0000
0301
,
1000
1000
0001
0001
0010
0010
0100
0100
,
1000
1000
0001
0001
0100
0100
0010
0010
,
2000
0000
3001
0010
0110
0100
1000
0001
,
0100
0010
1000
0001
1001
1000
0100
0010
,
0001
0100
0010
0000
1000
0001
0010
0000
0100
1000
0001
0000
0010
0001
1000
0000
,
0010
0100
0001
0000
1000
0010
0100
0000
0001
1000
0100
0000
0010
0001
1000
0000
,
1001
1001
1100
1100
0110
0110
0011
0011
,
1001
0000
1001
0000
1010
0000
1010
0000
1000
0010
0100
0001
1000
0100
0010
0001
,
1000
0010
1000
0000
0010
0100
0010
0000
0100
0001
0100
0000
0001
1000
0001
0000
,
1000
0100
1000
0000
0001
0010
0001
0000
1000
0100
1000
0000
0001
1000
0001
0000
,
0100
0010
0100
0000
0010
1000
0010
0000
1000
0001
1000
0000
0001
0010
0001
0000
,
0020
0030
02M0
0300
2M00
3000
M002
0000
,
1003
0010
1000
0000
0010
0100
0010
0000
0100
0001
0100
0000
0001
1000
0001
0000
,
1000
0100
1000
0000
0001
0010
0001
0000
1000
0001
1000
0000
0100
1000
0100
0000
,
0010
0001
1000
0100
1000
0100
0010
0001
1000
0100
1000
0100
1000
0001
1000
0000
,
1001
0MM0
1001
0MM0
1001
0MM0
1001
0MM0
,
0001
0100
0001
0000
0100
0010
0100
0000
0010
1000
0010
0000
1000
0001
1000
0000
,
0001
1000
0001
0000
1000
0100
1000
0000
0001
0010
0001
0000
0100
0010
0100
0000
,
0010
1000
0010
0000
0100
0001
0100
0000
0001
1000
0001
0000
1000
0100
1000
0000
,
0100
0010
0100
0000
0010
0001
0010
0000
0001
1000
0001
0000
1000
0010
1000
0000
,
0001
1000
0001
0000
1000
0100
1000
0000
0001
0010
0001
0000
1000
0010
1000
0000
,
0010
0100
0010
0000
0100
0001
0100
0000
0001
1000
0001
0000
0010
0001
0010
0000
,
0100
1000
0100
0000
1000
0001
1000
0000
0010
0100
0010
0000
0100
0001
0100
0000
,
0001
1000
0001
0000
1000
0100
1000
0000
0100
0010
0100
0000
0010
0001
0010
0000
,
0001
1000
0001
1000
0001
1000
0010
0100
0001
1000
0001
1000
0010
0100
0010
0100
,
0001
1000
0001
1000
0100
1000
0100
1000
0001
1000
0001
1000
0100
1000
0100
0000
,
1100
0110
0011
1001
,
1010
0110
0101
1001
,
1000
0100
0010
0001
1000
0001
0100
0010
0100
0001
1000
0100
0010
0001
1000
0100
,
0010
0001
0010
0001
1000
0001
1000
0001
0010
0001
0010
0001
1000
0001
1000
0001
,
0100
0000
0010
0000
0100
0000
0010
1000
,
0010
0100
0001
1000
0001
0100
0001
1000
,
0001
0010
0100
1000
0001
0010
0100
0010
,
0001
0100
0010
0100
0001
1000
0100
1000
,
1001
0001
0100
0001
1000
0001
0100
0010
,
1000
0100
0010
0001
0010
0100
1000
0001
,
1000
0010
0100
0010
1000
0001
1000
0010
,
0010
0100
0001
1000
0100
0010
0100
1000
,
1100
0100
0010
0001
1000
0001
0100
0010
,
1000
0001
1000
0100
0010
0001
0010
0100
,
1100
1000
0001
0100
0010
0100
0001
1000
,
0010
0100
0010
1000
0010
0100
0010
1000
,
0001
0001
0010
0010
0100
0100
1000
1000
,
0001
0001
0010
0010
0100
0100
1000
1000
,
1100
1100
0110
0110
0011
0011
1001
1001
,
1100
1100
0110
0110
0011
0011
1001
1001
,
1010
0000
0010
0000
0110
0000
0100
0000
0101
0000
0001
1000
0100
0000
MM11
0000
,
0001
1001
1000
1010
0110
0100
0101
0001
,
1001
1000
1100
0100
0110
0010
0001
1MM1
,
1000
1010
0010
0100
0101
0001
1001
1000
,
1001
0001
0011
0010
0110
0100
1000
1MM1
,
0001
0101
0100
0110
1010
1000
1001
0001
,
0011
0010
0110
0100
1100
1000
0001
MM11
,
0010
0110
0100
1100
1001
0001
0101
0100
,
0110
0010
1010
1000
1001
0001
0010
M11M
,
0100
1100
1000
1001
0101
0100
0110
0010
,
1010
1000
1001
0001
0011
0010
0100
11MM
,
0100
0110
0010
0011
1001
1000
1001
0001
,
M1M1
0000
0100
M11M
0000
0010
1M1M
0000
,
1MM1
0000
1000
11MM
0000
0100
M11M
0000
,
MM11
0000
0001
1MM1
0000
1000
1M1M
0000
,
0010
0100
0001
1000
0001
1000
0100
0010
0001
1000
0010
1000
0001
0010
0100
1000
,
0001
0000
1001
1000
1100
0100
0010
0011
,
0001
1001
1000
1010
0110
0100
0101
0001
,
1001
1000
1100
0100
0110
0010
0001
1001
,
1000
1100
0100
0110
0011
0001
1001
1000
,
1M1M
0000
M11M
0000
M1M1
0000
0000
1MM1
,
0000
11MM
0000
M11M
0000
0M11
1M01
0000
,
2MM2
0000
0000
0000
0000
0000
0000
0000
0000
0000
0000
0000
0000
0000
0000
0000
0000
0000
0000
0000
0000
0000
0000
3003
0100
0000
0000
0000
0010
0000
0000
0000
,
4000
0004
0000
0000
0000
0000
0000
0000
0000
0000
0000
0000
0000
0000
0000
3003
,
0100
0010
0100
0000
0001
0100
0001
0000
1000
0001
1000
0000
0100
1000
0100
0000
,
0010
0001
1000
0001
0100
0010
0100
0001
1000
0100
1000
0001
0010
0100
0010
0001
,
1000
0100
1000
0100
0010
0001
1000
0001
0100
0010
0100
0010
1000
0001
1000
0010
,
0100
0001
0100
0001
1000
0100
1000
0001
0040
0000
0000
0000
0031
0000
1000
0000
,
0100
0200
0000
0310
0001
1000
0001
0100
,
0010
0000
0020
0000
0000
0000
0130
0000
0001
1000
0100
0010
0004
0000
0000
0000
,
1003
0010
0100
0001
0100
0001
1000
0010
0100
0001
0100
0001
1000
0010
0100
0001
,
1000
0100
0010
0001
0010
0001
1000
0100
0010
0001
1000
0001
1000
0010
0100
0001
,
1000
0100
0010
0001
2000
0000
0000
3000
1000
0100
0010
0001
2000
0000
0000
3000
,
1000
0100
0010
0001
1000
0010
0100
0001
1000
0100
0010
0001
1000
0010
0100
0001
,
4000
0100
0000
0100
0000
0001
0000
0001
0000
0100
0000
0100
0000
0001
0000
3001
,
0040
0100
0000
0100
0000
0001
0000
0031
4000
0010
0000
0010
0000
0001
0000
3001
,
0100
0200
0000
0301
0100
1000
0100
0001
,
1000
0000
2000
0000
0000
0000
3100
0000
0010
0001
1000
0001
0400
0000
0000
0000
,
0310
1000
0001
1000
0100
0010
0001
1000
0010
1000
0001
0010
0001
1000
0100
0010
,
0001
1000
0100
1000
0001
0100
0010
1000
01MM
0000
01MM
0000
01MM
0000
01MM
0000
,
1100
1000
1001
0001
0101
0200
0000
0310
,
2000
0000
0000
0000
0000
0000
3001
0010
0000
0100
0000
0000
1000
0001
0000
0100
0000
0000
0010
1000
0000
0001
0000
0000
,
0M21
0000
0000
0000
0000
0000
0130
0000
0000
2000
0000
0000
0000
0000
0000
3M01
0000
00M0
0000
0000
0000
4000
0000
0000
,
0000
0000
0000
0000
0000
3001
0100
0010
,
4000
0100
0000
3100
0040
0001
0000
0031
4000
0010
0000
3010
0400
0001
0000
0301
,
4000
0100
0000
3100
0040
0001
0000
0031
4000
0001
0000
3001
0400
0001
0000
0301
,
10M0
0100
0010
0001
1000
0010
M100
0001
1000
0001
1000
0100
,
0010
0001
1000
0000
0001
1000
0010
0000
0100
0001
1000
0000
1MM1
0000
0000
0000
,
0001
0010
0100
1000
0100
0010
0001
0010
0100
1000
0100
0010
,
0001
0100
0010
1000
0001
0100
0001
0100
0001
1000
0001
1000
0200
0000
0000
0000
,
1300
0010
0100
0001
1000
0010
0100
0001
1000
0100
1000
0001
0010
0001
1000
0001
,
0100
0010
0100
0001
1000
0100
1000
0001
0010
0100
1000
0001
0200
0000
0300
0000
,
0010
0100
0001
1000
0001
1000
0010
0100
0001
1000
0001
1000
0010
0100
0001
0000
,
0000
2000
0000
0000
0000
0000
0000
0000
0000
0000
0000
0000
0000
0000
0000
0000
0000
0000
0000
0000
0000
0000
0000
0000
3100
0000
0000
0000
0000
0000
0000
0000
0000
0000
0000
0000
0000
0000
0000
0000
0000
0000
0000
0000
0000
0000
0000
0000
0000
0020
0000
0000
0000
0000
0000
0000
0000
0000
0000
0000
0000
0000
0000
0000
0000
0000
0000
0000
0000
0000
0000
0000
0031
0000
0000
0000
0000
0000
0000
0000
0000
0000
0000
0000
0000
0000
0000
0000
0000
0000
0000
0000
0000
0000
0000
0000
0000
2000
0000
0000
0000
0000
0000
0000
0000
0000
0000
0000
0000
0000
0000
0000
0000
0000
0000
0000
0000
0000
0000
0000
3001
0000
0000
0000
0000
0000
0000
0000
0000
0000
0000
0000
0000
0000
0000
0000
0000
0000
0000
0000
0000
0000
0000
0000
0000
0200
0000
0000
0000
0000
0000
0000
0000
0000
0000
0000
0000
0000
0000
0000
0000
0000
0000
0000
0000
0000
0000
0000
0301
0000
0000
0000
0000
0000
0000
0000
0000
0000
0000
0000
0000
0000
0000
0000
0000
0000
0000
0000
0000
0000
0000
0000
,
1000
0010
0100
0001
0100
0001
1000
0010
0100
0001
0100
0001
1000
0001
1000
0001
,
0010
0100
1000
0001
1000
0001
0010
0100
1000
0001
1000
0001
0100
0010
0100
0001
,
2MM0
0000
0000
3200
0000
0000
0320
0000
,
0031
1000
0000
0010
0100
0001
1000
0100
,
0020
0000
0000
0000
0000
0000
0031
2000
,
0000
0001
0000
3001
0101
0100
0001
1000
,
0001
0001
0010
0100
1000
1000
0010
0100
,
0001
0001
1000
0100
0010
0010
0001
1000
,
0001
0100
0010
1000
0010
1000
0001
0100
0010
1000
0010
1000
0001
0100
0010
1000
,
0001
0010
0100
1000
0100
1000
0001
0010
0100
1000
0100
1000
0001
0010
0100
0000
,
11MM
1000
0100
1000
0001
0100
0001
1000
,
0001
0010
0000
0000
0000
0000
0100
1000
0000
0000
0000
0000
0001
0100
0000
0010
0000
0000
1000
0000
0000
0001
0000
0000
,
0011
0010
0001
1000
0010
0100
0001
0100
,
0040
1000
0000
1000
0000
1000
0000
1030
0004
1000
0000
1000
0000
1000
0000
1003
,
0100
0010
0001
1000
0001
0100
0010
0100
0001
1000
0100
1000
0001
0010
0100
1000
,
0001
1000
0010
0100
0001
0100
0010
1000
0001
0010
0001
1000
0100
0010
0100
1000
,
0001
0100
0001
0100
0001
1000
0001
1000
0001
0100
0001
0100
0001
1000
0001
1000
,
0100
0010
0001
1000
0100
0010
0001
1000
0100
0010
0001
1000
0MM1
0000
0000
0000
,
1000
0100
0010
0001
1000
0001
1000
0010
,
0100
0000
0001
0000
2000
0000
0000
0000
3001
0000
0000
0010
0000
0000
0100
0000
,
1000
0000
0000
0001
0000
0000
0100
0000
0010
0000
0000
1000
0000
0000
0001
0000
,
0020
0000
0000
0000
0000
0000
0000
0000
0000
0000
0000
0000
0000
0000
0000
0000
0000
0030
MM40
0000
0000
MM00
0000
0000
,
0031
1000
0010
0100
0001
1000
0100
0010
,
0001
0200
0000
0310
4000
0000
0000
0000
,
3001
0100
0001
0100
0001
0100
0001
0100
0001
1000
0001
1000
0001
1000
0001
1000
,
0010
0100
0001
1000
0001
1000
0010
0100
0001
1000
0001
1000
0100
0010
0100
0010
,
0001
1000
0100
1000
0001
0100
0010
0100
0001
1000
0010
0100
0001
1000
0100
1000
,
0001
0010
0100
1000
0001
0010
0001
1000
0400
0010
0000
0310
0004
1000
0000
1003
,
0040
0100
0000
0130
0004
0100
0000
0103
0040
1000
0000
1030
0004
1000
0000
1003
,
0100
0010
0001
1000
0001
1000
0010
0100
0001
0010
0100
1000
0001
1000
0001
0100
,
0010
1000
0001
0010
0100
1000
0001
1000
0100
0010
0001
1000
0100
1000
0001
1000
,
0040
0100
0000
0100
0000
0130
0001
1000
0100
0010
0001
1000
0400
0000
0000
0000
,
1300
0000
0000
0010
0000
0000
0100
0000
0000
0001
0000
0000
1000
0000
0000
0010
0000
0000
0100
0000
0000
0001
0000
0000
1000
0000
0000
0000
0100
0000
0000
0000
0010
0000
0000
0000
0001
0000
0000
0000
1000
0000
0000
0000
0001
0000
0000
0000
,
0100
0010
1000
0001
1000
0100
1000
0001
0010
0001
1000
0010
0200
0000
0000
0000
,
0310
1000
0001
0010
0000
0100
1000
0001
,
0100
0010
0010
1000
0010
0100
0010
1000
,
0001
0010
0100
1000
0001
1000
0010
0100
0010
1000
0001
0010
0001
1000
0100
0010
,
0001
1000
0001
1000
0010
0100
0001
1000
0010
1000
0001
0010
0001
1000
0100
0010
,
0001
1000
0010
0100
0001
1000
0100
0010
,
0001
1000
0001
0100
0020
1000
0230
0001
,
0310
1000
0001
0010
0001
1000
0100
0010
,
0001
1000
0001
0100
0010
1000
0001
0010
,
0100
0000
0000
1000
0000
0000
0001
0000
0100
0000
0010
0000
1000
0000
0001
1000
,
0010
0100
0001
0100
0010
1000
0001
0010
,
0100
1000
0100
0010
0001
1000
0001
0100
,
0110
0010
1010
1000
1001
0001
0011
0010
,
0220
0000
0000
0000
0331
0000
1000
0010
,
0220
0000
0000
0000
1330
0000
0001
0010
,
0022
0000
0000
0000
0133
0000
1000
0001
,
0202
0000
0000
0000
0313
0000
1000
0001
,
2002
0000
0000
0000
3103
0000
0010
1000
,
2020
0000
0000
0000
3031
0000
1000
0100
,
2200
0000
0000
0000
3310
0000
0001
1000
,
0010
0100
0001
0000
0010
0100
1000
0000
1001
0000
0000
0011
0000
0000
0110
0000
,
2200
0000
0000
0000
3301
0000
0100
0010
,
2020
0000
0000
0000
3130
0000
0001
1000
,
2200
0000
0000
0000
3301
0000
0001
0010
,
0220
0000
0000
0000
0000
0000
0000
0000
1330
0001
0010
0000
0001
1000
0010
0000
,
2020
0000
0000
0000
3130
0000
0001
1000
,
2020
0000
0000
0000
3031
0000
1000
0100
,
0220
0000
0000
0000
1330
0000
0001
0100
,
0010
1000
0010
1000
0010
1000
0010
1000
0010
1000
0010
1000
0001
1000
0001
1000
0001
1000
0001
1000
0001
1000
0001
1000
,
0002
0000
0000
0000
0000
0000
0000
0000
0000
0000
0000
0000
0000
0000
0000
0000
0000
0000
0000
0000
0000
0000
0000
0000
0000
2000
0000
0000
0000
0000
0000
0000
,
0000
0000
0000
0000
0000
0000
0000
0000
0000
0000
0000
0000
0000
0000
0000
0000
0000
0000
0000
0000
0000
0000
0000
0000
0000
0000
0000
0000
0000
0000
0000
0000
0000
0000
0000
0000
0000
0000
0000
0000
0000
0000
0000
0000
0000
0020
0000
0000
0000
0000
0000
0000
0000
0000
0000
0000
0000
0000
0000
0000
0000
0000
0000
0000
,
0000
0000
0000
0000
0000
3033
0000
0000
,
0MM0
0000
0000
M00M
0MM0
0000
0000
0000
0000
0000
0000
0000
0000
0000
0000
0000
0000
0000
0000
0000
0000
0000
0000
0000
0000
0000
0000
0000
0000
0000
0000
0000
;
