#TITLE:Twinkle Circuit;
#SUBTITLE:Sonic Adventure DX;
#ARTIST:Fumie Kumatani;
#TITLETRANSLIT:;
#SUBTITLETRANSLIT:;
#ARTISTTRANSLIT:;
#CREDIT:owenviau1;
#BANNER:BN.PNG;
#BACKGROUND:BG.PNG;
#LYRICSPATH:;
#CDTITLE:../ov1_title.png;
#MUSIC:Twinkle Circuit.mp3;
#OFFSET:-0.563;
#SAMPLESTART:55.902;
#SAMPLELENGTH:29.999;
#SELECTABLE:YES;
#DISPLAYBPM:155.970;
#BPMS:0.000=155.968,1.000=155.977,2.000=155.968,6.000=155.977,7.000=155.968,11.000=155.977,12.000=155.968,16.000=155.977,17.000=155.968,21.000=155.977,22.000=155.968,27.000=155.977,28.000=155.968,32.000=155.977,33.000=155.968,37.000=155.977,38.000=155.968,43.000=155.977,44.000=155.968,48.000=155.977,49.000=155.968,53.000=155.977,54.000=155.968,59.000=155.977,60.000=155.968,63.000=155.977,64.000=155.968,67.000=155.977,68.000=155.968,71.000=155.977,72.000=155.968,75.000=155.977,76.000=155.968,79.000=155.977,80.000=155.968,83.000=155.977,84.000=155.968,87.000=155.977,88.000=155.968,91.000=155.977,92.000=155.968,95.000=155.977,96.000=155.968,99.000=155.977,100.000=155.968,103.000=155.977,104.000=155.968,107.000=155.977,108.000=155.968,111.000=155.977,112.000=155.968,115.000=155.977,116.000=155.968,119.000=155.977,120.000=155.968,124.000=155.977,125.000=155.968,128.000=155.977,129.000=155.968,132.000=155.977,133.000=155.968,136.000=155.977,137.000=155.968,140.000=155.977,141.000=155.968,144.000=155.977,145.000=155.968,148.000=155.977,149.000=155.968,152.000=155.977,153.000=155.968,156.000=155.977,157.000=155.968,160.000=155.977,161.000=155.968,164.000=155.977,165.000=155.968,168.000=155.977,169.000=155.968,172.000=155.977,173.000=155.968,176.000=155.977,177.000=155.968,180.000=155.977,181.000=155.968,184.000=155.977,185.000=155.968,188.000=155.977,189.000=155.968,192.000=155.977,193.000=155.968,196.000=155.977,197.000=155.968,200.000=155.977,201.000=155.968,204.000=155.977,205.000=155.968,208.000=155.977,209.000=155.968,212.000=155.977,213.000=155.968,216.000=155.977,217.000=155.968,220.000=155.977,221.000=155.968,224.000=155.977,225.000=155.968,228.000=155.977,229.000=155.968,232.000=155.977,233.000=155.968,236.000=155.977,237.000=155.968,240.000=155.977,241.000=155.968,244.000=155.977,245.000=155.968;
#STOPS:;
#BGCHANGES:;
// cache tags:
#FIRSTBEAT:16.000;
#LASTBEAT:332.000;
#SONGFILENAME:Songs/owenviau1 Simfiles 5/Twinkle Circuit - [owenviau1] v1.4/Twinkle Circuit.sm;
#HASMUSIC:1;
#HASBANNER:1;
#MUSICLENGTH:141.591;
// end cache tags

//---------------dance-single - ----------------
#NOTES:
     dance-single:
     :
     Hard:
     10:
     0.726,1.000,0.106,0.000,0.254,705.000,15.000,0.000,0.000,0.000:
0000
0000
0000
0000
,
0000
0000
0000
0000
,
0000
0000
0000
0000
,
0000
0000
0000
0000
,
0010
0100
0001
1000
0001
0010
0001
1000
,
0010
0100
0001
1000
0100
0010
0001
0001
,
0001
0100
1000
0010
0100
0001
1000
0001
,
0010
0000
0001
0000
0100
0000
0010
0000
1000
0100
1000
0000
0010
0000
0001
0100
,
0001
1000
0100
0001
0100
0010
1000
0100
,
1000
0010
0100
0001
1000
0100
0010
0010
,
0010
0001
1000
0001
0010
0001
1000
0010
,
0100
0001
0010
0100
1000
0010
0100
0001
,
1001
0100
0001
0010
0100
1000
0010
0100
,
0001
1000
0001
0010
0001
0100
0010
0010
,
0010
1000
0001
0010
0100
1000
0010
0100
,
0001
0000
0010
0000
0001
0000
1000
0000
0010
0100
0010
0000
1000
0000
0001
0010
,
0001
0100
0010
1000
0100
1000
0001
0100
0001
0010
0100
1000
0001
1000
0010
1000
,
0001
0000
0000
0010
0000
0000
0100
0000
0000
0001
0000
0000
1000
0000
0000
0001
0000
0000
0100
0000
0000
0010
0000
0000
1000
0000
0001
0000
1000
0000
0001
0000
1000
0000
0001
0000
1000
0000
0001
0000
1000
0000
0001
0000
0000
0000
0000
0000
,
1001
0001
0100
0010
1000
0100
0010
0001
,
0100
0010
1000
0001
0010
0001
0100
0001
,
1000
0010
1000
0001
1000
0010
0100
0001
,
1000
0100
0010
0001
1000
0010
0100
0001
,
0011
0010
0100
1000
0001
0100
0010
1000
,
0100
1000
0010
0100
0001
0010
0001
1000
,
0001
0100
0010
1000
0100
0010
0001
0100
,
0010
1000
0100
1000
0010
0100
0001
0010
,
1100
0001
1000
0010
0100
0001
1000
0100
,
1000
0010
0100
0001
0010
0100
1000
0001
,
1000
0010
0100
0001
0010
0001
1000
0001
,
0100
0010
1000
0100
0010
0001
1000
0010
,
0110
0100
0001
1000
0001
0100
0010
1000
,
0100
0010
0001
0100
0010
1000
0100
1000
,
0010
0100
0001
0010
0100
1000
0001
0010
,
0001
0100
0001
1000
0010
1000
0100
1000
,
0001
0010
0100
1000
0001
0100
0010
1000
,
0001
0000
0000
0010
0000
0000
0100
0000
0000
1000
0000
0000
0001
0000
0000
1000
0000
0000
0010
0000
0000
0100
0000
0000
0001
0000
0100
0000
0001
0000
0100
0000
0001
0000
0100
0000
0001
0000
0100
0000
0001
0000
0100
0000
0000
0000
0000
0000
,
0101
0001
1000
0010
1000
0100
0010
0001
,
0100
0010
1000
0001
0010
0001
0100
0001
,
1000
0010
1000
0001
1000
0010
0100
0001
,
1000
0100
0010
0001
1000
0010
0100
0001
,
0101
0010
0100
1000
0001
0100
0010
1000
,
0100
1000
0010
0100
0001
0010
0001
1000
,
0001
0100
0010
1000
0100
0010
0001
0100
,
0010
1000
0100
1000
0010
0100
0001
0010
,
0110
0001
1000
0010
0100
0001
1000
0100
,
1000
0010
0100
0001
0010
0100
1000
0001
,
1000
0010
0100
0001
0010
0001
1000
0001
,
0100
0010
1000
0100
0010
0001
1000
0010
,
1100
0100
0001
1000
0001
0100
0010
1000
,
0100
0010
0001
0100
0010
1000
0100
1000
,
0010
0100
0001
0010
0100
1000
0001
0010
,
0001
0100
0001
1000
0010
1000
0100
1000
,
0001
0010
0100
1000
0001
0100
0010
1000
,
0001
1000
0010
0100
0001
1000
0001
0010
,
0100
0000
0000
1000
0000
0000
0100
0000
0000
0010
0000
0000
0001
0000
0000
1000
0000
0000
0001
0000
0000
0010
0000
0000
0100
0000
1000
0000
0100
0000
1000
0000
0100
0000
1000
0000
0100
0000
1000
0000
0100
0000
1000
0000
0000
0000
0000
0000
,
1100
0100
0001
0010
0100
1000
0010
0100
,
0001
1000
0001
0010
0001
1000
0010
0100
,
0001
0010
0100
1000
0010
0100
0001
1000
,
0001
0010
0001
1000
0100
1000
0010
0100
,
1001
0001
0010
0100
1000
0001
0100
0010
,
1000
0001
1000
0100
0010
0001
0100
0010
,
1000
0100
1000
0010
0100
0001
1000
0001
,
0010
0001
0100
0010
1000
0100
1000
0001
,
0100
0010
1000
0100
0010
0001
0010
0100
,
1000
0000
0000
0001
0000
0000
1000
0000
0000
0010
0000
0000
1000
0000
0000
0100
0000
0000
0010
0000
0000
0001
0000
0000
0010
0000
0100
0000
0010
0000
0100
0000
0010
0000
0100
0000
0010
0000
0100
0000
0010
0000
0100
0000
0000
0000
0000
0000
,
0110
1000
0010
1000
0001
0010
0001
1000
,
0010
0100
0001
1000
0100
0010
0001
0001
,
0001
0100
1000
0010
0100
0001
1000
0001
,
0010
0001
0100
0010
1000
0100
0010
0001
,
1000
0100
0010
0001
0100
0010
1000
0100
,
1000
0010
0100
0001
1000
0100
0010
0010
,
0010
0001
1000
0001
0010
0001
1000
0010
,
0100
0000
0001
0000
0010
0000
0100
0000
0001
0100
0001
0000
1000
0000
0001
0010
,
0001
0100
0010
1000
0100
1000
0001
0100
0001
0010
0100
1000
0001
1000
0010
1000
,
0001
0000
0000
0010
0000
0000
0100
0000
0000
0001
0000
0000
1000
0000
0000
0001
0000
0000
0100
0000
0000
0010
0000
0000
1000
0000
0001
0000
1000
0000
0001
0000
1000
0000
0001
0000
1000
0000
0001
0000
1000
0000
0001
0000
0000
0000
0000
0000
,
1001
0001
0100
0010
1000
0100
0010
0001
,
0100
0010
1000
0001
0010
0001
0100
0001
,
1000
0010
1000
0001
1000
0010
0100
0001
,
1000
0100
0010
0001
1000
0010
0100
0001
,
0011
0010
0100
1000
0001
0100
0010
1000
,
0100
1000
0010
0100
0001
0010
0001
1000
,
0001
0100
0010
1000
0100
0010
0001
0100
,
0010
1000
0100
1000
0010
0100
0001
0010
,
1001
0000
0000
0000
,
0000
0000
0000
0000
,
0000
0000
0000
0000
,
0000
0000
0000
0000
,
0000
0000
0000
0000
,
0000
0000
0000
0000
,
0000
0000
0000
0000
,
0000
0000
0000
0000
,
0000
0000
0000
0000
;

//---------------dance-single - ----------------
#NOTES:
     dance-single:
     :
     Challenge:
     11:
     1.000,1.000,1.000,0.438,0.579,789.000,222.000,62.000,0.000,7.000:
0000
0000
0000
0000
,
0000
0000
0000
0000
,
0000
0000
0000
0000
,
0000
0000
0000
0000
,
1001
0100
0011
0100
1001
1000
0101
0010
,
1001
0100
0011
1000
0110
1000
0101
0101
,
0101
0010
1001
0100
0110
1000
0101
0010
,
1100
0000
0010
0000
1001
0000
0100
0000
1000
0010
0100
0000
1001
0000
0010
1000
,
0001
1000
0110
0001
1010
0100
1001
0010
,
0110
1000
0101
0010
0110
0100
1001
1001
,
1001
0010
0110
1000
0101
0001
1010
0100
,
1001
0020
2230
3320
2032
3203
0322
2033
,
3101
1000
0011
0100
1001
1000
0101
0010
,
1001
0100
0011
1000
0101
1000
0110
0110
,
0110
0001
1001
0100
0110
1000
0101
0010
,
1100
0000
0010
0000
1001
0000
0100
0000
1000
0010
0100
0000
1001
0000
0100
0001
,
0010
0100
1000
0100
0010
0001
0100
0010
1000
0100
0010
0001
1000
0001
0010
0100
,
1000
0000
0000
0000
0000
0000
0000
0000
0000
0010
0000
0000
0000
0000
0000
0000
0000
0000
0100
0000
0000
0000
0000
0000
0000
0000
0000
0001
0000
0000
0000
0000
0000
0000
0000
0000
0010
0000
0000
0000
0000
0000
0000
0000
0000
0100
0000
0000
0000
0000
0000
0000
0000
0000
1000
0000
0000
0000
0000
0000
0000
0000
0000
0100
0000
0000
0000
0000
0000
0000
0000
0000
0010
0000
0000
0000
0000
0000
0000
0000
0000
0001
0000
0000
0000
0000
0000
0000
0000
0000
1000
0000
0000
0000
0000
0000
0001
0000
0000
0000
0000
0000
0000
0000
0010
0000
0000
0000
0000
0000
0000
0000
0100
0000
0000
0000
0000
0000
0000
0000
1000
0000
0000
0000
0000
0000
0000
0000
0001
0000
0000
0000
0000
0000
0000
0000
1000
0000
0000
0000
0000
0000
0000
0000
0100
0000
0000
0000
0000
0000
0000
0000
0010
0000
0000
0000
0000
0000
0000
0000
0001
0000
0000
0000
0000
0000
0000
0000
0100
0000
0000
0000
0000
0000
0000
0000
0000
0000
0000
0000
0000
0000
0000
0000
0000
0000
0000
0000
0000
0000
0000
0000
,
1001
0000
0100
0010
0001
0000
0100
0000
1001
0000
0010
1000
0001
0000
0100
0000
,
1100
0000
0001
0010
0100
0000
1000
0000
0101
0000
1000
0100
0010
0000
0001
0000
,
1001
0000
1000
0010
0100
0000
0001
0000
1010
0000
0100
0010
0001
0000
1000
0000
,
0011
0000
0100
0001
1000
0000
0010
0000
1100
0000
0010
0000
1001
0000
0001
0000
,
1010
0000
0100
0010
0001
0000
0100
0000
1001
0000
0010
1000
0001
0000
0100
0000
,
1100
0000
0001
0010
0100
0000
1000
0000
0101
0000
1000
0100
0010
0000
0001
0000
,
1001
0000
1000
0010
0100
0000
0001
0000
1010
0000
0100
0010
0001
0000
1000
0000
,
0001
0000
0100
0001
1000
0000
0010
0000
1100
0000
0010
0000
1001
0000
0001
0000
,
1100
0000
0001
1000
0010
0000
1000
0000
0101
0000
0010
1000
0001
0000
0100
0000
,
1100
0000
0001
0010
0100
0000
1000
0000
0101
0000
1000
0100
0010
0000
0001
0000
,
1001
0000
1000
0010
0100
0000
0001
0000
1010
0000
0100
0010
0001
0000
1000
0000
,
0001
0000
0100
0001
1000
0000
0010
0000
1100
0000
0010
0000
1001
0000
0100
0000
,
0011
0000
1000
0001
0010
0000
0100
0000
1001
0000
0010
1000
0001
0000
0100
0000
,
1100
0000
0001
0010
0100
0000
1000
0000
0101
0000
1000
0100
0010
0000
0001
0000
,
1001
0000
1000
0010
0100
0000
0001
0000
1010
0000
0100
0010
0001
0000
1000
0000
,
0001
0000
0100
0001
1000
0000
0010
0000
1100
0000
0010
0000
1001
0000
0100
0000
,
1000
0100
0010
0001
1000
0100
0010
0001
0100
0010
1000
0100
0010
0001
0100
0010
,
1000
0000
0000
0000
0000
0000
0000
0000
0000
0010
0000
0000
0000
0000
0000
0000
0000
0000
0100
0000
0000
0000
0000
0000
0000
0000
0000
0001
0000
0000
0000
0000
0000
0000
0000
0000
0010
0000
0000
0000
0000
0000
0000
0000
0000
0100
0000
0000
0000
0000
0000
0000
0000
0000
1000
0000
0000
0000
0000
0000
0000
0000
0000
0100
0000
0000
0000
0000
0000
0000
0000
0000
0010
0000
0000
0000
0000
0000
0000
0000
0000
0001
0000
0000
0000
0000
0000
0000
0000
0000
1000
0000
0000
0000
0000
0000
0001
0000
0000
0000
0000
0000
0000
0000
0010
0000
0000
0000
0000
0000
0000
0000
0100
0000
0000
0000
0000
0000
0000
0000
1000
0000
0000
0000
0000
0000
0000
0000
0001
0000
0000
0000
0000
0000
0000
0000
1000
0000
0000
0000
0000
0000
0000
0000
0100
0000
0000
0000
0000
0000
0000
0000
0010
0000
0000
0000
0000
0000
0000
0000
0001
0000
0000
0000
0000
0000
0000
0000
0100
0000
0000
0000
0000
0000
0000
0000
0000
0000
0000
0000
0000
0000
0000
0000
0000
0000
0000
0000
0000
0000
0000
0000
,
1001
0010
1100
1000
0011
0100
1001
0010
,
0110
0001
1100
1000
0101
0010
1001
0100
,
2020
3030
0002
0003
2002
3003
0200
0300
0022
0033
2000
3000
0220
0330
0002
0003
,
2020
3030
0200
0300
2002
3003
0020
0030
0220
0330
2000
3000
0022
0033
0200
0300
,
2002
3003
0010
0000
0110
0000
1000
0000
0011
0000
1000
0000
1100
0000
0010
0000
,
1001
0001
1010
0100
0101
0010
1100
0001
,
0110
1000
0101
0010
1000
0110
0011
1100
,
0010
1000
0101
0010
1001
0010
0101
1000
,
1100
0010
0101
1000
0110
0010
1001
0010
,
1100
0100
0011
1000
0110
0010
1001
0001
,
2200
3300
0020
0030
2002
3003
0200
0300
0022
0033
2000
3000
0220
0330
0002
0003
,
2020
3030
0200
0300
2002
3003
0020
0030
0220
0330
2000
3000
0022
0033
0200
0300
,
2002
3003
0100
0000
1010
0000
0001
0000
0110
0000
1000
0000
0101
0000
0100
0000
,
1010
0001
1100
0010
0011
1000
0110
0010
,
1001
0010
1100
0001
0010
1100
0011
0110
,
1000
0100
0011
0100
1001
0010
1100
0001
,
0110
0100
1001
1000
0011
0100
1001
0001
,
0110
0100
1010
0001
0011
1000
0101
0010
,
0001
0000
0000
1000
0000
0000
0010
0000
0000
0100
0000
0000
0001
0000
0000
1000
0000
0000
0100
0000
0000
0010
0000
0000
0001
0000
0010
0000
0100
0000
1000
0000
0001
0000
1000
0000
0100
0000
0010
0000
0001
0000
0100
0000
0000
0000
0000
0000
,
1001
0000
0100
0010
0001
0000
0100
0000
1001
0000
0010
1000
0001
0000
0100
0000
,
1100
0000
0001
0010
0100
0000
1000
0000
0101
0000
1000
0100
0010
0000
0001
0000
,
1001
0000
1000
0010
0100
0000
0001
0000
1010
0000
0100
0010
0001
0000
1000
0000
,
0011
0000
0100
0001
1000
0000
0010
0000
1100
0000
0010
0000
1001
0000
0001
0000
,
1010
0000
0100
0010
0001
0000
0100
0000
1001
0000
0010
1000
0001
0000
0100
0000
,
1100
0000
0001
0010
0100
0000
1000
0000
0101
0000
1000
0100
0010
0000
0001
0000
,
1001
0000
1000
0010
0100
0000
0001
0000
1010
0000
0100
0010
0001
0000
1000
0000
,
0101
0000
0010
0001
1000
0000
0010
0000
1100
0000
0010
0000
1001
0000
0100
0000
,
1000
0100
0010
0001
1000
0100
0010
0001
0100
0010
1000
0100
0010
0001
0100
0010
,
1000
0000
0000
0000
0000
0000
0000
0000
0000
0010
0000
0000
0000
0000
0000
0000
0000
0000
0100
0000
0000
0000
0000
0000
0000
0000
0000
0001
0000
0000
0000
0000
0000
0000
0000
0000
0010
0000
0000
0000
0000
0000
0000
0000
0000
0100
0000
0000
0000
0000
0000
0000
0000
0000
1000
0000
0000
0000
0000
0000
0000
0000
0000
0100
0000
0000
0000
0000
0000
0000
0000
0000
0010
0000
0000
0000
0000
0000
0000
0000
0000
0001
0000
0000
0000
0000
0000
0000
0000
0000
1000
0000
0000
0000
0000
0000
0001
0000
0000
0000
0000
0000
0000
0000
0010
0000
0000
0000
0000
0000
0000
0000
0100
0000
0000
0000
0000
0000
0000
0000
1000
0000
0000
0000
0000
0000
0000
0000
0001
0000
0000
0000
0000
0000
0000
0000
1000
0000
0000
0000
0000
0000
0000
0000
0100
0000
0000
0000
0000
0000
0000
0000
0010
0000
0000
0000
0000
0000
0000
0000
0001
0000
0000
0000
0000
0000
0000
0000
0010
0000
0000
0000
0000
0000
0000
0000
0000
0000
0000
0000
0000
0000
0000
0000
0000
0000
0000
0000
0000
0000
0000
0000
,
1001
0100
1010
0001
0110
1000
0011
1000
,
0110
0001
1100
0010
0101
0010
1001
1001
,
1001
0010
1100
0001
0101
0010
0110
1000
,
1001
0100
1010
0001
1100
0010
0101
0010
,
1001
0010
0101
1000
1100
0001
0011
1000
,
0110
0001
1001
0100
0011
0010
1100
1100
,
1100
0010
0101
1000
0110
0010
1001
0100
,
0011
0000
1000
0000
0110
0000
0001
0000
1000
0100
0010
0000
1001
0000
0010
0100
,
1000
0001
1000
0100
0010
0001
0100
0010
1000
0100
0010
0001
1000
0001
0010
0100
,
1000
0000
0000
0000
0000
0000
0000
0000
0000
0010
0000
0000
0000
0000
0000
0000
0000
0000
0100
0000
0000
0000
0000
0000
0000
0000
0000
0001
0000
0000
0000
0000
0000
0000
0000
0000
0010
0000
0000
0000
0000
0000
0000
0000
0000
0100
0000
0000
0000
0000
0000
0000
0000
0000
1000
0000
0000
0000
0000
0000
0000
0000
0000
0100
0000
0000
0000
0000
0000
0000
0000
0000
0010
0000
0000
0000
0000
0000
0000
0000
0000
0001
0000
0000
0000
0000
0000
0000
0000
0000
1000
0000
0000
0000
0000
0000
0001
0000
0000
0000
0000
0000
0000
0000
0010
0000
0000
0000
0000
0000
0000
0000
0100
0000
0000
0000
0000
0000
0000
0000
1000
0000
0000
0000
0000
0000
0000
0000
0001
0000
0000
0000
0000
0000
0000
0000
1000
0000
0000
0000
0000
0000
0000
0000
0100
0000
0000
0000
0000
0000
0000
0000
0010
0000
0000
0000
0000
0000
0000
0000
0001
0000
0000
0000
0000
0000
0000
0000
0100
0000
0000
0000
0000
0000
0000
0000
0000
0000
0000
0000
0000
0000
0000
0000
0000
0000
0000
0000
0000
0000
0000
0000
,
1001
0000
0100
0010
0001
0000
0100
0000
1001
0000
0010
1000
0001
0000
0100
0000
,
1100
0000
0001
0010
0100
0000
1000
0000
0101
0000
1000
0100
0010
0000
0001
0000
,
1001
0000
1000
0010
0100
0000
0001
0000
1010
0000
0100
0010
0001
0000
1000
0000
,
0011
0000
0100
0001
1000
0000
0010
0000
1100
0000
0010
0000
1001
0000
0001
0000
,
1010
0000
0100
0010
0001
0000
0100
0000
1001
0000
0010
1000
0001
0000
0100
0000
,
1100
0000
0001
0010
0100
0000
1000
0000
0101
0000
1000
0100
0010
0000
0001
0000
,
1001
0000
1000
0010
0100
0000
0001
0000
1010
0000
0100
0010
0001
0000
1000
0000
,
0001
0000
0100
0001
1000
0000
0010
0000
1100
0000
0010
0000
1001
0000
0001
0000
,
1100
0000
0000
0000
,
0000
0000
0000
0000
,
0000
0000
0000
0000
,
0000
0000
0000
0000
,
0000
0000
0000
0000
,
0000
0000
0000
0000
,
0000
0000
0000
0000
,
0000
0000
0000
0000
,
0000
0000
0000
0000
;
