#TITLE:MODEL DD3;
#SUBTITLE:;
#ARTIST:MUTSUHIKO IZUMI;
#TITLETRANSLIT:;
#SUBTITLETRANSLIT:;
#ARTISTTRANSLIT:;
#CREDIT:;
#BANNER:MODEL DD3.png;
#BACKGROUND:MODEL DD3-bg.png;
#LYRICSPATH:;
#CDTITLE:NVLM-cdtitle.png;
#MUSIC:MODEL DD3.mp3;
#OFFSET:-5.376;
#SAMPLESTART:15.819;
#SAMPLELENGTH:12.000;
#SELECTABLE:YES;
#BPMS:0.000=230.000;
#STOPS:;
#BGCHANGES:;
// cache tags:
#FIRSTBEAT:0.000;
#LASTBEAT:276.000;
#SONGFILENAME:Songs/Beyond Legends/MODEL DD3/MODEL DD3.sm;
#HASMUSIC:1;
#HASBANNER:1;
#MUSICLENGTH:79.107;
// end cache tags

//---------------dance-single - ----------------
#NOTES:
     dance-single:
     :
     Hard:
     9:
     0.791,0.741,0.101,0.354,0.000,402.000,8.000,28.000,0.000,0.000:  // measure 1
1000
0001
0010
0001
0100
0000
0100
0010
,  // measure 2
0000
0010
1000
0000
1000
0001
0000
0001
,  // measure 3
0010
0100
1000
0010
0100
0000
0001
0000
,  // measure 4
1000
0000
0100
0010
0001
0100
0001
0000
,  // measure 5
1000
0010
1000
0010
1000
0010
1000
0000
,  // measure 6
0100
0010
0100
0010
0000
0001
0010
0000
,  // measure 7
0001
0010
0100
1000
0100
1000
0010
0100
,  // measure 8
0010
0100
0001
0010
0000
0001
0010
0001
,  // measure 9
0100
0010
0000
1000
0100
1000
0001
0010
,  // measure 10
0100
0010
0100
1000
0010
1000
0010
0100
,  // measure 11
0001
1000
2020
3030
,  // measure 12
0000
0000
0100
0001
1000
0100
0010
0001
,  // measure 13
0200
0000
0000
0000
0300
0000
0010
1000
,  // measure 14
0001
0010
0100
1000
0010
0100
0002
0000
,  // measure 15
0000
0000
2003
0000
,  // measure 16
3010
0100
0202
0303
,  // measure 17
0000
0000
1000
0010
0100
0001
0010
0100
,  // measure 18
2000
0000
0000
3000
0000
0000
0100
0010
,  // measure 19
0001
0010
0001
0100
0010
1000
0100
0010
,  // measure 20
0200
0000
0000
0320
0000
0000
0030
0000
,  // measure 21
1000
0100
1000
0100
1000
0000
0001
0100
,  // measure 22
0001
0100
0001
0000
0010
0100
0010
0100
,  // measure 23
0010
0000
0100
1000
0100
1000
0100
0000
,  // measure 24
1000
0010
1000
0010
1000
0000
0001
0010
,  // measure 25
0001
0010
0001
0000
0010
0100
0010
0100
,  // measure 26
0010
0000
0100
1000
0100
1000
0100
0000
,  // measure 27
1000
0010
1000
0010
0100
0000
0001
0010
,  // measure 28
0001
0010
0100
0000
1000
0010
1000
0001
,  // measure 29
0010
0000
0100
1000
0010
1000
0001
0010
,  // measure 30
0100
1000
0100
1000
0010
0100
0010
0100
,  // measure 31
0001
1000
0001
0100
0001
0000
1000
0100
,  // measure 32
0010
0001
0100
0000
0010
1000
0001
0000
,  // measure 33
1000
0100
0010
0100
1000
0000
0001
0010
,  // measure 34
0100
0010
0001
0000
0100
0010
1000
0100
,  // measure 35
0010
0000
0001
0010
0100
1000
0010
0000
,  // measure 36
0100
0001
1000
0001
0010
0000
0100
1000
,  // measure 37
0001
1000
0010
0000
0100
1000
0010
0100
,  // measure 38
0001
0000
0010
0100
1000
0010
1000
0000
,  // measure 39
0100
0010
0001
0100
0001
0000
1000
0100
,  // measure 40
1000
0010
1000
0001
0100
0010
0100
0001
,  // measure 41
1000
0100
0000
0100
0010
0000
0010
0001
,  // measure 42
0100
0001
0010
0100
0000
0100
1000
0000
,  // measure 43
1000
0010
0100
0001
0100
0001
0000
1000
,  // measure 44
0100
0000
0010
0001
0100
0010
0100
0001
,  // measure 45
1000
0010
1000
0001
0010
0100
1000
0010
,  // measure 46
0100
0001
2002
3003
,  // measure 47
0000
0000
0010
0100
1000
0001
0100
0010
,  // measure 48
2000
0000
0000
0000
3000
0000
0001
0010
,  // measure 49
0100
1000
0010
0100
0001
1000
0200
0000
,  // measure 50
0000
0000
0320
0000
,  // measure 51
0031
1000
2020
3030
,  // measure 52
0000
0000
0001
0100
0010
1000
0100
0010
,  // measure 53
0002
0000
0000
0000
0003
0000
0100
0010
,  // measure 54
1000
0010
1000
0100
0010
0100
2000
0000
,  // measure 55
0000
3002
0000
0003
,  // measure 56
2002
0000
0000
3003
,  // measure 57
0000
0220
0000
0000
,  // measure 58
0330
0000
2002
0000
,  // measure 59
0000
0000
0000
0000
3003
0000
0100
0010
,  // measure 60
0100
0010
1000
0001
1000
0001
0010
0100
,  // measure 61
0010
0100
1000
0010
0100
0001
0010
0100
,  // measure 62
1000
0010
0100
0001
1000
0100
1000
0010
,  // measure 63
0100
0010
0100
0001
0010
0001
0010
0100
,  // measure 64
1000
0100
1000
0010
0100
0010
0100
0001
,  // measure 65
0010
0001
0010
0100
1000
0010
0100
0001
,  // measure 66
1000
0100
0001
0100
1000
0010
0100
0001
,  // measure 67
0010
0100
1000
0100
0010
0001
0010
0001
,  // measure 68
0100
0010
0100
0010
1000
0100
1000
0100
,  // measure 69
0010
0001
0100
0010
0000
0000
2002
0000
,  // measure 70
3003
0000
0000
0000
;

//---------------dance-single - ----------------
#NOTES:
     dance-single:
     :
     Challenge:
     13:
     1.000,1.000,1.000,0.531,1.000,645.000,82.000,42.000,0.000,0.000:  // measure 1
1000
0100
1000
0100
1000
0000
0001
0100
0001
0100
0001
0000
0010
0100
0010
0100
,  // measure 2
1000
0000
0010
0000
0100
0000
0001
0000
0010
0100
0010
0100
1000
0000
0001
0000
,  // measure 3
0010
0000
1000
0100
1000
0100
0010
0000
0100
0000
0010
0000
0001
0010
0100
0000
,  // measure 4
1000
0100
0010
0000
0100
0001
0010
0000
1000
0100
1000
0100
1000
0000
0100
0000
,  // measure 5
1000
0001
1000
0001
1000
0001
1000
0001
1000
0001
1000
0001
1000
0001
1000
0001
,  // measure 6
0100
0010
0100
0010
0100
0010
0100
0010
0100
0000
0001
0010
0000
0000
0100
1000
,  // measure 7
0100
1000
0100
1000
0100
1000
0001
1000
0001
1000
0001
0000
0010
0001
0010
0001
,  // measure 8
0010
0100
1000
0100
1000
0100
1000
0000
0010
0100
0010
0100
0010
0100
0010
1000
,  // measure 9
0100
1000
0100
1000
0100
1000
0100
1000
0010
0100
0010
0100
0010
0100
0010
0100
,  // measure 10
0001
1000
0001
1000
0001
1000
0001
1000
0001
0100
0001
0100
0001
0100
0001
0100
,  // measure 11
1001
0010
1100
0100
2020
0000
3030
0100
,  // measure 12
0101
0010
0100
1000
1010
0100
0001
1000
,  // measure 13
0202
0000
0000
0000
0303
0010
0110
1000
,  // measure 14
0010
0100
0001
1000
1010
0100
0202
0000
,  // measure 15
0000
0000
0000
0303
2020
0000
0000
3030
,  // measure 16
0101
0010
1100
0010
0202
0000
0303
1000
,  // measure 17
0110
0100
0001
0010
0100
1000
0011
0100
,  // measure 18
2002
0000
0000
3003
0010
1000
1100
0010
,  // measure 19
1001
0110
1001
0100
0011
1000
0110
0010
,  // measure 20
2200
0000
3300
0022
0000
0000
0033
0100
,  // measure 21
1000
0100
1000
0000
0010
0000
0100
0000
0001
0010
0001
0000
1000
0000
0010
0000
,  // measure 22
0100
0001
0100
0000
0001
0000
0010
0000
0100
1000
0100
0000
1000
0000
0010
0000
,  // measure 23
0100
0001
0100
0000
0001
0000
0010
0000
0100
1000
0001
0000
1000
0000
0010
0000
,  // measure 24
0001
0100
0001
0000
0100
0000
1000
0000
0010
0100
0010
0000
0001
0000
1000
0000
,  // measure 25
0001
0100
0001
0000
1000
0000
0001
0000
0100
0010
0100
0010
0100
0010
0100
0010
,  // measure 26
0100
0000
0001
0000
1000
0000
0100
0010
0100
0010
0100
0000
0001
0000
0010
0000
,  // measure 27
0100
1000
0100
0000
1000
0000
0010
0000
0100
0001
0100
0000
0001
0000
1000
0000
,  // measure 28
0100
0010
0100
0000
0001
0000
0010
0000
0100
0000
1000
0000
0010
0000
0001
0000
,  // measure 29
0010
0000
0100
0000
1001
0000
0010
0000
0100
0000
0001
0000
1000
0100
1000
0100
,  // measure 30
1000
0100
1000
0100
1000
0100
1000
0100
1000
0100
1000
0100
1000
0100
1000
0100
,  // measure 31
1000
0000
0010
0100
0001
0100
0001
0000
1010
0000
0100
0000
1100
0000
0100
0000
,  // measure 32
0001
0010
0001
0010
0100
0000
1000
0000
0010
0000
0101
0000
0001
0000
1001
0000
,  // measure 33
1000
0000
0100
0000
0010
0000
0001
0000
1000
0000
0100
0010
0001
0000
0010
0000
,  // measure 34
0100
0000
0010
0000
0001
0000
1000
0000
0010
0000
0100
0000
0001
0000
1000
0100
,  // measure 35
0010
0000
0001
0000
0100
0000
0010
0000
1000
0010
1000
0010
1000
0010
1000
0010
,  // measure 36
1000
0001
1000
0001
0010
0100
1001
0100
,  // measure 37
0001
1000
0011
0100
0100
1000
0010
0100
,  // measure 38
1001
0001
0010
1100
1000
0010
1000
0001
,  // measure 39
1100
0000
0010
0000
1001
0000
0100
0000
1001
0000
0010
0000
0100
0001
0100
0001
,  // measure 40
0100
0001
0100
0001
0100
0001
0100
0001
0100
0001
0100
0001
0100
0001
0100
0001
,  // measure 41
1000
0100
0001
0100
0010
1000
0010
0001
,  // measure 42
0100
0001
1010
0100
0001
0100
1000
0001
,  // measure 43
1010
0010
0100
0001
1100
0001
0010
1000
,  // measure 44
0100
0000
1000
0000
1010
0000
0001
0000
0100
0000
0010
0000
0110
0000
0001
1000
,  // measure 45
0001
1000
0001
1000
0001
1000
0001
1000
0001
1000
0001
1000
0001
1000
0001
0000
,  // measure 46
0110
1000
0011
0100
2002
0000
3003
0100
,  // measure 47
0001
1000
0110
0100
1000
1001
0100
0110
,  // measure 48
2002
0000
0000
0000
3003
0100
1001
0010
,  // measure 49
0100
0000
1000
0100
0010
0001
0100
0000
1001
0000
1000
0000
2200
0000
0000
0000
,  // measure 50
0000
0000
0000
3300
0022
0000
0033
0100
,  // measure 51
1001
0010
1100
0001
2020
0000
3030
0100
,  // measure 52
0001
1000
0101
0100
0011
1000
0100
0110
,  // measure 53
2002
0000
0000
0000
3003
0110
0100
0010
,  // measure 54
1001
0010
1100
0100
1010
0100
2002
0000
,  // measure 55
3003
0000
0220
0000
0000
0000
0330
1001
,  // measure 56
2002
0000
0000
3003
,  // measure 57
0110
0110
0220
0000
0000
0000
0000
0000
,  // measure 58
0330
0000
1001
1001
2002
0000
0000
0000
,  // measure 59
0000
0000
0000
0000
0000
0000
0000
0000
3003
0000
0000
0000
0100
0010
0100
0010
,  // measure 60
0100
0010
0100
0010
1000
0001
1000
0001
1000
0001
1000
0001
0010
0000
0110
0000
,  // measure 61
0110
0000
0110
0000
1000
0001
1000
0001
1000
0000
0001
1000
0001
1000
0001
0000
,  // measure 62
0010
0100
0010
0100
0010
0000
0100
0010
0100
0010
0100
0000
1000
0100
1000
0100
,  // measure 63
1000
0000
0100
1000
0100
1000
0100
0000
0010
0001
0010
0001
0010
0000
0001
0010
,  // measure 64
0001
0010
0001
0000
0100
0010
0100
0010
0100
0000
0001
0000
0010
0000
0100
0000
,  // measure 65
1001
1001
1001
1001
0010
0100
0010
0100
,  // measure 66
1000
0001
1000
0001
1000
0001
1000
0001
1000
0001
1000
0001
1000
0001
1000
0001
,  // measure 67
0010
0100
0010
0100
0010
0100
0010
0100
0010
0100
0010
0100
0010
0100
0010
0100
,  // measure 68
1000
0010
1000
0010
1000
0010
1000
0010
1000
0010
1000
0010
1000
0010
1000
0010
,  // measure 69
1000
0010
1000
0001
0100
0001
0220
0000
0000
0000
0330
0000
2002
0000
0000
0000
,  // measure 70
3003
0000
0000
0000
;

//---------------dance-single - ----------------
#NOTES:
     dance-single:
     :
     Medium:
     8:
     0.618,0.741,0.430,0.607,0.000,260.000,34.000,48.000,0.000,0.000:  // measure 1
1000
0000
0000
1000
0100
0000
0000
0100
,  // measure 2
0010
0000
0000
0010
0001
0000
0000
0001
,  // measure 3
0010
0000
0000
0010
0100
0000
0000
0100
,  // measure 4
1000
0000
0100
0001
0100
0001
0100
0001
,  // measure 5
1000
0010
1000
0010
1000
0010
1000
0000
,  // measure 6
0220
0000
0000
0330
0000
0001
0010
0000
,  // measure 7
1000
0100
0001
0010
,  // measure 8
0100
2002
3003
0010
,  // measure 9
0220
0330
0100
0010
,  // measure 10
0100
1000
0100
1000
0100
1000
0100
1000
,  // measure 11
0001
1000
2020
3030
,  // measure 12
0000
0100
1000
0010
,  // measure 13
0220
0000
0330
1000
,  // measure 14
0001
0100
0010
0002
,  // measure 15
0000
0000
2003
0000
,  // measure 16
3010
0100
0202
0303
,  // measure 17
0000
1000
0100
0010
,  // measure 18
2002
0000
3003
0100
,  // measure 19
0001
0010
0100
1000
,  // measure 20
1200
0000
0000
0320
0000
0000
0030
0000
,  // measure 21
1000
0100
1000
0000
0100
0000
0001
0100
,  // measure 22
0001
0000
0010
0000
0100
1000
0100
0000
,  // measure 23
1000
0000
0100
0010
0100
0000
0010
0000
,  // measure 24
0001
0010
0001
0000
0100
0000
0010
1000
,  // measure 25
0010
0000
1000
0000
0001
0010
0001
0000
,  // measure 26
0010
0000
0100
1000
0100
0000
1000
0000
,  // measure 27
0100
0010
0100
0000
0010
0000
0001
0010
,  // measure 28
0001
0010
0100
1000
,  // measure 29
0010
0100
0001
0220
,  // measure 30
0000
0000
0000
0330
,  // measure 31
1001
1000
0010
0100
,  // measure 32
0001
0010
0100
1000
,  // measure 33
1010
0010
0100
0001
,  // measure 34
1001
1000
0100
0010
,  // measure 35
0001
0100
0010
1000
,  // measure 36
1001
0001
0010
0100
,  // measure 37
1000
1010
0010
0100
,  // measure 38
0001
1000
0100
0010
,  // measure 39
0011
0001
0100
2002
,  // measure 40
0000
0000
0000
3003
,  // measure 41
1000
0100
0000
0100
0010
0000
0010
0001
,  // measure 42
0100
0001
0010
0100
0000
0100
1000
0000
,  // measure 43
1000
0010
0100
0001
0100
0001
0000
1000
,  // measure 44
0100
0000
0010
0000
0100
0001
0100
0001
,  // measure 45
1000
2002
0000
3003
,  // measure 46
0100
0001
2002
3003
,  // measure 47
0000
0010
1000
0100
,  // measure 48
2002
0000
3003
0001
,  // measure 49
0100
0010
0001
1200
,  // measure 50
0000
0000
0320
0000
,  // measure 51
0031
1000
2020
3030
,  // measure 52
0000
0001
0010
0100
,  // measure 53
2002
0000
3003
0100
,  // measure 54
0010
0001
0010
2100
,  // measure 55
0000
3002
0000
0003
,  // measure 56
2002
0000
0000
3003
,  // measure 57
0000
0220
0000
0000
,  // measure 58
0330
0000
2002
0000
,  // measure 59
0000
0000
3003
0220
,  // measure 60
0000
0000
0000
0330
,  // measure 61
1001
1000
0010
0100
,  // measure 62
0101
0001
0010
0100
,  // measure 63
1000
1100
0001
0101
,  // measure 64
1000
0010
0100
0001
,  // measure 65
1001
0100
0010
0001
,  // measure 66
1000
0001
1000
0001
1000
0001
1000
0001
,  // measure 67
0100
0010
0100
0010
0100
0010
0100
0010
,  // measure 68
1000
0100
1000
0100
1000
0100
1000
0100
,  // measure 69
0010
0220
0330
2002
,  // measure 70
3003
0000
0000
0000
;

//---------------dance-single - ----------------
#NOTES:
     dance-single:
     :
     Easy:
     6:
     0.560,0.785,0.556,0.733,0.000,208.000,44.000,58.000,0.000,0.000:  // measure 1
1000
0000
0100
0000
,  // measure 2
0010
0000
0001
0000
,  // measure 3
0001
0000
0100
0000
,  // measure 4
1000
0100
0001
0100
,  // measure 5
0001
0010
0100
1000
,  // measure 6
0220
0000
0000
0330
0000
0000
0010
0000
,  // measure 7
1000
0100
0001
0010
,  // measure 8
0100
2002
3003
0010
,  // measure 9
0220
0330
0100
2200
,  // measure 10
0000
0000
0000
0000
0000
0000
0000
3300
,  // measure 11
0001
1000
2020
3030
,  // measure 12
0000
0100
1000
0010
,  // measure 13
0220
0000
0330
1000
,  // measure 14
0001
0100
0010
2002
,  // measure 15
0000
3003
0220
0330
,  // measure 16
0001
0100
0202
0303
,  // measure 17
0000
1000
0100
0010
,  // measure 18
2002
0000
3003
0100
,  // measure 19
0001
0010
0100
1000
,  // measure 20
2200
3300
0022
0033
,  // measure 21
1000
0100
0010
0001
,  // measure 22
0001
0010
0100
1000
,  // measure 23
0010
0100
0001
1000
,  // measure 24
0010
0100
0001
0010
,  // measure 25
0100
1000
0100
0010
,  // measure 26
0001
0100
0010
1000
,  // measure 27
0100
0010
0001
0100
,  // measure 28
0001
0010
0100
1000
,  // measure 29
0010
0100
0001
0202
,  // measure 30
0000
0000
0000
0303
,  // measure 31
1001
0100
0010
0001
,  // measure 32
0001
0010
0100
1000
,  // measure 33
0100
0010
0100
0001
,  // measure 34
0010
1000
0100
0010
,  // measure 35
0001
0100
0010
1000
,  // measure 36
0100
0001
0010
0100
,  // measure 37
1000
0100
0010
0001
,  // measure 38
0100
1000
0100
0010
,  // measure 39
0001
0001
0100
2002
,  // measure 40
0000
0000
0000
3003
,  // measure 41
0100
0010
1000
0001
,  // measure 42
0010
0100
1000
0010
,  // measure 43
0100
0001
1000
0100
,  // measure 44
0010
0001
0100
0010
,  // measure 45
0100
2002
0000
3003
,  // measure 46
0100
0001
2002
3003
,  // measure 47
0000
0010
1000
0100
,  // measure 48
2002
0000
3003
0001
,  // measure 49
0100
0010
1000
2200
,  // measure 50
0000
3300
0022
0033
,  // measure 51
0100
1000
2020
3030
,  // measure 52
0000
0001
0010
0100
,  // measure 53
2002
0000
3003
0100
,  // measure 54
0010
0001
0010
2200
,  // measure 55
3300
0220
0000
0330
,  // measure 56
2002
0000
0000
3003
,  // measure 57
0000
0220
0000
0000
,  // measure 58
0330
0000
2002
0000
,  // measure 59
0000
0000
3003
0220
,  // measure 60
0000
0000
0000
0330
,  // measure 61
1001
1000
0010
0100
,  // measure 62
0001
0001
0010
0100
,  // measure 63
1000
0100
0001
0100
,  // measure 64
1000
0010
0100
0001
,  // measure 65
1000
0100
0010
0001
,  // measure 66
1001
1001
1001
1001
,  // measure 67
0101
0101
0101
0101
,  // measure 68
1100
1100
1100
1100
,  // measure 69
0110
0220
0330
2002
,  // measure 70
3003
0000
0000
0000
;

//---------------dance-double - ----------------
#NOTES:
     dance-double:
     :
     Hard:
     10:
     0.892,0.741,0.126,0.379,0.000,454.000,10.000,30.000,0.000,0.000:  // measure 1
10000000
01000000
00100000
00010000
01000000
00100000
10000000
00010000
,  // measure 2
00100000
00001000
00010000
00000100
00001000
00010000
00100000
00010000
,  // measure 3
00001000
01000000
00100000
10000000
01000000
00100000
00010000
00001000
,  // measure 4
00000100
00000010
00001000
00100000
00010000
01000000
00100000
10000000
,  // measure 5
01000000
00010000
00001000
00000010
00000001
00000100
00001000
00010000
,  // measure 6
01000000
10000000
00100000
01000000
00010000
00100000
00001000
00010000
,  // measure 7
00000100
00001000
00010000
00100000
01000000
10000000
00100000
01000000
,  // measure 8
00010000
00100000
00001000
00010000
01000000
00010000
00001000
00010000
,  // measure 9
00001000
00000100
00000001
00000010
00000100
00001000
00010000
00100000
,  // measure 10
01000000
00100000
01000000
10000000
00100000
10000000
00100000
01000000
,  // measure 11
00010000
00001000
00000100
00000000
00002200
00000000
00003300
00000000
,  // measure 12
00000000
00000001
00000010
00000100
00001000
00010000
00100000
01000000
,  // measure 13
20000000
00000000
00000000
00000000
30000000
01000000
00100000
00001000
,  // measure 14
00010000
00000100
00001000
00010000
00100000
01000000
00020000
00000000
,  // measure 15
00000000
00030000
00002200
00003300
,  // measure 16
00000010
00000001
00001000
00000000
00020200
00000000
00030300
00000000
,  // measure 17
00000000
00100000
10000000
00010000
00100000
00001000
00010000
00000100
,  // measure 18
00002000
00000000
00000000
00003000
00000000
00010000
01000000
00100000
,  // measure 19
00010000
00001000
00000100
00010000
00001000
00000100
00000010
00000001
,  // measure 20
00000200
00000000
00000000
00002300
00000000
00000000
00003000
00000000
,  // measure 21
00010000
00100000
01000000
10000000
00100000
01000000
00001000
00010000
,  // measure 22
00000100
00000010
00000001
00000100
00000010
00001000
00000100
00010000
,  // measure 23
00001000
00100000
01000000
10000000
00100000
01000000
00010000
00100000
,  // measure 24
00001000
00010000
01000000
00010000
00001000
01000000
00001000
00010000
,  // measure 25
00000100
00001000
00000010
00000100
00000001
00001000
00000100
00010000
,  // measure 26
00001000
00100000
00010000
01000000
00100000
10000000
01000000
00010000
,  // measure 27
01000000
00100000
00010000
00001000
00000100
00000001
00000100
00000010
,  // measure 28
00000001
00000100
00000010
00001000
00000100
00010000
00001000
00100000
,  // measure 29
00010000
01000000
00100000
10000000
01000000
00100000
10000000
00010000
,  // measure 30
00100000
00001000
00010000
00000100
00001000
00000010
00010000
00001000
,  // measure 31
00000100
00000010
00000001
00000100
00001000
00010000
00100000
01000000
,  // measure 32
10000000
00010000
01000000
00001000
00100000
00010000
00100000
00001000
,  // measure 33
00010000
00000100
00001000
00010000
00001000
00000100
00000010
00000001
,  // measure 34
00000100
00000010
00001000
00000100
00010000
00001000
00100000
01000000
,  // measure 35
10000000
01000000
00010000
00100000
00001000
00010000
00000100
00001000
,  // measure 36
00000010
00000100
00000001
00001000
00000100
00010000
00001000
00100000
,  // measure 37
00010000
10000000
00100000
01000000
00010000
00100000
00001000
01000000
,  // measure 38
00010000
00001000
00000100
00000010
00000001
00000100
00001000
00010000
,  // measure 39
00100000
01000000
10000000
00100000
01000000
00010000
00100000
00001000
,  // measure 40
00010000
00000100
00001000
00000100
00010000
00001000
00000100
00000010
,  // measure 41
00000001
00000100
00001000
00010000
00100000
01000000
10000000
00010000
,  // measure 42
00100000
00001000
00010000
00000100
00001000
00010000
00100000
01000000
,  // measure 43
10000000
00100000
01000000
00010000
00100000
00001000
00010000
00000100
,  // measure 44
00001000
00000010
00000100
00000001
00000010
00000100
00010000
00100000
,  // measure 45
01000000
10000000
00100000
01000000
00001000
00010000
00100000
00001000
,  // measure 46
00010000
00000100
00001000
00000000
00020020
00000000
00030030
00000000
,  // measure 47
00000000
00001000
00100000
01000000
10000000
00010000
01000000
00100000
,  // measure 48
20000000
00000000
00000000
00000000
30000000
00000000
01000000
00100000
,  // measure 49
00010000
00001000
00000100
00000010
00000001
00000100
00002000
00000000
,  // measure 50
00000000
00003000
00220000
00330000
,  // measure 51
01000000
00001000
00010000
00000000
00020200
00000000
00030300
00000000
,  // measure 52
00000000
00000000
00000001
00000100
00001000
00010000
00100000
10000000
,  // measure 53
02000000
00000000
00000000
00000000
03000000
00000000
01000000
00100000
,  // measure 54
00010000
01000000
00001000
00010000
00000100
00001000
00000020
00000000
,  // measure 55
00000000
00020030
00000000
00030000
,  // measure 56
00022000
00000000
00000000
00000000
00000000
00000000
00000000
00033000
,  // measure 57
00000000
22000000
00000000
00000000
,  // measure 58
00000000
33000000
00000000
00000000
00020200
00000000
00000000
00000000
,  // measure 59
00000000
00000000
00000000
00030300
00000000
00000000
01000000
00010000
,  // measure 60
00100000
00001000
00010000
00000100
00001000
00000010
00000100
00000001
,  // measure 61
00001000
00000100
00010000
00001000
00100000
00010000
01000000
00100000
,  // measure 62
10000000
01000000
00010000
00001000
00000010
00000001
00000100
00001000
,  // measure 63
00010000
00100000
10000000
01000000
00100000
00010000
01000000
00001000
,  // measure 64
00100000
00010000
00001000
00000100
00000010
00000001
00000100
00001000
,  // measure 65
00010000
01000000
00100000
00010000
00100000
10000000
01000000
00010000
,  // measure 66
00001000
00000100
00000010
00000100
00001000
00010000
01000000
00010000
,  // measure 67
00001000
01000000
00100000
10000000
00010000
00100000
00001000
00010000
,  // measure 68
00000100
00001000
00000010
00000100
00001000
00000100
00000001
00000010
,  // measure 69
00000100
00001000
00010000
00100000
01000000
00000000
20020000
00000000
,  // measure 70
30030000
00000000
00000000
00000000
;

//---------------dance-double - ----------------
#NOTES:
     dance-double:
     :
     Challenge:
     13:
     1.000,1.000,1.000,0.581,0.746,580.000,278.000,46.000,0.000,4.000:  // measure 1
10000100
01000001
00100010
00010000
01000010
00100100
10001000
00010000
,  // measure 2
01100000
10001000
01010000
00000100
10001000
01010000
00100000
10010000
,  // measure 3
00001000
01000000
00100000
10000000
01000000
00100000
00010000
00001000
,  // measure 4
00000100
00000010
00001001
00100010
00010100
01001000
00100010
10000100
,  // measure 5
00110000
00001100
00110000
00001100
00110000
00001100
00110000
00001100
00110000
00001100
00110000
00001100
00110000
00001100
00110000
00001100
,  // measure 6
01000000
10000000
00101000
01000000
00011000
00100000
00101000
00010000
,  // measure 7
00000101
00001000
00010001
00100000
01000010
10000100
00101000
01000100
,  // measure 8
00010010
00100100
00001000
00010000
01000000
00010000
00001000
00010000
,  // measure 9
10010000
00001001
10010000
00001001
10010000
00001001
10010000
00001001
10010000
00001001
10010000
00001001
10010000
00001001
10010000
00001001
,  // measure 10
10010000
00001001
10010000
00001001
10010000
00001001
10010000
00001001
10010000
00001001
10010000
00001001
10010000
00001001
10010000
00001001
,  // measure 11
10010000
00001000
00000100
00010000
00222200
00000000
00333300
00000000
,  // measure 12
00000000
00001001
00010010
00000100
00001000
00010000
00100000
01000000
,  // measure 13
20020000
00000000
00000000
00000000
30030000
01000000
00100000
00001000
,  // measure 14
00010000
00000100
00001000
00010000
00100000
01000000
20020000
00000000
,  // measure 15
00000000
00000000
30030000
01001000
00002200
00000000
00003300
00000000
,  // measure 16
00000010
00000001
00001000
00100000
00020200
00000000
00030300
00000000
,  // measure 17
00000000
01100000
10000000
00010000
00100000
00001000
00010000
00000100
,  // measure 18
00002200
00000000
00000000
00003300
00000000
01010000
01000000
00100000
,  // measure 19
00010000
00001000
00000100
00010000
00001000
00000100
00000010
00000001
,  // measure 20
00020200
00000000
00000000
00232300
00000000
00000000
00303000
00000000
,  // measure 21
00011000
00100000
01000000
10000000
00100000
01000000
00001000
00010000
,  // measure 22
00000100
00000010
00000001
00000100
00000010
00001000
00000100
00010000
,  // measure 23
00001000
00100000
01000000
10000100
00101000
01000010
00010100
00100001
,  // measure 24
00001000
00010100
01000010
00010001
00001000
01000000
00001000
00010000
,  // measure 25
00000100
00000000
00001000
00000000
00000010
00000000
00000101
00110000
00000101
00110000
00000101
00110000
00000101
00110000
00000101
00110000
,  // measure 26
00000101
00100000
00010000
01000000
00101000
10000100
01000010
00010001
,  // measure 27
01000100
00100010
00011000
00001000
00000100
00000001
00000100
00000010
,  // measure 28
00001001
00000100
00000010
00001000
00000100
00010000
00001000
00100000
,  // measure 29
00011000
01000000
00100000
10000000
01000000
00100000
10000000
00010000
,  // measure 30
01100000
00001100
01100000
00001100
01100000
00001100
01100000
00001100
01100000
00001100
01100000
00001100
01100000
00001100
01100000
00001100
,  // measure 31
01100000
00000010
00010001
00000100
00001000
00011000
00100000
01000000
,  // measure 32
10010000
00010000
01000000
00001000
00100000
00010000
00100000
01001000
,  // measure 33
01010000
00000100
00001000
00010000
00001000
00000100
00010010
00010001
,  // measure 34
00100100
00000010
00001000
00000100
00010000
00001000
00100000
01000000
,  // measure 35
10000000
01000000
00010000
00100000
00001000
00010000
00000100
00001000
,  // measure 36
00000010
00000100
00000001
00001000
00000100
00010000
00001000
00100000
,  // measure 37
00010000
00000000
10000000
00000000
00100000
00000100
01000000
00000100
00010000
00000100
00100000
00000100
00001000
00000001
01000000
00000001
,  // measure 38
00010000
00001000
00000100
00000010
00000001
00000100
00001000
00010000
,  // measure 39
00100000
01000000
10000000
00100000
01000000
00010000
00100000
00001000
,  // measure 40
00110000
00001100
00110000
00001100
00110000
00001100
00110000
00001100
00110000
00001100
00110000
00001100
00110000
00001100
00110000
00001100
,  // measure 41
10010000
00001001
10010000
00001001
10010000
00001001
10010000
00001001
10010000
00000000
00100000
00000000
00001000
00000000
00010000
00000000
,  // measure 42
00100100
00001000
00010000
00000100
00001000
00010000
00100000
01000000
,  // measure 43
10010000
00100000
01000000
00010000
00100000
00001000
00010000
00000100
,  // measure 44
00011000
00000000
00000010
00000000
00000100
10000000
00000001
10000000
00000010
10000000
00000100
00000000
00010000
00000000
00100000
00000000
,  // measure 45
01010000
00001010
01010000
00001010
01010000
00001010
01010000
00001010
01010000
00001010
01010000
00001010
01010000
00001010
01010000
00001010
,  // measure 46
01010000
00000100
00001000
00000100
00020020
00000000
00030030
00000000
,  // measure 47
00000000
00011000
00100000
01000000
10000000
00010000
01000000
00100000
,  // measure 48
20020000
00000000
00000000
00000000
30030000
00000000
11000000
00100000
,  // measure 49
00010000
00001000
00010100
00000010
00001001
00000100
00022000
00000000
,  // measure 50
00000000
00033000
00220000
00330000
,  // measure 51
01000000
00001000
00010000
00001000
00020200
00000000
00030300
00000000
,  // measure 52
00000000
00000000
00000001
00000100
00001000
00010000
00100000
10000000
,  // measure 53
22000000
00000000
00000000
00000000
33000000
00000000
01000000
00100000
,  // measure 54
00010000
01000000
00001000
00010000
00000100
00001000
00000022
00000000
,  // measure 55
00000000
00000000
00022033
00000000
00000000
00000000
00033000
00100100
,  // measure 56
00022000
00000000
00000000
00000000
00000000
00000000
00000000
00033000
,  // measure 57
00000000
11000000
22000000
00000000
00000000
00000000
00000000
00000000
,  // measure 58
00000000
33000000
00000000
00010100
00020200
00000000
00000000
00000000
,  // measure 59
00000000
00000000
00000000
00000000
00000000
00000000
00030300
00000000
00000000
00000000
00000000
00000000
00110000
00001001
00110000
00001001
,  // measure 60
00110000
00001001
00110000
00001001
00110000
00001001
00110000
00001001
00110000
00001001
00110000
00001001
00110000
00001001
00110000
00001001
,  // measure 61
00110000
00001001
00110000
00001001
00010000
00000000
00001000
10000000
00100000
00000000
00010000
00000000
01000000
00000000
00100000
00000000
,  // measure 62
10000000
00000000
01000000
00100000
00010000
00000000
00001000
00000000
00000010
00000000
00000001
10000000
00000100
10000000
00001000
00000000
,  // measure 63
00010000
00000010
00100000
00000010
10000000
00000010
01000000
00000010
00100000
00000010
00010000
00000010
01000000
00000010
00001000
00000000
,  // measure 64
00100000
10000000
00010000
10000000
00001000
10000000
00000100
10000000
00000010
10000000
00000001
10000000
00000100
10000000
00001000
00000000
,  // measure 65
00010000
01000000
00100000
00010000
00100000
10000000
01000000
00010000
,  // measure 66
00001000
00000000
00000100
00000000
00000010
00000000
00000100
00000000
00001000
00000000
00010000
00000000
10010000
00001001
10010000
00001001
,  // measure 67
10010000
00001001
10010000
00001001
10010000
00001001
10010000
00001001
10010000
00001001
10010000
00001001
10010000
00001001
10010000
00001001
,  // measure 68
00110000
00001100
00110000
00001100
00110000
00001100
00110000
00001100
00110000
00001100
00110000
00001100
00110000
00001100
00110000
00001100
,  // measure 69
01010000
00001010
01010000
00001010
01010000
00001010
01010000
00001010
02020000
00000000
03030000
00000000
00222200
00000000
00000000
00000000
,  // measure 70
00333300
00000000
00000000
00000000
;
