#TITLE:Marble Zone;
#SUBTITLE:Sonic the Hedgehog;
#ARTIST:SEGA;
#TITLETRANSLIT:;
#SUBTITLETRANSLIT:;
#ARTISTTRANSLIT:;
#CREDIT:;
#BANNER:Marble Zone.jpg;
#BACKGROUND:Marble Zone-bg.jpg;
#LYRICSPATH:;
#CDTITLE:silvuhlogo.png;
#MUSIC:Marble Zone.mp3;
#OFFSET:-0.057;
#SAMPLESTART:30.375;
#SAMPLELENGTH:11.560;
#SELECTABLE:YES;
#BPMS:0.000=133.170;
#STOPS:;
#BGCHANGES:;
// cache tags:
#FIRSTBEAT:0.000;
#LASTBEAT:175.500;
#SONGFILENAME:Songs/VGMP 2/Marble Zone (Silvuh)/Marble Zone.sm;
#HASMUSIC:1;
#HASBANNER:1;
#MUSICLENGTH:81.579;
// end cache tags

//---------------dance-single - ----------------
#NOTES:
     dance-single:
     :
     Challenge:
     11:
     1.000,1.000,1.000,0.662,0.251,388.000,222.000,54.000,0.000,104.000:

0111
0111
0111
0000
0000
0000
2220
0000
3330
0000
1010
0000
1010
0000
1101
0000
,
0101
1020
1030
1101
0110
1002
1003
1101
,
0110
1002
1003
1101
0110
1001
1010
1110
,
0110
1010
1000
1101
0120
1000
1000
1100
,
0100
0000
1030
0100
0010
0001
0100
0010
0001
0100
0010
0001
0010
0001
1000
0100
,
0010
0001
1012
0000
1003
0000
1101
0000
0110
0000
1002
0000
1003
0000
1101
0000
,
0110
1002
1003
1101
0110
1002
1003
1102
,
0103
1002
1000
1103
0120
1000
1000
1100
,
0101
1000
1001
1101
0100
1031
1011
1101
,
0110
1002
1003
1101
0110
1002
1003
1101
,
0110
1002
1003
1101
0110
1001
1010
1110
,
0101
1002
1003
1101
0120
1000
1000
1100
,
0130
0000
1001
0010
0100
1000
0010
0100
1000
0010
0100
1000
0100
1000
0001
0010
,
0100
1000
1120
0000
1000
0000
1100
0000
0100
0000
1000
0000
1030
0000
1102
0000
,
0103
1020
1000
1100
0100
1000
1030
1102
,
0103
1002
1003
1110
0120
1000
1000
1100
,
0101
1000
1001
1101
0100
1001
1002
1100
,
0133
0000
1100
0000
0001
0100
1011
0000
0110
0000
1000
0000
0011
0000
1110
0000
,
1100
0000
1100
0000
0001
0100
1011
0000
0110
0000
1100
0000
0011
0000
1011
0000
,
0110
0000
1100
0000
0001
0100
1011
0000
0110
0000
1000
0000
0011
0000
1110
0000
,
1100
0000
1100
0000
0001
0100
1011
0000
0110
0000
1100
0000
0011
0000
1011
0000
,
0110
1020
1030
1101
0110
1002
1003
1101
,
0110
1002
1003
1101
0110
1001
1010
1110
,
0110
1010
1000
1101
0120
1000
1000
1100
,
0100
0000
1030
0100
0010
0001
0100
0010
0001
0100
0010
0001
0010
0001
1000
0100
,
0010
0001
1012
0000
1003
0000
1101
0000
0110
0000
1002
0000
1003
0000
1101
0000
,
0110
1002
1003
1101
0110
1002
1003
1102
,
0103
1002
1000
1103
0120
1000
1000
1100
,
0101
1000
1001
1101
0100
1031
1011
1101
,
0110
1002
1003
1101
0110
1002
1003
1101
,
0110
1002
1003
1101
0110
1001
1010
1110
,
0101
1002
1003
1101
0120
1000
1000
1100
,
0130
0000
1001
0010
0100
1000
0010
0100
1000
0010
0100
1000
0100
1000
0001
0010
,
0100
1000
1120
0000
1000
0000
1100
0000
0100
0000
1000
0000
1030
0000
1102
0000
,
0103
1020
1000
1100
0100
1000
1030
1102
,
0103
1002
1003
1110
0120
1000
1000
1100
,
0101
1000
1001
1101
0100
1001
1002
1100
,
0133
0000
1100
0000
0001
0100
1011
0000
0110
0000
1000
0000
0011
0000
1110
0000
,
1100
0000
1100
0000
0001
0100
1011
0000
0110
0000
1100
0000
0011
0000
1011
0000
,
0110
0000
1100
0000
0001
0100
1011
0000
0110
0000
1000
0000
0011
0000
1110
0000
,
1100
0000
1100
0000
0001
0100
1011
0000
0110
0000
1100
0000
0011
0000
1011
0000
,
0110
1020
1030
1101
0110
1002
1003
1101
,
0110
1002
1003
1101
0110
1001
1010
1110
,
0110
1010
1000
1101
0220
0000
0000
0330
;

//---------------dance-single - ----------------
#NOTES:
     dance-single:
     :
     Hard:
     10:
     0.946,0.807,1.000,0.686,0.251,374.000,110.000,56.000,0.000,0.000:



1010
1010
1010
0000
0000
0000
2200
0000
3300
0000
0010
0000
0100
0000
0010
0000
,
0001
1020
1030
1100
0010
1002
1003
1100
,
0010
1002
1003
1100
0010
1002
0013
0100
,
1000
1010
1000
0101
0120
1000
1000
0100
,
0100
0000
1030
0100
1000
0100
0010
0100
0010
0100
0010
0001
0010
0001
1000
0100
,
1000
0100
1020
0000
1030
0000
0100
0000
0010
0000
1002
0000
1003
0000
0100
0000
,
0010
1002
1003
0100
0010
1002
1003
0012
,
0103
1002
1000
0103
0120
1000
1000
0100
,
0001
0000
0001
0100
0000
0130
1100
1100
,
0110
1002
1003
0100
0010
1002
1003
0100
,
0010
1002
1003
0100
0010
1001
1010
0110
,
0001
1002
1003
0101
0120
1000
1000
0100
,
0130
0000
0001
0010
0001
0010
0100
0010
0100
0010
0001
0010
0001
0010
0100
1000
,
0100
1000
0120
0000
1000
0000
0100
0000
0100
0000
1000
0000
1030
0000
0102
0000
,
0103
1020
1000
0100
0100
1000
1030
0102
,
0103
1002
1003
0110
0120
1000
1000
0000
,
0001
0000
0001
0100
0000
0100
2000
0000
,
3030
0000
1000
0000
0001
0100
1000
0000
0010
0000
1000
0000
0001
0000
0010
0000
,
1100
0000
0100
0000
0001
0100
0001
0000
0010
0000
1100
0000
0110
0000
0011
0000
,
0110
0000
1100
0000
0001
0100
1000
0000
0010
0000
1000
0000
0001
0000
0010
0000
,
1100
0000
0100
0000
0001
0100
0001
0000
0110
0000
1100
0000
1010
0000
0110
0000
,
0101
1020
1030
1100
0010
1002
1003
1100
,
0010
1002
1003
1100
0010
1002
0013
0100
,
1000
1010
1000
0101
0120
1000
1000
0100
,
0100
0000
1030
0100
1000
0100
0010
0100
0010
0100
0010
0001
0010
0001
1000
0100
,
1000
0100
1020
0000
1030
0000
0100
0000
0010
0000
1002
0000
1003
0000
0100
0000
,
0010
1002
1003
0100
0010
1002
1003
0012
,
0103
1002
1000
0103
0120
1000
1000
0100
,
0001
0000
0001
0100
0000
0130
1100
1100
,
0110
1002
1003
0100
0010
1002
1003
0100
,
0010
1002
1003
0100
0010
1001
1010
0110
,
0001
1002
1003
0101
0120
1000
1000
0100
,
0130
0000
0001
0010
0001
0010
0100
0010
0100
0010
0001
0010
0001
0010
0100
1000
,
0100
1000
0120
0000
1000
0000
0100
0000
0100
0000
1000
0000
1030
0000
0102
0000
,
0103
1020
1000
0100
0100
1000
1030
0102
,
0103
1002
1003
0110
0120
1000
1000
0000
,
0001
0000
0001
0100
0000
0100
2000
0000
,
3030
0000
1000
0000
0001
0100
1000
0000
0010
0000
1000
0000
0001
0000
0010
0000
,
1100
0000
0100
0000
0001
0100
0001
0000
0010
0000
1100
0000
0110
0000
0011
0000
,
0110
0000
1100
0000
0001
0100
1000
0000
0010
0000
1000
0000
0001
0000
0010
0000
,
1100
0000
0100
0000
0001
0100
0001
0000
0110
0000
1100
0000
1010
0000
0110
0000
,
0101
1020
1030
1100
0010
1002
1003
1100
,
0010
1002
1003
1100
0010
1002
0013
0100
,
1000
1010
1000
0101
0220
0000
0000
0330
;

//---------------dance-single - ----------------
#NOTES:
     dance-single:
     :
     Medium:
     7:
     0.655,0.592,0.331,0.674,0.055,292.000,27.000,55.000,0.000,0.000:



0010
0010
0010
0000
0000
0000
2200
0000
3300
0000
0010
0000
0100
0000
0010
0000
,
0001
0020
0030
1000
0010
0002
0003
1000
,
0010
0002
0003
1000
0010
0002
0013
0100
,
1000
1010
0000
0001
0020
0000
0000
0000
,
0000
0031
0001
0010
0010
0100
0100
1000
,
1000
1020
1030
0100
0010
0002
0003
1000
,
0010
0002
0003
1000
0010
0020
0030
0002
,
0003
0020
0000
0030
0200
0000
0000
0000
,
0001
0000
0001
0010
0000
0310
1000
0100
,
0010
0002
0003
1000
0010
0002
0003
1000
,
0010
0002
0003
1000
0010
0001
0010
0100
,
0001
1002
0003
0001
0120
1000
1000
0100
,
0130
0001
0001
0010
0010
0100
0100
1000
,
1000
0120
1000
0100
0100
1000
1030
0102
,
0103
1020
1000
0100
0100
1000
1030
0102
,
0103
1002
1003
0110
0120
0000
0000
0000
,
0001
0000
0001
0100
0000
0100
2000
0000
,
3030
0000
1000
0000
0001
0100
1000
0000
0010
0000
1000
0000
0001
0000
0010
0000
,
0100
0000
1000
0000
0001
0100
0001
0000
0010
0000
1000
0000
0100
0000
0001
0000
,
0010
0000
1000
0000
0001
0100
1000
0000
0010
0000
1000
0000
0001
0000
0010
0000
,
0100
0000
1000
0000
0001
0100
0001
0000
0010
0000
1000
0000
0100
0000
0001
0000
,
0010
0020
0030
1000
0010
0002
0003
1000
,
0010
0002
0003
1000
0010
0002
0013
0100
,
1000
1010
0000
0001
0020
0000
0000
0000
,
0000
0031
0001
0010
0010
0100
0100
1000
,
1000
1020
1030
0100
0010
0002
0003
1000
,
0010
0002
0003
1000
0010
0020
0030
0002
,
0003
0020
0000
0030
0200
0000
0000
0000
,
0001
0000
0001
0010
0000
0310
1000
0100
,
0010
0002
0003
1000
0010
0002
0003
1000
,
0010
0002
0003
1000
0010
0001
0010
0100
,
0001
1002
0003
0001
0120
1000
1000
0100
,
0130
0001
0001
0010
0010
0100
0100
1000
,
1000
0120
1000
0100
0100
1000
1030
0102
,
0103
1020
1000
0100
0100
1000
1030
0102
,
0103
1002
1003
0110
0120
0000
0000
0000
,
0001
0000
0001
0100
0000
0100
2000
0000
,
3030
0000
1000
0000
0001
0100
1000
0000
0010
0000
1000
0000
0001
0000
0010
0000
,
0100
0000
1000
0000
0001
0100
0001
0000
0010
0000
1000
0000
0100
0000
0001
0000
,
0010
0000
1000
0000
0001
0100
1000
0000
0010
0000
1000
0000
0001
0000
0010
0000
,
0100
0000
1000
0000
0001
0100
0001
0000
0010
0000
1000
0000
0100
0000
0001
0000
,
0010
0020
0030
1100
0010
0002
0003
1100
,
0010
0002
0003
1100
0010
0002
0013
0100
,
1000
1010
0000
0001
0020
0000
0000
0030
;

//---------------dance-single - ----------------
#NOTES:
     dance-single:
     :
     Easy:
     5:
     0.420,0.350,0.012,0.306,0.000,214.000,1.000,25.000,0.000,0.000:



0010
0000
0000
1100
0000
0010
0100
0010
,
0001
0010
0000
1000
0010
0001
0000
1000
,
0010
0001
0000
1000
0010
0001
0010
0100
,
1000
0010
0000
0001
0020
0000
0000
0000
,
0000
0031
0000
0010
0000
0100
0000
1000
,
0000
1000
0000
0100
0010
0001
0000
1000
,
0010
0001
0000
1000
0100
0010
0000
0001
,
0000
0020
0000
0030
0200
0000
0000
0000
,
0001
0000
0001
0010
0000
0310
1000
0100
,
0010
0001
0000
1000
0010
0001
0000
1000
,
0010
0001
0000
1000
0010
0001
0010
0100
,
1000
0200
0300
0001
0020
0000
0000
0000
,
0030
0001
0000
0010
0000
0100
0000
1000
,
0000
0200
0000
0000
0000
0300
0000
0002
,
0003
2000
0000
0000
0000
0000
3000
0002
,
0003
0002
0003
0010
0020
0000
0000
0000
,
0001
0000
0001
0100
0000
0100
2000
0000
,
3030
0000
0001
0010
0100
0000
0010
0100
,
1000
0000
0001
0010
0100
0000
0010
0100
,
1000
0000
0001
0010
0100
0000
0010
0100
,
1000
0000
0001
0010
0100
0000
0010
1000
,
0010
0001
0000
1000
0010
0001
0000
1000
,
0010
0001
0000
1000
0010
0001
0010
0100
,
1000
0010
0000
0001
0020
0000
0000
0000
,
0000
0031
0000
0010
0000
0100
0000
1000
,
0000
1000
0000
0100
0010
0001
0000
1000
,
0010
0001
0000
1000
0100
0010
0000
0001
,
0000
0020
0000
0030
0200
0000
0000
0000
,
0001
0000
0001
0010
0000
0310
1000
0100
,
0010
0001
0000
1000
0010
0001
0000
1000
,
0010
0001
0000
1000
0010
0001
0010
0100
,
1000
0200
0300
0001
0020
0000
0000
0000
,
0030
0001
0000
0010
0000
0100
0000
1000
,
0000
0200
0000
0000
0000
0300
0000
0002
,
0003
2000
0000
0000
0000
0000
3000
0002
,
0003
0002
0003
0010
0020
0000
0000
0000
,
0001
0000
0001
0100
0000
0100
2000
0000
,
3030
0000
0001
0010
0100
0000
0010
0100
,
1000
0000
0001
0010
0100
0000
0010
0100
,
1000
0000
0001
0010
0100
0000
0010
0100
,
1000
0000
0001
0010
0100
0000
0010
0100
,
1000
0010
0000
1000
0010
0001
0000
1000
,
0010
0001
0000
1000
0010
0001
0010
0100
,
1000
0010
0000
0001
0020
0000
0000
0030
;

//---------------dance-single - ----------------
#NOTES:
     dance-single:
     :
     Beginner:
     3:
     0.310,0.269,0.000,0.282,0.000,154.000,0.000,23.000,0.000,0.000:



0010
0000
0000
1000
0000
0100
0000
0100
,
0000
0010
0000
1000
0000
0001
0000
1000
,
0000
0001
0000
1000
0000
0001
0000
0100
,
0000
0010
0000
0001
0020
0000
0000
0000
,
0000
0031
0000
0010
0000
0100
0000
1000
,
0000
1000
0000
1000
0000
0001
0000
1000
,
0000
0001
0000
1000
0000
0001
0000
0001
,
0000
0020
0000
0030
0200
0000
0000
0000
,
0001
0000
0010
0000
0000
1300
0000
0000
,
0000
0001
0000
1000
0000
0001
0000
1000
,
0000
0001
0000
1000
0000
0001
0000
0100
,
0000
0200
0300
0000
0020
0000
0000
0000
,
0030
0001
0000
0010
0000
0100
0000
1000
,
0000
0200
0000
0000
0000
0300
0000
0002
,
0003
2000
0000
0000
0000
0000
3000
0002
,
0003
0002
0003
0000
0020
0000
0000
0000
,
0001
0000
0000
0100
0000
0100
0000
0000
,
0030
1000
0000
0100
0000
0001
0000
0010
,
1000
1000
0000
0100
0000
0001
0000
0010
,
0000
1000
0000
0100
0000
0001
0000
0010
,
1000
1000
0000
0100
0000
0001
0000
0010
,
0000
0010
0000
1000
0000
0001
0000
1000
,
0000
0001
0000
1000
0000
0001
0000
0100
,
0000
0010
0000
0001
0020
0000
0000
0000
,
0000
0031
0000
0010
0000
0100
0000
1000
,
0000
1000
0000
1000
0000
0001
0000
1000
,
0000
0001
0000
1000
0000
0001
0000
0001
,
0000
0020
0000
0030
0200
0000
0000
0000
,
0001
0000
0010
0000
0000
1300
0000
0000
,
0000
0001
0000
1000
0000
0001
0000
1000
,
0000
0001
0000
1000
0000
0001
0000
0100
,
0000
0200
0300
0000
0020
0000
0000
0000
,
0030
0001
0000
0010
0000
0100
0000
1000
,
0000
0200
0000
0000
0000
0300
0000
0002
,
0003
2000
0000
0000
0000
0000
3000
0002
,
0003
0002
0003
0000
0020
0000
0000
0000
,
0001
0000
0000
0100
0000
0100
0000
0000
,
0030
1000
0000
0100
0000
0001
0000
0010
,
1000
1000
0000
0100
0000
0001
0000
0010
,
0000
1000
0000
0100
0000
0001
0000
0010
,
1000
1000
0000
0100
0000
0001
0000
0010
,
1000
0010
0000
1000
0000
0001
0000
1000
,
0000
0001
0000
1000
0000
0001
0000
0100
,
0000
0010
0000
0001
0020
0000
0000
0030
;
