#TITLE:The Others;
#SUBTITLE:;
#ARTIST:DJ Sharpnel;
#TITLETRANSLIT:;
#SUBTITLETRANSLIT:;
#ARTISTTRANSLIT:;
#CREDIT:;
#BANNER:the others full bn.png;
#BACKGROUND:the others full bg.png;
#LYRICSPATH:;
#CDTITLE:;
#MUSIC:The Others.ogg;
#OFFSET:-0.049;
#SAMPLESTART:126.202;
#SAMPLELENGTH:20.914;
#SELECTABLE:YES;
#DISPLAYBPM:184.000;
#BPMS:0.000=183.600,259.000=91.800,274.000=183.600,290.000=275.400,292.000=183.600,360.000=91.800,361.000=45.900,362.000=91.800,363.000=183.600,619.000=91.800,620.000=61.200,621.000=91.800,621.500=45.900,622.000=91.800,638.000=183.600;
#STOPS:269.500=0.041
,269.625=0.041
,269.750=0.041
,269.875=0.041
,270.000=0.040
,270.125=0.041
,270.250=0.041
,270.375=0.041
,270.500=0.041
,270.625=0.040
,270.750=0.041
,270.875=0.041
,271.000=0.041
,271.125=0.041
,271.250=0.040
,271.375=0.041
,271.500=0.041
,271.625=0.041
,271.750=0.041
,271.875=0.040
,272.000=0.041
,272.125=0.041
,272.250=0.041
,272.375=0.041
,272.500=0.040
,272.625=0.041
,272.750=0.041
,272.875=0.041
,273.000=0.041
,273.125=0.041
,273.250=0.041
,273.375=0.041
,273.500=0.041
,273.625=0.041
,273.750=0.041
,273.875=0.040
,274.000=0.041
,274.250=0.041
,274.500=0.041
,274.750=0.041
,290.000=0.055
,290.500=0.054
,291.000=0.055
,291.500=0.054
;
#BGCHANGES:;
// cache tags:
#FIRSTBEAT:32.000;
#LASTBEAT:794.000;
#SONGFILENAME:Songs/SHARPNELSTREAMZ v2/The Others/The Others.sm;
#HASMUSIC:1;
#HASBANNER:1;
#MUSICLENGTH:274.729;
// end cache tags

//---------------dance-single - 14 (TYLR)----------------
#NOTES:
     dance-single:
     14 (TYLR):
     Hard:
     14:
     1.000,1.000,0.051,0.317,1.000,2179.000,14.000,87.000,23.000,0.000:
0000
0000
0000
0000
,
0000
0000
0000
0000
,
0000
0000
0000
0000
,
0000
0000
0000
0000
,
0000
0000
0000
0000
,
0000
0000
0000
0000
,
0000
0000
0000
0000
,
0000
0000
0000
0000
,
1010
0010
0100
0001
0100
0010
1000
0100
,
0010
0001
1000
0001
0100
0020
1000
0000
,
0130
0001
1000
0100
0010
0100
1000
0010
,
0100
0000
0001
0000
0010
0000
0100
0000
1000
0000
0001
1000
0100
0010
0001
0100
,
0010
0100
0010
1000
0001
1000
0010
0100
,
0001
0010
0100
1000
0010
0200
0001
0000
,
0310
1000
0001
0010
0100
0010
0001
0100
,
0010
1000
0010
0100
0001
1000
0001
0100
0010
1000
0100
0010
0001
0010
0100
1000
,
0010
1000
0010
0000
0100
0000
0010
0000
1000
0001
1000
0000
0100
0010
0000
0010
,
0001
1000
0001
0000
0100
0000
0001
0000
1000
0010
1000
0000
0001
1000
0000
1000
,
0100
0010
0100
0000
1000
0000
0100
0000
0010
0001
0010
0000
0100
1000
0000
1000
,
0010
0100
0001
0000
1000
0000
0001
0000
0100
0000
0001
0010
0100
1000
0100
1000
,
0001
0100
0010
0000
0010
0000
0100
0000
1000
0001
0100
0000
0010
1000
0000
1000
,
0001
0010
0100
0000
1000
0000
0001
0000
0100
0010
1000
0000
0001
0010
0000
0010
,
0100
1000
0001
0000
0100
0000
0010
0000
1000
0001
0100
0000
0001
1000
0000
1000
,
0200
0000
0310
0000
0100
0000
1000
0000
0001
0000
1000
0010
0100
0001
0010
0100
,
1000
0001
0100
0001
0100
0010
1000
0100
,
0010
0100
1000
0001
0100
0020
1000
0000
,
0130
0000
0001
0000
1000
0000
0100
0000
0010
0000
0100
0000
1000
0010
0000
0010
,
0100
0001
1000
0000
0100
0000
1000
0000
0001
0000
0100
0010
1000
0001
1000
0100
,
0010
0001
1000
0000
0010
0000
1000
0000
0100
0010
0001
0000
1000
0010
0000
0010
,
0100
0001
1000
0000
0100
0000
1000
0000
0010
0100
0001
0000
1000
0100
0000
0100
,
0010
0001
1000
0000
0010
0000
0100
0000
0001
0100
0010
0000
1000
0100
0000
0100
,
0040
0004
0000
0000
0000
0000
0000
0000
0000
0000
0000
0000
0000
0000
0000
0030
,
0103
0000
0010
1000
0000
0001
0010
0001
0100
0000
0100
0010
0000
1000
0001
1000
,
0001
0000
0010
0100
0000
1000
0001
1000
0010
0000
0010
0100
0000
0010
1000
0010
,
1000
0000
0001
0010
0000
0100
1000
0001
0100
0000
0100
0010
0000
1000
0001
1000
,
0001
0000
0010
0100
0000
1000
0100
1000
0010
0000
0010
0100
0001
1000
0100
0010
,
0001
0000
1000
0010
0000
0100
0001
1000
0100
0000
0100
0010
0000
0001
0010
0001
,
1000
0000
0010
0100
0000
0001
0100
0001
0010
0000
0010
0100
0000
1000
0100
1000
,
0001
0000
1000
0010
0000
0100
0001
0100
0010
0000
0010
1000
0000
0001
1000
0001
,
0010
0000
0100
1000
0000
0010
1000
0010
0100
0000
0100
0001
1000
0001
0010
0100
,
1000
0000
0001
0100
0000
0010
1000
0001
0010
0000
0010
0100
0000
1000
0001
1000
,
0001
0000
0010
0100
0000
1000
0001
1000
0010
0000
0010
0100
0000
0010
1000
0010
,
1000
0000
0001
0010
0000
0100
1000
0001
0100
0000
0100
0010
0000
1000
0001
1000
,
0001
0000
0010
0100
0000
1000
0100
1000
0010
0000
0010
0100
0001
1000
0100
0010
,
0001
0000
1000
0010
0000
0100
0001
1000
0100
0000
0100
0010
0000
0001
0010
0001
,
1000
0000
0010
0100
0000
0001
0100
0001
0010
0000
0010
0100
0000
1000
0001
1000
,
0100
0100
0001
0100
0100
1000
0010
1000
0100
0100
0001
0100
0100
0010
0001
0010
,
0100
0100
0001
0100
0100
1000
0010
1000
0002
0000
0023
0000
0230
0000
2300
0000
,
3001
0000
1000
0100
0000
0010
0001
1000
0010
0000
0010
0100
0000
0001
1000
0001
,
1000
0000
0100
0010
0000
0001
1000
0001
0100
0000
0100
0010
0000
0100
0001
0100
,
0001
0000
1000
0100
0000
0010
0001
1000
0010
0000
0010
0100
0000
0001
1000
0001
,
1000
0000
0100
0010
0000
0001
0010
0001
0100
0000
0100
0010
1000
0001
0010
0100
,
1000
0000
0001
0100
0000
0010
1000
0001
0010
0000
0010
0100
0000
1000
0100
1000
,
0001
0000
0100
0010
0000
1000
0010
1000
0100
0000
0100
0010
0000
0001
0010
0001
,
1000
0000
0001
0100
0000
0010
1000
0010
0100
0000
0100
0001
0000
1000
0001
1000
,
0100
0000
0010
0001
0000
0100
0001
0100
0010
0000
0010
1000
0001
1000
0100
0010
,
0001
0000
1000
0010
0000
1000
0001
1000
0100
0000
0100
0010
0000
0001
1000
0001
,
1000
0000
0100
0010
0000
0001
1000
0001
0100
0000
0100
0010
0000
0100
0001
0100
,
0001
0000
1000
0100
0000
0010
0001
1000
0010
0000
0010
0100
0000
0001
1000
0001
,
1000
0000
0100
0010
0000
0001
0010
0001
0100
0000
0100
0010
1000
0001
1000
0100
,
0010
0000
0001
1000
0000
0001
0100
0010
1000
0000
1000
0100
0000
0010
0100
0010
,
0001
0000
1000
0010
0000
0100
0010
0100
0001
0000
0001
1000
0000
0001
0010
0001
,
1000
0000
0001
0100
0000
0010
1000
0001
0010
0000
0100
1000
0000
0001
1000
0001
,
1000
0000
0100
0010
0000
0001
0010
0001
0100
0000
0010
1000
0000
0010
0100
0001
,
2000
0000
0000
0000
0000
0000
0000
0000
0000
0000
0000
0000
3000
M000
0000
0000
,
0000
0000
0000
000M
0000
M000
0000
00M0
,
0000
0M00
0000
000M
0000
M0M0
0000
0M00
,
0000
0000
0000
0000
0000
0000
0000
0000
00M0
0000
0000
0000
0000
0000
0000
0000
0000
0000
0000
0000
0000
0000
0000
0000
M000
0000
0000
0000
0000
0000
0000
0000
0000
0000
000M
0000
0000
0000
0000
0000
0000
0000
0000
0000
0000
0M00
0000
0000
0000
0000
0000
0000
0000
0000
0000
0000
M000
0000
0000
0000
0000
0000
0000
0000
,
0000
0000
000M
0000
0000
0000
0000
0000
0000
0000
0000
0000
0000
0M00
0000
0000
0000
0000
0000
0000
0000
0000
0000
0000
00M0
0000
0000
0000
0000
0000
0000
0000
0000
0000
0000
0000
0000
0000
0000
0000
0000
0000
0000
0000
0000
0000
0000
0000
0000
0000
0000
0000
0000
0000
0000
0000
0000
0000
0000
0000
0000
0000
0000
0000
,
1001
0000
0000
1001
0000
0000
0000
0000
,
1001
0000
0000
0000
0000
0000
0000
0000
0001
0000
0000
0000
0000
0000
0000
0000
0001
0000
0000
0000
0000
0000
0000
0000
0000
0000
0000
0000
0000
0000
0000
0000
2000
0000
0000
0000
0000
0000
0000
0000
0000
0000
0000
0000
0000
0000
0000
0000
3200
0000
0000
0000
0000
0000
0000
0000
0000
0000
0000
0000
0000
0000
0000
0300
,
0011
0000
0000
1001
0000
0000
0000
0000
,
1001
0000
1000
0000
1000
0000
0000
0000
0020
0030
0020
0030
0200
0300
0200
0300
,
0101
0000
0000
1001
0000
0000
0000
0000
,
1001
0001
0001
0000
0020
0000
0230
0000
,
1300
0000
0000
0000
0000
0000
0000
0000
0000
1000
0000
0000
0000
0000
0000
0000
0000
0000
0000
0000
0000
0001
0010
0001
,
0010
0000
0000
0000
0000
0000
0000
0000
0000
0010
0000
0000
0000
0000
0000
0000
0000
0000
0000
0000
0000
0100
1000
0100
,
1000
0000
0000
0000
0000
0000
0000
0000
0000
1000
0000
0000
0000
0000
0000
0000
0000
0000
0000
0000
0000
0001
1000
0001
,
1000
0000
0000
0000
0000
0000
0000
0000
0000
1000
0000
0000
0000
0000
0000
0000
0000
0000
0000
0000
0000
1000
0010
1000
,
0010
0000
0000
0000
0000
0000
0000
0000
0000
0010
0000
0000
0000
0000
0000
0000
0000
0000
0000
0000
0000
0100
0001
0100
,
0001
0000
0000
0000
0000
0000
0000
0000
0000
0001
0000
0000
0000
0000
0000
0000
0000
0000
0000
0000
0000
1000
0100
1000
,
0100
0000
0000
0000
0000
0000
0000
0000
0000
0100
0000
0000
0000
0000
0000
0000
0000
0000
0000
0000
0000
0010
0001
0010
,
0001
0000
0000
0000
0000
0000
0000
0000
0000
0001
0000
0000
0000
0000
0000
0000
0000
0000
0000
0000
0000
1000
0001
1000
,
0001
0000
0000
0000
0000
0000
1000
0000
0001
0000
1000
0000
0001
0000
0000
0000
0000
0000
0001
0000
0000
0000
0000
0000
1000
0000
0000
0010
0000
0000
0100
0000
0000
0000
0000
0000
0100
0000
0000
0000
0000
0000
0001
0000
0100
0000
0001
0000
,
0100
0000
0000
0000
0000
0000
0010
0000
1000
0000
0010
0000
1000
0000
0000
0000
0000
0000
1000
0000
0000
0000
0000
0000
0001
0000
0000
0010
0000
0000
0100
0000
0000
0000
0000
0000
0100
0000
0000
0000
0000
0000
1000
0000
0001
0000
1000
0000
,
0001
0000
0000
0000
0000
0000
1000
0000
0001
0000
1000
0000
0001
0000
0000
0000
0000
0000
0001
0000
0000
0000
0000
0000
1000
0000
0000
0010
0000
0000
0100
0000
0000
0000
0000
0000
0100
0000
0000
0000
0000
0000
0001
0000
1000
0000
0001
0000
,
1000
0000
0000
0000
0000
0000
0001
0000
0010
0000
0001
0000
0010
0000
0000
0000
0000
0000
0010
0000
0000
0000
0000
0000
0100
0000
0000
1000
0000
0000
0001
0000
0000
0000
0000
0000
0001
0000
0000
0000
0000
0000
1000
0000
0010
0000
1000
0000
,
0010
0000
0000
0100
0001
0100
0001
0000
0000
1000
0100
1000
0100
0000
0000
0010
0001
0010
0001
0000
0000
1000
0010
1000
,
0010
0000
0000
0100
0001
0100
0001
0000
0000
1000
0100
1000
0100
0000
0000
0010
0001
0010
0001
0000
0000
1000
0001
1000
,
0001
0100
0010
1000
0100
1000
0010
0100
0001
0010
0100
0010
0001
0100
0010
1000
,
0002
0000
0000
0000
00M3
0000
0000
0000
0002
0000
0023
0000
0031
1000
0010
0100
,
0001
0100
0010
1000
0100
1000
0001
0100
0001
1000
0010
1000
0001
0010
0100
1000
,
0001
0100
0010
1000
0100
1000
0001
0100
0001
1000
0100
0010
0001
1000
0010
1000
,
0001
0010
0100
1000
0010
1000
0001
1000
0010
1000
0100
0010
0001
0100
0001
1000
,
0100
0010
0100
1000
0010
0100
0001
1000
0001
0100
0010
1000
0001
0010
0001
1000
,
0010
1000
0100
1000
0010
0100
0001
0010
0001
1000
0010
1000
0001
0010
0100
1000
,
0001
0100
0010
1000
0100
1000
0001
0100
0001
1000
0100
0010
0001
1000
0010
1000
,
0001
0010
0100
1000
0010
1000
0001
1000
0010
1000
0100
0010
0001
0100
0010
1000
,
0100
0010
0001
1000
0010
1000
0001
0100
0010
1000
0100
1000
0010
0100
0001
1000
,
0010
1000
0001
0100
0001
1000
0100
1000
0001
0100
0010
1000
0001
0010
0100
1000
,
0001
0100
0010
1000
0100
1000
0001
0100
0001
1000
0100
0010
0001
1000
0010
1000
,
0001
0010
0100
1000
0010
1000
0001
1000
0010
1000
0100
0010
0001
0100
0001
1000
,
0100
0010
0100
1000
0001
0100
0010
1000
0100
1000
0010
0100
0001
1000
0100
1000
,
0100
1000
0010
1000
0100
0010
0001
0100
0001
1000
0010
1000
0001
0010
0100
1000
,
0001
0100
0010
1000
0100
1000
0001
0100
0001
1000
0010
1000
0001
0010
0001
1000
,
0100
0010
0100
1000
0010
1000
0001
1000
0010
1000
0100
0010
0001
0100
0010
1000
,
0100
0010
0001
1000
0100
1000
0001
0100
0010
1000
0100
0010
0001
1000
0010
0100
,
0001
1000
0010
1000
0100
1000
0001
0100
0001
1000
0010
1000
0001
0010
0100
1000
,
0001
0100
0010
1000
0100
1000
0001
0100
0001
1000
0100
0010
0001
1000
0010
1000
,
0001
0010
0100
1000
0010
1000
0001
1000
0010
1000
0100
0010
0001
0100
0001
1000
,
0100
0010
0100
1000
0001
0100
0010
1000
0100
1000
0010
0100
0001
1000
0001
0100
,
0001
1000
0010
1000
0100
1000
0001
0100
0001
1000
0010
1000
0001
0010
0100
1000
,
0001
0100
0010
1000
0100
1000
0001
0100
0001
1000
0100
0010
0001
1000
0010
1000
,
0001
0010
0100
1000
0010
1000
0001
1000
0010
1000
0100
0010
0001
0100
0010
1000
,
0100
0010
0100
1000
0001
1000
0010
0100
0001
0100
0010
1000
0001
0010
0100
0010
,
0001
1000
0010
1000
0100
1000
0001
0100
0001
1000
0010
1000
0001
0010
0100
1000
,
0001
0100
0010
1000
0100
1000
0001
0100
0001
1000
0100
0010
0001
1000
0010
1000
,
0001
0010
0100
1000
0010
1000
0001
1000
0010
1000
0100
0010
0001
0100
0010
1000
,
0100
0010
0001
1000
0100
1000
0001
0100
0010
1000
0100
0010
0001
1000
0001
0100
,
0001
1000
0010
1000
0100
1000
0001
0100
0001
1000
0010
1000
0001
0010
0100
1000
,
0001
0100
0010
1000
0100
1000
0001
0100
0001
1000
0100
0010
0001
1000
0010
1000
,
0001
0010
0100
1000
0010
1000
0001
1000
0010
1000
0100
0010
0001
0100
0001
1000
,
0100
0010
0001
0010
0100
1000
0001
1000
0010
0100
0001
1000
0001
0000
0100
0000
,
0020
0000
0000
0000
1000
0000
0000
0030
0200
0000
0000
0000
1000
0000
0000
0300
0020
0000
0000
0000
0100
0000
0000
0030
0002
0000
0000
0000
0100
0000
0000
0003
,
0020
0000
0000
0000
1000
0000
0000
0030
0002
0000
0000
0000
0100
0000
0000
0003
0020
0000
0000
0000
1000
0000
0000
0030
0100
0000
0000
0000
0010
0000
0000
0000
,
0001
0100
0001
1000
0001
1000
0100
0010
,
0001
0000
0100
0000
0001
0000
1000
0001
1000
0100
0010
0001
0100
0000
0001
0000
,
0020
0000
0000
0000
0001
0000
0000
0030
0200
0000
0000
0000
0001
0000
0000
0300
0020
0000
0000
0000
0100
0000
0000
0030
2000
0000
0000
0000
0100
0000
0000
3000
,
0020
0000
0000
0000
0001
0000
0000
0030
2000
0000
0000
0000
0100
0000
0000
3000
0020
0000
0000
0000
0001
0000
0000
0030
0100
0000
0000
0000
0010
0000
0000
0000
,
1000
0100
1000
0001
1000
0001
0100
0010
,
1000
0000
0100
0000
1000
0000
0001
1000
0001
0100
0010
1000
0001
0000
1000
0000
,
0020
0000
0000
0000
1000
0000
0000
0030
0200
0000
0000
0000
1000
0000
0000
0300
0020
0000
0000
0000
0100
0000
0000
0030
0002
0000
0000
0000
0100
0000
0000
0003
,
0020
0000
0000
0000
1000
0000
0000
0030
0002
0000
0000
0000
0100
0000
0000
0003
0020
0000
0000
0000
1000
0000
0000
0030
0100
0000
0000
0000
0010
0000
0000
0000
,
0001
0100
0001
1000
0001
1000
0100
0010
,
0001
0000
0100
0000
0001
0000
1000
0001
1000
0100
0010
0001
0100
0000
0001
0000
,
0020
0000
0000
0000
0001
0000
0000
0030
0200
0000
0000
0000
0001
0000
0000
0300
0020
0000
0000
0000
0100
0000
0000
0030
2000
0000
0000
0000
0100
0000
0000
3000
,
0020
0000
0000
0000
0001
0000
0000
0030
2000
0000
0000
0000
0100
0000
0000
3000
0020
0000
0000
0000
0001
0000
0000
0030
0100
0000
0000
0000
0010
0000
0000
0000
,
1000
0000
0100
0000
0010
0000
0001
0000
0010
0000
0001
0000
4000
0004
0000
0000
,
0000
0000
0000
0000
0000
0000
0000
0000
0000
0000
0000
3000
0103
0010
1000
0001
,
0010
0100
0010
0001
0100
0010
0100
0001
1000
0100
1000
0001
0100
0010
0100
0001
,
1000
0010
1000
0001
0100
0010
0100
0001
0010
0100
0010
0001
1000
0100
1000
0001
,
1000
0010
0100
0001
1000
0001
0100
0010
1000
0001
0010
0001
1000
0010
1000
0001
,
1000
0100
0010
0001
1000
0010
0100
0001
1000
0001
1000
0100
0010
0100
1000
0001
,
0100
0010
0100
0001
0010
0100
0010
0001
1000
0010
1000
0001
0010
0100
0010
0001
,
1000
0100
1000
0001
0010
0100
0010
0001
0100
0010
0100
0001
1000
0010
1000
0001
,
1000
0100
0010
0001
1000
0001
0010
0100
1000
0001
0100
0001
1000
0100
1000
0001
,
1000
0010
0100
0001
1000
0100
0010
0001
0010
0100
1000
0010
0100
0001
0100
0001
,
0010
0100
0010
0001
0100
0010
0100
0001
1000
0100
1000
0001
0100
0010
0100
0001
,
1000
0010
1000
0001
0100
0010
0100
0001
0010
0100
0010
0001
1000
0100
1000
0001
,
1000
0010
0100
0001
1000
0001
0100
0010
1000
0001
0010
0001
1000
0010
1000
0001
,
1000
0100
0010
0001
1000
0010
0100
0001
1000
0001
1000
0100
0010
0100
1000
0001
,
0010
0100
0010
0001
0100
0010
0100
0001
1000
0100
1000
0001
0100
0010
0100
0001
,
1000
0010
1000
0001
0100
0010
0100
0001
0010
0100
0010
0001
1000
0100
1000
0001
,
1000
0010
0100
0001
1000
0001
0100
0010
1000
0001
0010
0001
1000
0010
1000
0001
,
1000
0100
0010
0001
1000
0010
0100
0001
0010
0100
1000
0010
0200
0000
0000
0000
,
03M0
0000
0000
0000
M000
0000
2000
3020
0130
0001
0010
0100
0000
0000
0000
0000
,
1000
0100
0010
0001
0000
0000
0000
0000
0100
0010
1000
0001
0000
0000
0000
0000
,
0010
0100
1000
0001
0000
0000
0000
0000
1000
0010
0100
0001
0000
0000
0000
0000
,
1000
0100
0010
0001
0000
0000
0000
0000
0100
0010
1000
0001
0000
0000
0000
0000
,
0010
0100
1000
0001
2000
0000
3200
0000
230M
3000
0020
0030
0200
0300
0002
0003
,
1000
0000
0001
0000
1000
0000
0001
0000
2000
3000
0200
0300
0020
0030
0002
0003
,
1000
0000
0001
0000
1000
0000
0001
0000
0200
0300
0020
0030
2000
3000
0002
0003
,
1000
0000
0001
0000
1000
0000
0001
0000
0020
0030
0200
0300
2000
3000
0002
0003
,
1000
0000
0000
0000
0000
0000
0001
0000
0000
1000
0000
0000
0010
0000
0000
0100
0000
0000
0001
0000
0100
0000
0001
0000
0200
0000
0000
0300
0000
0000
0020
0000
0000
0030
0000
0000
2000
0000
0000
3000
0000
0000
0002
0000
0000
0003
0000
0000
,
1000
0000
0001
0000
1000
0000
0001
0000
0020
0030
0200
0300
2000
3000
0002
0003
,
1000
0000
0001
0000
1000
0000
0001
0000
2000
3000
0020
0030
0200
0300
0002
0003
,
1000
0000
0001
0000
1000
0000
0001
0000
2000
3000
0200
0300
0020
0030
0002
0003
,
4000
0000
3001
0000
0400
0000
0310
0000
1000
0001
0010
0100
1000
0001
0100
0001
,
0010
0001
1000
0010
1000
0001
0100
0001
1000
0100
0010
0001
1000
0010
0100
0001
,
0010
0001
1000
0010
1000
0001
0010
0100
1000
0001
0100
0001
1000
0100
0010
0001
,
0100
0001
1000
0001
0100
0001
0010
0100
1000
0010
0100
0001
0010
0100
1000
0001
,
0010
0001
1000
0010
0100
0001
1000
0100
1000
0001
1000
0010
1000
0001
0100
0001
,
0010
0001
1000
0010
1000
0001
0100
0001
1000
0100
0010
0001
1000
0010
0100
0001
,
0010
0001
1000
0010
1000
0001
0010
0100
1000
0001
0100
0001
1000
0100
0010
0001
,
0100
0001
1000
0001
0100
0001
0010
0100
1000
0010
1000
0001
0010
0100
1000
0100
,
0010
0001
1000
0001
0100
0010
1000
0100
0010
0001
1000
0001
0010
0100
1000
0001
,
0100
0010
0100
0001
0010
0100
1000
0001
0100
0010
0100
0001
1000
0010
1000
0001
,
0010
0100
0010
0001
0100
0010
0100
0001
1000
0010
0100
0001
1000
0100
0010
0001
,
0100
0001
1000
0001
0100
0001
0010
0100
1000
0010
0100
0001
1000
0001
0100
0010
,
1000
0001
0010
0100
1000
0001
0100
0001
1000
0010
1000
0001
0010
0100
0010
0001
,
0100
0010
0100
0001
1000
0100
1000
0001
0100
0010
0100
0001
1000
0010
1000
0001
,
0100
0010
0100
0001
0010
0100
0010
0001
1000
0100
1000
0001
1000
0010
0100
0001
,
0010
0001
1000
0001
0010
0001
0100
0010
1000
0100
0010
0001
0100
0010
1000
0010
,
0100
0001
0010
0001
0100
0010
1000
0001
1000
0010
0100
0001
0010
0100
0010
0001
,
0100
0010
0100
0001
1000
0100
1000
0001
0100
0010
0100
0001
1000
0010
1000
0001
,
0100
0010
0100
0001
0010
0100
0010
0001
1000
0100
1000
0001
1000
0010
0100
0001
,
0010
0001
1000
0001
0010
0001
0100
0010
1000
0100
1000
0001
0100
0010
0100
0001
,
1000
0100
0010
0001
1000
0001
0010
0100
1000
0001
0100
0001
1000
0100
0010
0001
,
0100
0001
0010
0100
1000
0100
0010
0001
1000
0010
0100
0001
1000
0001
0100
0010
,
1000
0100
1000
0001
0100
0010
0100
0001
1000
0100
0010
0001
1000
0010
0100
0001
,
0010
0001
1000
0001
0010
0001
0100
0010
1000
0100
1000
0010
0100
0001
1000
0100
,
0010
0001
0100
0010
1000
0001
1000
0010
0200
0000
0000
0000
0000
0000
0000
0000
,
M00M
0000
0000
0000
,
0000
0000
0000
0000
0000
0000
0000
0000
0000
0000
0000
0000
0000
0000
0000
0000
0000
0000
0000
0000
0000
0000
0000
0000
0000
0000
0000
0000
0000
0000
0000
0000
0300
0000
0000
0000
0000
0000
0000
0000
0000
0000
0000
0000
0000
0000
0000
0000
0000
0000
0000
0000
0000
0000
0000
0001
2000
0000
0000
0000
0000
0000
0000
0000
,
0000
0000
0000
0000
,
0000
0000
0000
0000
,
0000
0000
0000
0000
,
0000
0000
0000
0000
,
0000
0000
3000
0000
;

//---------------dance-single - 13 (TYLR)----------------
#NOTES:
     dance-single:
     13 (TYLR):
     Medium:
     13:
     1.000,1.000,0.066,0.317,1.000,1942.000,18.000,87.000,28.000,0.000:
0000
0000
0000
0000
,
0000
0000
0000
0000
,
0000
0000
0000
0000
,
0000
0000
0000
0000
,
0000
0000
0000
0000
,
0000
0000
0000
0000
,
0000
0000
0000
0000
,
0000
0000
0000
0000
,
1010
0010
0100
0001
0100
0010
1000
0100
,
0010
0001
1000
0001
0100
0020
1000
0000
,
0130
0001
1000
0100
0010
0100
1000
0010
,
0100
0000
0001
0000
0010
0000
0100
0000
1000
0000
0001
1000
0001
0100
0010
1000
,
0100
0010
0001
0100
0010
0100
0001
0010
,
0100
1000
0010
0100
0001
2000
0100
0000
,
3001
0100
0010
1000
0010
0100
0001
0010
,
0100
1000
0100
0010
0001
1000
0001
0010
0100
1000
0010
0100
0001
0100
0010
1000
,
0100
1000
0100
0000
0010
0000
0100
0000
1000
0001
1000
0000
0010
0100
0000
0100
,
0001
1000
0001
0000
0010
0000
0001
0000
1000
0100
1000
0000
0001
1000
0000
1000
,
0010
0100
0010
0000
1000
0000
0010
0000
0100
0001
0100
0000
0010
1000
0000
1000
,
0100
0010
0001
0000
1000
0000
0001
0000
0010
0100
1000
0100
0010
0001
0100
0010
,
1000
0001
0010
0000
0100
0000
0010
0000
0001
1000
0010
0000
0100
0001
0000
0001
,
1000
0100
0010
0000
0001
0000
0010
0000
0001
1000
0001
0000
0100
0010
0000
0010
,
1000
0001
0100
0000
0010
0000
0100
0000
0001
1000
0001
0000
0010
0100
0000
0100
,
2000
0000
3100
0000
0010
0000
0001
0000
0100
0000
0001
0010
0100
1000
0010
0100
,
0010
1000
0100
0010
0100
1000
0010
0100
,
0001
0100
0010
1000
0100
0020
0001
0000
,
0130
0000
1000
0000
0001
0000
0100
0000
0010
0000
0100
0000
0001
0010
0000
0010
,
0100
1000
0001
0000
0100
0000
0001
0000
1000
0100
0010
0001
0010
0001
0100
0010
,
1000
0001
0010
0000
0100
0000
0010
0000
0001
1000
0010
0000
0100
0001
0000
0001
,
1000
0100
0010
0000
0001
0000
1000
0000
0010
0100
0001
0000
0010
0100
0000
0100
,
1000
0010
0100
0000
0001
0000
0100
0000
0010
1000
0001
0000
0010
0100
0000
0100
,
4000
0004
0000
0000
0000
0000
0000
0000
0000
0000
0000
0000
0000
0000
3000
0000
,
0103
0000
0010
1000
0000
0001
0010
0001
0100
0000
0100
0010
0000
1000
0001
1000
,
0001
0000
0010
0100
0000
1000
0001
1000
0010
0000
0010
0100
0000
0010
1000
0010
,
1000
0000
0001
0010
0000
0100
1000
0001
0100
0000
0100
0010
0000
1000
0001
1000
,
0001
0000
0010
0100
0000
1000
0100
1000
0010
0000
0010
0100
0001
0100
0010
1000
,
0100
0000
1000
0010
0000
0100
0001
1000
0100
0000
0100
0010
0000
0001
0010
0001
,
1000
0000
0010
0100
0000
0001
0100
0001
0010
0000
0010
0100
0000
1000
0100
1000
,
0001
0000
1000
0010
0000
0100
0001
0100
0010
0000
0010
1000
0000
0001
1000
0001
,
0010
0000
0100
1000
0000
0010
1000
0010
0100
0000
0100
0001
0000
0100
0010
1000
,
0100
0000
0010
0001
0000
1000
0100
1000
0010
0000
0010
0100
0000
0001
1000
0001
,
1000
0000
0100
0010
0000
0001
1000
0001
0100
0000
0100
0010
0000
0100
0001
0100
,
0001
0000
1000
0100
0000
0010
0001
1000
0010
0000
0010
0100
0000
0001
1000
0001
,
1000
0000
0100
0010
0000
0001
0010
0001
0100
0000
0100
0010
1000
0010
0100
0001
,
0010
0000
0100
1000
0000
0001
1000
0001
0010
0000
0010
0100
0000
1000
0100
1000
,
0001
0000
0100
0010
0000
1000
0010
1000
0100
0000
0100
0010
0000
0001
1000
0001
,
0100
0001
0010
0100
1000
0100
0010
0001
0100
0001
0010
0100
1000
0001
0100
0001
,
0010
0100
0010
0001
0100
0010
1000
0001
2000
0000
3200
0000
0320
0000
0032
0000
,
1003
0000
0001
0010
0000
0100
1000
0001
0100
0000
0100
0010
0000
1000
0001
1000
,
0001
0000
0010
0100
0000
1000
0001
1000
0010
0000
0010
0100
0000
0010
1000
0010
,
1000
0000
0001
0010
0000
0100
1000
0001
0100
0000
0100
0010
0000
1000
0001
1000
,
0001
0000
0010
0100
0000
1000
0100
1000
0010
0000
0010
0100
0001
0100
0010
1000
,
0100
0000
0010
0001
0000
1000
0010
1000
0100
0000
0100
0010
0000
0001
0010
0001
,
1000
0000
0010
0100
0000
0001
0100
0001
0010
0000
0010
0100
0000
1000
0100
1000
,
0001
0000
1000
0010
0000
0100
0001
0100
0010
0000
0010
1000
0000
0001
1000
0001
,
1000
0000
0100
0010
0000
0001
1000
0001
0100
0000
0100
0010
1000
0001
1000
0100
,
0010
0000
0001
1000
0000
0010
0100
0010
1000
0000
1000
0100
0000
0010
0001
0010
,
0001
0000
0010
0100
0000
1000
0001
1000
0010
0000
0010
0100
0000
0010
1000
0010
,
1000
0000
0001
0010
0000
0100
1000
0001
0100
0000
0100
0010
0000
1000
0001
1000
,
0001
0000
0010
0100
0000
1000
0100
1000
0010
0000
0010
0100
0001
0100
0010
1000
,
0100
0000
0010
0001
0000
0100
0001
1000
0100
0000
0100
0010
0000
0001
0010
0001
,
1000
0000
0010
0100
0000
0001
0100
0001
0010
0000
0010
0100
0000
1000
0100
1000
,
0010
0000
0100
0001
0000
1000
0100
1000
0010
0000
0100
0001
0000
1000
0001
1000
,
0001
0000
0010
0100
0000
1000
0100
1000
0010
0000
0100
0001
0000
1000
0100
1000
,
0020
0000
0000
0000
0000
0000
0000
0000
0000
0000
0000
0000
0030
0M00
0000
0000
,
0000
0000
0000
000M
0000
M000
0000
00M0
,
0000
0M00
0000
000M
0000
M000
0000
0M00
,
0000
0000
0000
0000
0000
0000
0000
0000
00M0
0000
0000
0000
0000
0000
0000
0000
0000
0000
0000
0000
0000
0000
0000
0000
M000
0000
0000
0000
0000
0000
0000
0000
0000
0000
000M
0000
0000
0000
0000
0000
0000
0000
0000
0000
0000
0M00
0000
0000
0000
0000
0000
0000
0000
0000
0000
0000
M000
0000
0000
0000
0000
0000
0000
0000
,
0000
0000
000M
0000
0000
0000
0000
0000
0000
0000
0000
0000
0000
0M00
0000
0000
0000
0000
0000
0000
0000
0000
0000
0000
00M0
0000
0000
0000
0000
0000
0000
0000
0000
0000
0000
0000
0000
0000
0000
0000
0000
0000
0000
0000
0000
0000
0000
0000
0000
0000
0000
0000
0000
0000
0000
0000
0000
0000
0000
0000
0000
0000
0000
0000
,
1001
0000
0000
1001
0000
0000
0000
0000
,
1001
0000
0000
0000
0001
0000
0000
0000
0001
0000
0000
0000
0000
0000
0000
0000
2000
0000
0000
0000
0000
0000
0000
0000
3200
0000
0000
0000
0000
0000
0000
0300
,
0011
0000
0000
1001
0000
0000
0000
0000
,
1001
0000
1000
0000
1000
0000
0000
0000
0020
0030
0020
0030
0200
0300
0200
0300
,
0101
0000
0000
1001
0000
0000
0000
0000
,
1001
0000
0000
0000
0001
0000
0000
0000
0001
0000
0000
0000
0000
0000
0000
0000
0020
0000
0000
0000
0000
0000
0000
0000
0230
0000
0000
0000
0000
0000
0000
0300
,
1000
0000
0000
0000
0000
0000
0000
0000
0000
1000
0000
0000
0000
0000
0000
0000
0000
0000
0000
0000
0000
1000
0100
1000
,
0100
0000
0000
0000
0000
0000
0000
0000
0000
0100
0000
0000
0000
0000
0000
0000
0000
0000
0000
0000
0000
0100
0010
0100
,
0010
0000
0000
0000
0000
0000
0000
0000
0000
0010
0000
0000
0000
0000
0000
0000
0000
0000
0000
0000
0000
0010
0001
0010
,
0001
0000
0000
0000
0000
0000
0000
0000
0000
0001
0000
0000
0000
0000
0000
0000
0000
0000
0000
0000
0000
0001
1000
0001
,
1000
0000
0000
0000
0000
0000
0000
0000
0000
1000
0000
0000
0000
0000
0000
0000
0000
0000
0000
0000
0000
1000
0100
1000
,
0100
0000
0000
0000
0000
0000
0000
0000
0000
0100
0000
0000
0000
0000
0000
0000
0000
0000
0000
0000
0000
0100
0010
0100
,
0010
0000
0000
0000
0000
0000
0000
0000
0000
0010
0000
0000
0000
0000
0000
0000
0000
0000
0000
0000
0000
0010
0001
0010
,
0001
0000
0000
0000
0000
0000
0000
0000
0000
0001
0000
0000
0000
0000
0000
0000
0000
0000
0000
0000
0000
0001
1000
0001
,
1000
0000
0000
0000
0000
0000
0004
0000
0000
0000
0000
0000
0103
0000
0000
0000
0000
0000
0100
0000
0000
0000
0000
0000
0010
0000
0000
1000
0000
0000
0001
0000
0000
0000
0000
0000
0001
0000
0000
0000
0000
0000
0010
0000
0100
0000
0010
0000
,
0100
0000
0000
0000
0000
0000
4000
0000
0000
0000
0000
0000
3001
0000
0000
0000
0000
0000
0001
0000
0000
0000
0000
0000
1000
0000
0000
0010
0000
0000
0100
0000
0000
0000
0000
0000
0100
0000
0000
0000
0000
0000
0001
0000
0100
0000
0001
0000
,
0100
0000
0000
0000
0000
0000
0040
0000
0000
0000
0000
0000
1030
0000
0000
0000
0000
0000
1000
0000
0000
0000
0000
0000
0001
0000
0000
0010
0000
0000
0100
0000
0000
0000
0000
0000
0100
0000
0000
0000
0000
0000
1000
0000
0001
0000
1000
0000
,
0001
0000
0000
0000
0000
0000
0400
0000
0000
0000
0000
0000
0310
0000
0000
0000
0000
0000
0010
0000
0000
0000
0000
0000
1000
0000
0000
0001
0000
0000
0010
0000
0000
0000
0000
0000
0010
0000
0000
0000
0000
0000
0100
0000
1000
0000
0100
0000
,
1000
0000
0000
0001
0010
0001
0010
0000
0000
0001
1000
0001
1000
0000
0000
0010
0100
0010
0100
0000
0000
0001
0100
0001
,
0100
0000
0000
0010
1000
0010
1000
0000
0000
0001
0010
0001
0010
0000
0000
0100
1000
0100
1000
0000
0000
0001
0100
0010
,
1000
0000
0000
0000
0000
0000
0001
0000
0100
0000
0010
0000
1000
0000
0000
0000
0000
0000
0001
0000
0010
0000
0100
0000
1000
0000
0000
0000
0000
0000
0001
0000
0010
0000
0100
0000
1000
0000
0000
0000
0000
0000
0001
0000
0000
0100
0000
0000
,
0020
0000
0000
0000
MM30
0000
0000
0000
0002
0000
2003
0000
3100
0000
1000
0100
,
0000
1000
0001
0000
0100
0000
0001
0100
0000
0100
0010
0000
1000
0000
0001
1000
,
0000
0001
0100
0000
0010
0000
1000
0010
0000
0010
0100
0000
0001
0000
0100
0001
,
0000
0100
0010
0000
1000
0000
0100
0000
1000
0000
0001
0000
0100
0010
1000
0001
,
0010
0100
1000
0000
0001
0000
1000
0100
0010
0001
0100
0001
0100
0000
0001
0100
,
0000
0010
1000
0000
0100
0000
1000
0100
0000
0100
0010
0000
0001
0000
1000
0001
,
0000
1000
0010
0000
0100
0000
0001
0100
0000
0100
0010
0000
1000
0000
0001
1000
,
0000
0001
0010
0000
0100
0000
1000
0000
0100
0000
0010
0000
0001
0100
0010
1000
,
0001
0010
0100
0000
1000
0000
0010
1000
0001
0010
0100
1000
0010
0000
0100
0001
,
0000
0100
0010
0000
1000
0000
0001
1000
0000
1000
0100
0000
0010
0000
0100
1000
,
0000
0001
0010
0000
0001
0000
1000
0010
0000
0010
0100
0000
0001
0000
1000
0001
,
0000
0010
0001
0000
0100
0000
0010
0000
0100
0000
0001
0000
1000
0010
0100
0001
,
0010
0100
1000
0000
0001
0000
1000
0100
0010
0001
0100
0001
0100
0000
0001
0100
,
0000
0010
1000
0000
0100
0000
1000
0100
0000
0100
0010
0000
0001
0000
1000
0001
,
0000
1000
0010
0000
0100
0000
0001
0100
0000
0100
0010
0000
1000
0000
0001
1000
,
0000
0001
0010
0000
0100
0000
1000
0000
0100
0000
0010
0000
0001
0100
0010
1000
,
0001
0010
0100
0000
1000
0000
0010
1000
0001
0010
0100
1000
0001
0000
1000
0001
,
0000
1000
0100
0000
0010
0000
0001
0010
0000
0010
0100
0000
1000
0000
0001
1000
,
0000
0001
0100
0000
0010
0000
1000
0010
0000
0010
0100
0000
0001
0000
0100
0001
,
0000
0100
0010
0000
1000
0000
0001
0000
1000
0000
0010
0000
0100
0001
0100
0010
,
1000
0001
0010
0000
0100
0000
0010
0001
1000
0010
0100
0001
0100
0000
0001
0100
,
0000
0010
1000
0000
0001
0000
1000
0001
0000
0001
0010
0000
0100
0000
1000
0100
,
0000
1000
0001
0000
0100
0000
0001
0100
0000
0100
0010
0000
1000
0000
0001
1000
,
0000
0001
0010
0000
0100
0000
1000
0000
0100
0000
0010
0000
0001
0100
0010
1000
,
0001
0010
0100
0000
1000
0000
0010
1000
0001
0010
0100
1000
0010
0000
1000
0010
,
0000
0100
0001
0000
0010
0000
0001
0010
0000
0010
0100
0000
1000
0000
0100
1000
,
0000
0100
0010
0000
0001
0000
1000
0001
0000
0001
0100
0000
0010
0000
1000
0010
,
0000
1000
0001
0000
0010
0000
0100
0000
0010
0000
0001
0000
1000
0010
0100
0001
,
0010
0100
1000
0000
0001
0000
1000
0100
0010
0001
0100
0001
0100
0000
0001
0100
,
0000
0010
1000
0000
0100
0000
1000
0100
0000
0100
0010
0000
0001
0000
1000
0001
,
0000
1000
0010
0000
0100
0000
0001
0100
0000
0100
0010
0000
1000
0000
0001
1000
,
0000
0001
0010
0000
0100
0000
1000
0000
0100
0000
0010
0000
0001
0100
0010
1000
,
0001
0010
0100
0000
1000
0000
0010
1000
0001
0010
0100
1000
0001
0000
1000
0000
,
0020
0000
0000
0000
1000
0000
0000
0030
0200
0000
0000
0000
1000
0000
0000
0300
0020
0000
0000
0000
0100
0000
0000
0030
0002
0000
0000
0000
0100
0000
0000
0003
,
0020
0000
0000
0000
1000
0000
0000
0030
0002
0000
0000
0000
0100
0000
0000
0003
0020
0000
0000
0000
1000
0000
0000
0030
0100
0000
0000
0000
0010
0000
0000
0000
,
0001
0100
0001
1000
0001
1000
0100
0010
,
0001
0000
0100
0000
0001
0000
1000
0001
1000
0100
0010
0001
0100
0000
0001
0000
,
0020
0000
0000
0000
0001
0000
0000
0030
0200
0000
0000
0000
0001
0000
0000
0300
0020
0000
0000
0000
0100
0000
0000
0030
2000
0000
0000
0000
0100
0000
0000
3000
,
0020
0000
0000
0000
0001
0000
0000
0030
2000
0000
0000
0000
0100
0000
0000
3000
0020
0000
0000
0000
0001
0000
0000
0030
0100
0000
0000
0000
0010
0000
0000
0000
,
1000
0100
1000
0001
1000
0001
0100
0010
,
1000
0000
0100
0000
1000
0000
0001
1000
0001
0100
0010
1000
0100
0000
0010
0000
,
0200
0000
0000
0000
1000
0000
0000
0300
0020
0000
0000
0000
1000
0000
0030
0000
0200
0000
0000
0000
0010
0000
0000
0300
0002
0000
0000
0000
0010
0000
0000
0003
,
0200
0000
0000
0000
1000
0000
0000
0300
0002
0000
0000
0000
0010
0000
0000
0003
0200
0000
0000
0000
1000
0000
0000
0300
0010
0000
0000
0000
0100
0000
0000
0000
,
0001
0010
0001
1000
0001
1000
0010
0100
,
0001
0000
0010
0000
0001
0000
1000
0001
1000
0100
0010
0001
0100
0000
0001
0000
,
0020
0000
0000
0000
0001
0000
0000
0030
0200
0000
0000
0000
0001
0000
0000
0300
0020
0000
0000
0000
0100
0000
0000
0030
2000
0000
0000
0000
0100
0000
0000
3000
,
0020
0000
0000
0000
0001
0000
0000
0030
2000
0000
0000
0000
0100
0000
0000
3000
0020
0000
0000
0000
0001
0000
0000
0030
0100
0000
0000
0000
0010
0000
0000
0000
,
1000
0000
0100
0000
0010
0000
0001
0000
0010
0000
0001
0000
4000
0004
0000
0000
,
0000
0000
0000
0000
0000
0000
0000
0000
0000
0000
0000
3000
0103
0010
1000
0001
,
0010
0100
0010
0001
0100
0010
0100
0001
1000
0100
1000
0001
0100
0010
0100
0001
,
1000
0010
1000
0001
0010
0001
0010
0100
1000
0100
1000
0001
0100
0010
1000
0001
,
0010
0100
1000
0100
0010
0001
1000
0001
0010
0100
1000
0001
1000
0010
0100
0001
,
1000
0001
0010
0100
1000
0000
0001
0100
0001
0100
0001
0100
0010
1000
0001
1000
,
0100
0010
0100
1000
0010
0100
0010
1000
0001
0010
0001
1000
0010
0100
0010
1000
,
0001
0100
0001
1000
0100
1000
0100
0010
0001
0010
0001
1000
0010
0100
0001
1000
,
0100
0010
0001
0010
0100
1000
0001
1000
0100
0010
0001
1000
0001
0100
0010
1000
,
0001
1000
0100
0010
0001
0000
0100
0010
0100
0010
0100
0010
1000
0001
1000
0001
,
0010
0100
0010
0001
0100
0010
0100
0001
1000
0100
1000
0001
0100
0010
0100
0001
,
1000
0010
1000
0001
0010
0001
0010
0100
1000
0100
1000
0001
0100
0010
1000
0001
,
0010
0100
1000
0100
0010
0001
1000
0001
0010
0100
1000
0001
1000
0010
0100
0001
,
1000
0001
0010
0100
1000
0000
0001
0100
0001
0100
0001
0100
0010
1000
0001
1000
,
0100
0010
0100
1000
0010
0100
0010
1000
0001
0010
0001
1000
0010
0100
0010
1000
,
0001
0100
0001
1000
0100
1000
0100
0010
0001
0010
0001
1000
0010
0100
0001
1000
,
0100
0010
0001
0010
0100
1000
0001
1000
0100
0010
0001
1000
0001
0100
0010
1000
,
0001
0000
0000
1000
0000
0000
0100
0000
0000
0010
0000
0000
0004
0000
4000
0000
0000
0000
0000
0000
0000
0000
0000
0000
0000
0000
0000
0000
0000
0000
0000
0000
0000
0000
0000
0000
3MM3
0000
0000
0000
0000
0000
0000
0000
0000
0000
0000
0000
,
000M
00M0
0M00
M000
0000
0000
0000
0000
0000
0000
0000
0000
2000
0000
3020
0000
0130
0000
0001
0000
0010
0000
0100
0000
0000
0000
0000
0000
0000
0000
0000
0000
,
1000
0100
0010
0001
0000
0000
0000
0000
0100
0010
1000
0001
0000
0000
0000
0000
,
0010
0100
1000
0001
0000
0000
0000
0000
1000
0010
0100
0001
0000
0000
0000
0000
,
1000
0100
0010
0001
0000
0000
0000
0000
0100
0010
1000
0001
0000
0000
0000
0000
,
0010
0100
1000
0001
2000
0000
3200
0000
2300
3000
0020
0030
0200
0300
0002
0003
,
1000
0000
0001
0000
1000
0000
0001
0000
2000
3000
0200
0300
0020
0030
0002
0003
,
1000
0000
0001
0000
1000
0000
0001
0000
0200
0300
0020
0030
2000
3000
0002
0003
,
1000
0000
0001
0000
1000
0000
0001
0000
0020
0030
0200
0300
2000
3000
0002
0003
,
1000
0000
0001
1000
0001
0100
0010
1000
0200
0300
0020
0030
0002
0003
2000
3000
,
0001
0000
1000
0000
0001
0000
1000
0000
0200
0300
0020
0030
0002
0003
2000
3000
,
0001
0000
1000
0000
0001
0000
1000
0000
0002
0003
0200
0300
0020
0030
2000
3000
,
0001
0000
1000
0000
0001
0000
1000
0000
0002
0003
0020
0030
0200
0300
2000
3000
,
0004
0000
4003
0000
3004
0000
4003
0000
3001
0000
1000
0010
0000
1000
0001
0000
,
0100
0000
0001
1000
0000
1000
0100
0000
0010
0000
0001
1000
0000
0001
0010
0000
,
0100
0000
1000
0100
0000
0200
0310
0000
0001
0000
1000
0010
0000
0100
0001
0000
,
1000
0000
0100
0000
1000
0000
0010
0000
1000
0001
0010
0100
1000
0001
0100
0000
,
0010
0000
0100
0001
0010
0100
0010
0100
1000
0000
0001
1000
0000
0001
0010
0000
,
0100
0000
1000
0100
0000
0100
0010
0000
0001
0000
1000
0001
0000
1000
0010
0000
,
0100
0000
0001
0100
0000
0100
0010
0000
1000
0000
0010
0100
0000
0001
1000
0000
,
0100
0000
1000
0000
0100
0000
0010
0000
0001
1000
0010
0100
0001
0100
0010
0000
,
1000
0000
0001
0010
0100
1000
0100
1000
0001
1000
0100
0010
0001
1000
0001
1000
,
0010
0100
0010
0100
0001
0100
0001
0100
0010
1000
0010
0100
0001
1000
0001
0100
,
0010
1000
0001
1000
0100
0010
0001
0010
0100
1000
0001
0010
0001
1000
0001
0100
,
0010
1000
0001
1000
0010
1000
0001
1000
0010
0100
0001
1000
0010
1000
0001
0010
,
0100
0010
0001
1000
0010
0100
0010
0100
0001
0100
0010
1000
0001
1000
0001
1000
,
0010
0100
0010
0100
0001
0100
0001
0100
0010
1000
0010
0100
0001
1000
0001
0100
,
0010
1000
0001
1000
0100
0010
0001
0010
0100
1000
0001
0010
0001
1000
0001
0100
,
0010
1000
0001
1000
0010
1000
0001
1000
0010
0100
0001
1000
0010
1000
0001
0010
,
0100
0010
0001
1000
0010
0100
0010
0100
0001
0100
0010
1000
0001
1000
0001
1000
,
0100
0010
0100
0010
0001
0010
0001
0010
0100
1000
0100
0010
0001
1000
0001
0010
,
0100
1000
0001
1000
0010
0100
0001
0100
0010
1000
0001
0100
0001
1000
0001
0010
,
0100
1000
0001
1000
0100
1000
0001
1000
0100
0010
0001
1000
0100
1000
0001
0100
,
0010
0100
0001
1000
0100
0010
0100
0010
0001
0010
0100
1000
0001
1000
0001
1000
,
0100
0010
0100
0010
0001
0010
0001
0010
0100
1000
0100
0010
0001
1000
0001
0010
,
0100
1000
0001
1000
0010
0100
0001
0100
0010
1000
0001
0100
0001
1000
0001
0010
,
0100
1000
0001
1000
0100
1000
0001
1000
0010
0100
0001
0010
0100
0010
0001
0100
,
0010
1000
0100
1000
0010
0100
0001
0010
0200
0000
0000
0000
0000
0000
0000
0000
,
M000
000M
00M0
000M
0000
0000
0000
0000
0000
0000
0000
0000
,
0000
0000
0000
0000
0000
0000
0000
0000
0000
0000
0000
0000
0000
0000
0000
0000
0000
0000
0000
0000
0000
0000
0300
0000
0000
0000
1000
0002
0000
0000
0000
0000
,
0000
0000
0000
0000
,
0000
0000
0000
0000
,
0000
0000
0000
0000
,
0000
0000
0000
0000
0000
0000
0000
0000
0000
0000
0000
0000
0000
0000
0000
0000
0000
0000
0000
0000
0000
0000
0000
0000
0000
0000
0000
0003
0000
0000
0000
0000
;

//---------------dance-single - 15 (TYLR)----------------
#NOTES:
     dance-single:
     15 (TYLR):
     Challenge:
     15:
     1.000,1.000,0.044,0.317,1.000,2327.000,12.000,87.000,23.000,0.000:
0000
0000
0000
0000
,
0000
0000
0000
0000
,
0000
0000
0000
0000
,
0000
0000
0000
0000
,
0000
0000
0000
0000
,
0000
0000
0000
0000
,
0000
0000
0000
0000
,
0000
0000
0000
0000
,
1010
0010
0100
0001
0100
0010
1000
0100
,
0010
0001
1000
0001
0100
0020
1000
0000
,
0130
0001
1000
0100
0010
0100
1000
0010
,
0100
0000
0001
0000
0010
0000
0100
0000
1000
0000
0001
1000
0100
0010
0001
0100
,
0010
0100
0010
1000
0001
1000
0010
0100
,
0001
0010
0100
1000
0010
0200
0001
0000
,
0310
1000
0001
0010
0100
0010
0001
0100
,
0010
1000
0010
0100
0001
1000
0001
0100
0010
1000
0100
0010
0001
0010
0100
1000
,
0010
1000
0010
0000
0100
0000
0010
0000
1000
0001
1000
0000
0100
0010
0000
0010
,
0001
1000
0001
0000
0100
0000
0001
0000
1000
0010
1000
0000
0001
1000
0000
1000
,
0100
0010
0100
0000
1000
0000
0100
0000
0010
0001
0010
0000
0100
1000
0000
1000
,
0010
0100
0001
0000
1000
0000
0001
0000
0100
0010
1000
0001
0010
0100
1000
0010
,
0100
0001
1000
0000
0100
0000
0010
0000
0001
1000
0010
0000
0100
0001
0000
0001
,
1000
0100
0010
0000
0001
0000
1000
0000
0010
0100
0001
0000
1000
0100
0000
0100
,
0010
0001
1000
0000
0010
0000
0100
0000
0001
1000
0010
0000
1000
0001
0000
0001
,
0020
0000
0130
0000
0010
0000
0001
0000
1000
0000
0001
0100
0010
1000
0100
0010
,
0001
1000
0010
1000
0010
0100
0001
0010
,
0100
0010
0001
1000
0010
0200
0001
0000
,
0310
0000
1000
0000
0001
0000
0010
0000
0100
0000
0010
0000
0001
0100
0000
0100
,
0010
1000
0001
0000
0010
0000
0001
0000
1000
0010
0100
0001
0100
0010
1000
0100
,
0010
0001
1000
0000
0010
0000
1000
0000
0100
0010
0001
0000
1000
0010
0000
0010
,
0100
0001
1000
0000
0100
0000
1000
0000
0010
0100
0001
0000
1000
0100
0000
0100
,
0010
0001
1000
0000
0010
0000
0100
0000
0001
0100
0010
0000
1000
0100
0000
0100
,
1000
0001
1000
0001
1000
0001
1000
0001
1000
0001
1000
0001
1000
0001
1000
0001
,
0100
0001
1000
0100
1000
0001
0010
0001
0100
0010
0100
0001
1000
0100
0010
0100
,
0010
0001
1000
0010
1000
0001
0010
0001
0100
0010
1000
0001
1000
0010
0100
0010
,
1000
0001
1000
0010
1000
0001
0100
0001
0010
0100
0010
0001
1000
0010
0100
0010
,
0100
0001
1000
0100
1000
0001
0100
0001
0010
0100
1000
0001
1000
0010
0100
0001
,
0010
0001
1000
0010
1000
0001
0100
0001
0010
0100
0010
0001
1000
0010
0100
0010
,
0100
0001
1000
0100
1000
0001
0100
0001
0010
0100
1000
0001
1000
0100
0010
0100
,
1000
0001
1000
0100
1000
0001
0010
0001
0100
0010
0100
0001
1000
0100
0010
0100
,
0010
0001
1000
0010
1000
0001
0010
0001
0100
0010
1000
0001
1000
0100
0010
0001
,
0100
0001
1000
0100
1000
0001
0010
0001
0100
0010
0100
0001
1000
0100
0010
0100
,
0010
0001
1000
0010
1000
0001
0010
0001
0100
0010
1000
0001
1000
0010
0100
0010
,
1000
0001
1000
0010
1000
0001
0100
0001
0010
0100
0010
0001
1000
0010
0100
0010
,
0100
0001
1000
0100
1000
0001
0100
0001
0010
0100
1000
0001
1000
0010
0100
0001
,
0010
0001
1000
0010
1000
0001
0100
0001
0010
0100
0010
0001
1000
0010
0100
0010
,
0100
0001
1000
0100
1000
0001
0100
0001
0010
0100
1000
0001
1000
0100
0010
0100
,
1000
0001
1000
0100
1000
0001
0010
0001
0100
0010
0100
0001
1000
0100
0010
0100
,
0010
0001
1000
0010
0100
0010
1000
0001
2000
0000
3200
0000
0320
0000
0032
0000
,
0103
0001
1000
0100
1000
0001
0010
0001
0100
0010
0100
0001
1000
0100
0010
0100
,
0010
0001
1000
0010
1000
0001
0010
0001
0100
0010
1000
0001
1000
0010
0100
0010
,
1000
0001
1000
0010
1000
0001
0100
0001
0010
0100
0010
0001
1000
0010
0100
0010
,
0100
0001
1000
0100
1000
0001
0100
0001
0010
0100
1000
0001
1000
0010
0100
0001
,
0010
0001
1000
0010
1000
0001
0100
0001
0010
0100
0010
0001
1000
0010
0100
0010
,
0100
0001
1000
0100
1000
0001
0100
0001
0010
0100
1000
0001
1000
0100
0010
0100
,
1000
0001
1000
0100
1000
0001
0010
0001
0100
0010
0100
0001
1000
0100
0010
0100
,
0010
0001
1000
0010
1000
0001
0010
0001
0100
0010
1000
0001
1000
0100
0010
0001
,
0100
0001
1000
0100
1000
0001
0010
0001
0100
0010
0100
0001
1000
0100
0010
0100
,
0010
0001
1000
0010
1000
0001
0010
0001
0100
0010
1000
0001
1000
0010
0100
0010
,
1000
0001
1000
0010
1000
0001
0100
0001
0010
0100
0010
0001
1000
0010
0100
0010
,
0100
0001
1000
0100
1000
0001
0100
0001
0010
0100
1000
0001
1000
0010
0100
0001
,
0010
0001
1000
0010
1000
0001
0100
0001
0010
0100
0010
0001
1000
0010
0100
0010
,
0100
0001
1000
0100
1000
0001
0100
0001
0010
0100
1000
0001
1000
0100
0010
0100
,
1000
0001
1000
0100
1000
0001
0010
0001
0100
0010
0100
0001
1000
0100
0010
0100
,
1000
0001
0100
0010
0100
0001
0010
0100
1000
0001
0100
0010
0100
0001
0010
0100
,
2000
0000
0000
0000
0000
0000
0000
0000
0000
0000
0000
0000
3000
M000
0000
0000
,
0000
0000
0000
000M
0000
M000
0000
00M0
,
0000
0M00
0000
000M
0000
M0M0
0000
0M00
,
0000
0000
0000
0000
0000
0000
0000
0000
00M0
0000
0000
0000
0000
0000
0000
0000
0000
0000
0000
0000
0000
0000
0000
0000
M000
0000
0000
0000
0000
0000
0000
0000
0000
0000
000M
0000
0000
0000
0000
0000
0000
0000
0000
0000
0000
0M00
0000
0000
0000
0000
0000
0000
0000
0000
0000
0000
M000
0000
0000
0000
0000
0000
0000
0000
,
0000
0000
000M
0000
0000
0000
0000
0000
0000
0000
0000
0000
0000
0M00
0000
0000
0000
0000
0000
0000
0000
0000
0000
0000
00M0
0000
0000
0000
0000
0000
0000
0000
0000
0000
0000
0000
0000
0000
0000
0000
0000
0000
0000
0000
0000
0000
0000
0000
0000
0000
0000
0000
0000
0000
0000
0000
0000
0000
0000
0000
0000
0000
0000
0000
,
1001
0000
0000
1001
0000
0000
0000
0000
,
1001
0000
0000
0000
0000
0000
0000
0000
0001
0000
0000
0000
0000
0000
0000
0000
0001
0000
0000
0000
0000
0000
0000
0000
0000
0000
0000
0000
0000
0000
0000
0000
2000
0000
0000
0000
0000
0000
0000
0000
0000
0000
0000
0000
0000
0000
0000
0000
3200
0000
0000
0000
0000
0000
0000
0000
0000
0000
0000
0000
0000
0000
0000
0300
,
0011
0000
0000
1001
0000
0000
0000
0000
,
1001
0000
1000
0000
1000
0000
0000
0000
0020
0030
0020
0030
0200
0300
0200
0300
,
0101
0000
0000
1001
0000
0000
0000
0000
,
1001
0001
0001
0000
0020
0000
0230
0000
,
1300
0000
0000
0000
0000
0000
0000
0000
0000
1000
0000
0000
0000
0000
0000
0000
0000
0000
0000
0000
0000
0001
0010
0001
,
0010
0000
0000
0000
0000
0000
0000
0000
0000
0010
0000
0000
0000
0000
0000
0000
0000
0000
0000
0000
0000
0100
1000
0100
,
1000
0000
0000
0000
0000
0000
0000
0000
0000
1000
0000
0000
0000
0000
0000
0000
0000
0000
0000
0000
0000
0001
1000
0001
,
1000
0000
0000
0000
0000
0000
0000
0000
0000
1000
0000
0000
0000
0000
0000
0000
0000
0000
0000
0000
0000
1000
0010
1000
,
0010
0000
0000
0000
0000
0000
0000
0000
0000
0010
0000
0000
0000
0000
0000
0000
0000
0000
0000
0000
0000
0100
0001
0100
,
0001
0000
0000
0000
0000
0000
0000
0000
0000
0001
0000
0000
0000
0000
0000
0000
0000
0000
0000
0000
0000
1000
0100
1000
,
0100
0000
0000
0000
0000
0000
0000
0000
0000
0100
0000
0000
0000
0000
0000
0000
0000
0000
0000
0000
0000
0010
0001
0010
,
0001
0000
0000
0000
0000
0000
0000
0000
0000
0001
0000
0000
0000
0000
0000
0000
0000
0000
0000
0000
0000
1000
0001
1000
,
0001
0000
0000
0000
0000
0000
1000
0000
0001
0000
1000
0000
0001
0000
0000
0000
0000
0000
0001
0000
0000
0000
0000
0000
1000
0000
0000
0010
0000
0000
0100
0000
0000
0000
0000
0000
0100
0000
0000
0000
0000
0000
0001
0000
0100
0000
0001
0000
,
0100
0000
0000
0000
0000
0000
0010
0000
1000
0000
0010
0000
1000
0000
0000
0000
0000
0000
1000
0000
0000
0000
0000
0000
0001
0000
0000
0010
0000
0000
0100
0000
0000
0000
0000
0000
0100
0000
0000
0000
0000
0000
1000
0000
0001
0000
1000
0000
,
0001
0000
0000
0000
0000
0000
1000
0000
0001
0000
1000
0000
0001
0000
0000
0000
0000
0000
0001
0000
0000
0000
0000
0000
1000
0000
0000
0010
0000
0000
0100
0000
0000
0000
0000
0000
0100
0000
0000
0000
0000
0000
0001
0000
1000
0000
0001
0000
,
1000
0000
0000
0000
0000
0000
0001
0000
0010
0000
0001
0000
0010
0000
0000
0000
0000
0000
0010
0000
0000
0000
0000
0000
0100
0000
0000
1000
0000
0000
0001
0000
0000
0000
0000
0000
0001
0000
0000
0000
0000
0000
1000
0000
0010
0000
1000
0000
,
0010
0000
0000
0100
0001
0100
0001
0000
0000
1000
0100
1000
0100
0000
0000
0010
0001
0010
0001
0000
0000
1000
0010
1000
,
0010
0000
0000
0100
0001
0100
0001
0000
0000
1000
0100
1000
0100
0000
0000
0010
0001
0010
0001
0000
0000
1000
0001
1000
,
0001
0100
0010
1000
0100
1000
0010
0100
0001
0010
0100
0010
0001
0100
0010
1000
,
0002
0000
0000
0000
00M3
0000
0000
0000
0002
0000
0023
0000
0031
1000
0010
0100
,
0001
0100
0010
1000
0100
1000
0001
0100
0001
1000
0010
1000
0001
0010
0100
1000
,
0001
0100
0010
1000
0100
1000
0001
0100
0001
1000
0100
0010
0001
1000
0010
1000
,
0001
0010
0100
1000
0010
1000
0001
1000
0010
1000
0100
0010
0001
0100
0001
1000
,
0100
0010
0100
1000
0010
0100
0001
1000
0001
0100
0010
1000
0001
0010
0001
1000
,
0010
1000
0100
1000
0010
0100
0001
0010
0001
1000
0010
1000
0001
0010
0100
1000
,
0001
0100
0010
1000
0100
1000
0001
0100
0001
1000
0100
0010
0001
1000
0010
1000
,
0001
0010
0100
1000
0010
1000
0001
1000
0010
1000
0100
0010
0001
0100
0010
1000
,
0100
0010
0001
1000
0010
1000
0001
0100
0010
1000
0100
1000
0010
0100
0001
1000
,
0010
1000
0001
0100
0001
1000
0100
1000
0001
0100
0010
1000
0001
0010
0100
1000
,
0001
0100
0010
1000
0100
1000
0001
0100
0001
1000
0100
0010
0001
1000
0010
1000
,
0001
0010
0100
1000
0010
1000
0001
1000
0010
1000
0100
0010
0001
0100
0001
1000
,
0100
0010
0100
1000
0001
0100
0010
1000
0100
1000
0010
0100
0001
1000
0100
1000
,
0100
1000
0010
1000
0100
0010
0001
0100
0001
1000
0010
1000
0001
0010
0100
1000
,
0001
0100
0010
1000
0100
1000
0001
0100
0001
1000
0010
1000
0001
0010
0001
1000
,
0100
0010
0100
1000
0010
1000
0001
1000
0010
1000
0100
0010
0001
0100
0010
1000
,
0100
0010
0001
1000
0100
1000
0001
0100
0010
1000
0100
0010
0001
1000
0010
0100
,
0001
1000
0010
1000
0100
1000
0001
0100
0001
1000
0010
1000
0001
0010
0100
1000
,
0001
0100
0010
1000
0100
1000
0001
0100
0001
1000
0100
0010
0001
1000
0010
1000
,
0001
0010
0100
1000
0010
1000
0001
1000
0010
1000
0100
0010
0001
0100
0001
1000
,
0100
0010
0100
1000
0001
0100
0010
1000
0100
1000
0010
0100
0001
1000
0001
0100
,
0001
1000
0010
1000
0100
1000
0001
0100
0001
1000
0010
1000
0001
0010
0100
1000
,
0001
0100
0010
1000
0100
1000
0001
0100
0001
1000
0100
0010
0001
1000
0010
1000
,
0001
0010
0100
1000
0010
1000
0001
1000
0010
1000
0100
0010
0001
0100
0010
1000
,
0100
0010
0100
1000
0001
1000
0010
0100
0001
0100
0010
1000
0001
0010
0100
0010
,
0001
1000
0010
1000
0100
1000
0001
0100
0001
1000
0010
1000
0001
0010
0100
1000
,
0001
0100
0010
1000
0100
1000
0001
0100
0001
1000
0100
0010
0001
1000
0010
1000
,
0001
0010
0100
1000
0010
1000
0001
1000
0010
1000
0100
0010
0001
0100
0010
1000
,
0100
0010
0001
1000
0100
1000
0001
0100
0010
1000
0100
0010
0001
1000
0001
0100
,
0001
1000
0010
1000
0100
1000
0001
0100
0001
1000
0010
1000
0001
0010
0100
1000
,
0001
0100
0010
1000
0100
1000
0001
0100
0001
1000
0100
0010
0001
1000
0010
1000
,
0001
0010
0100
1000
0010
1000
0001
1000
0010
1000
0100
0010
0001
0100
0001
1000
,
0100
0010
0001
0010
0100
1000
0001
1000
0010
0100
0001
1000
0001
0000
0100
0000
,
0020
0000
0000
0000
1000
0000
0000
0030
0200
0000
0000
0000
1000
0000
0000
0300
0020
0000
0000
0000
0100
0000
0000
0030
0002
0000
0000
0000
0100
0000
0000
0003
,
0020
0000
0000
0000
1000
0000
0000
0030
0002
0000
0000
0000
0100
0000
0000
0003
0020
0000
0000
0000
1000
0000
0000
0030
0100
0000
0000
0000
0010
0000
0000
0000
,
0001
0100
0001
1000
0001
1000
0100
0010
,
0001
0000
0100
0000
0001
0000
1000
0001
1000
0100
0010
0001
0100
0000
0001
0000
,
0020
0000
0000
0000
0001
0000
0000
0030
0200
0000
0000
0000
0001
0000
0000
0300
0020
0000
0000
0000
0100
0000
0000
0030
2000
0000
0000
0000
0100
0000
0000
3000
,
0020
0000
0000
0000
0001
0000
0000
0030
2000
0000
0000
0000
0100
0000
0000
3000
0020
0000
0000
0000
0001
0000
0000
0030
0100
0000
0000
0000
0010
0000
0000
0000
,
1000
0100
1000
0001
1000
0001
0100
0010
,
1000
0000
0100
0000
1000
0000
0001
1000
0001
0100
0010
1000
0001
0000
1000
0000
,
0020
0000
0000
0000
1000
0000
0000
0030
0200
0000
0000
0000
1000
0000
0000
0300
0020
0000
0000
0000
0100
0000
0000
0030
0002
0000
0000
0000
0100
0000
0000
0003
,
0020
0000
0000
0000
1000
0000
0000
0030
0002
0000
0000
0000
0100
0000
0000
0003
0020
0000
0000
0000
1000
0000
0000
0030
0100
0000
0000
0000
0010
0000
0000
0000
,
0001
0100
0001
1000
0001
1000
0100
0010
,
0001
0000
0100
0000
0001
0000
1000
0001
1000
0100
0010
0001
0100
0000
0001
0000
,
0020
0000
0000
0000
0001
0000
0000
0030
0200
0000
0000
0000
0001
0000
0000
0300
0020
0000
0000
0000
0100
0000
0000
0030
2000
0000
0000
0000
0100
0000
0000
3000
,
0020
0000
0000
0000
0001
0000
0000
0030
2000
0000
0000
0000
0100
0000
0000
3000
0020
0000
0000
0000
0001
0000
0000
0030
0100
0000
0000
0000
0010
0000
0000
0000
,
1000
0000
0100
0000
0010
0000
0001
0000
0010
0000
0001
0000
1000
0001
1000
0001
,
1000
0001
1000
0001
1000
0001
1000
0001
1000
0001
1000
0001
0100
0010
1000
0001
,
0010
0100
0010
0001
0100
0010
0100
0001
1000
0100
1000
0001
0100
0010
0100
0001
,
1000
0010
1000
0001
0100
0010
0100
0001
0010
0100
0010
0001
1000
0100
1000
0001
,
1000
0010
0100
0001
1000
0001
0100
0010
1000
0001
0010
0001
1000
0010
1000
0001
,
1000
0100
0010
0001
1000
0010
0100
0001
1000
0001
1000
0100
0010
0100
1000
0001
,
0100
0010
0100
0001
0010
0100
0010
0001
1000
0010
1000
0001
0010
0100
0010
0001
,
1000
0100
1000
0001
0010
0100
0010
0001
0100
0010
0100
0001
1000
0010
1000
0001
,
1000
0100
0010
0001
1000
0001
0010
0100
1000
0001
0100
0001
1000
0100
1000
0001
,
1000
0010
0100
0001
1000
0100
0010
0001
0010
0100
1000
0010
0100
0001
0100
0001
,
0010
0100
0010
0001
0100
0010
0100
0001
1000
0100
1000
0001
0100
0010
0100
0001
,
1000
0010
1000
0001
0100
0010
0100
0001
0010
0100
0010
0001
1000
0100
1000
0001
,
1000
0010
0100
0001
1000
0001
0100
0010
1000
0001
0010
0001
1000
0010
1000
0001
,
1000
0100
0010
0001
1000
0010
0100
0001
1000
0001
1000
0100
0010
0100
1000
0001
,
0010
0100
0010
0001
0100
0010
0100
0001
1000
0100
1000
0001
0100
0010
0100
0001
,
1000
0010
1000
0001
0100
0010
0100
0001
0010
0100
0010
0001
1000
0100
1000
0001
,
1000
0010
0100
0001
1000
0001
0100
0010
1000
0001
0010
0001
1000
0010
1000
0001
,
1000
0100
0010
0001
1000
0010
0100
0001
0010
0100
1000
0010
0200
0000
0000
0000
,
03M0
0000
0000
0000
M000
0000
2000
3020
0130
0001
0010
0100
0000
0000
0000
0000
,
1000
0100
0010
0001
0000
0000
0000
0000
0100
0010
1000
0001
0000
0000
0000
0000
,
0010
0100
1000
0001
0000
0000
0000
0000
1000
0010
0100
0001
0000
0000
0000
0000
,
1000
0100
0010
0001
0000
0000
0000
0000
0100
0010
1000
0001
0000
0000
0000
0000
,
0010
0100
1000
0001
2000
0000
3200
0000
230M
3000
0020
0030
0200
0300
0002
0003
,
1000
0000
0001
0000
1000
0000
0001
0000
2000
3000
0200
0300
0020
0030
0002
0003
,
1000
0000
0001
0000
1000
0000
0001
0000
0200
0300
0020
0030
2000
3000
0002
0003
,
1000
0000
0001
0000
1000
0000
0001
0000
0020
0030
0200
0300
2000
3000
0002
0003
,
1000
0000
0000
0000
0000
0000
0001
0000
0000
1000
0000
0000
0010
0000
0000
0100
0000
0000
0001
0000
0100
0000
0001
0000
0200
0000
0000
0300
0000
0000
0020
0000
0000
0030
0000
0000
2000
0000
0000
3000
0000
0000
0002
0000
0000
0003
0000
0000
,
1000
0000
0001
0000
1000
0000
0001
0000
0020
0030
0200
0300
2000
3000
0002
0003
,
1000
0000
0001
0000
1000
0000
0001
0000
2000
3000
0020
0030
0200
0300
0002
0003
,
1000
0000
0001
0000
1000
0000
0001
0000
2000
3000
0200
0300
0020
0030
0002
0003
,
4000
0000
3001
0000
0400
0000
0310
0000
1000
0001
0010
0100
1000
0001
0100
0001
,
0010
0001
1000
0010
1000
0001
0100
0001
1000
0100
0010
0001
1000
0010
0100
0001
,
0010
0001
1000
0010
1000
0001
0010
0100
1000
0001
0100
0001
1000
0100
0010
0001
,
0100
0001
0010
0001
0100
0001
0010
0100
1000
0010
0100
0001
0010
0100
1000
0001
,
0010
0001
1000
0010
0100
0001
1000
0100
1000
0001
1000
0010
1000
0001
0100
0001
,
0010
0001
1000
0010
1000
0001
0100
0001
1000
0100
0010
0001
1000
0010
0100
0001
,
0010
0001
1000
0010
1000
0001
0010
0100
1000
0001
0100
0001
1000
0100
0010
0001
,
0100
0001
0010
0001
0100
0001
0010
0100
1000
0010
1000
0001
0010
0100
1000
0100
,
0010
0001
1000
0001
0100
0010
1000
0100
0010
0001
1000
0001
0010
0100
1000
0001
,
0100
0010
0100
0001
0010
0100
1000
0001
0100
0010
0100
0001
1000
0010
1000
0001
,
0010
0100
0010
0001
0100
0010
0100
0001
1000
0010
0100
0001
1000
0100
0010
0001
,
0100
0001
0010
0001
0100
0001
0010
0100
1000
0010
0100
0001
1000
0001
0100
0010
,
1000
0001
0010
0100
1000
0001
0100
0001
1000
0010
1000
0001
0010
0100
0010
0001
,
0100
0010
0100
0001
1000
0100
1000
0001
0100
0010
0100
0001
1000
0010
1000
0001
,
0100
0010
0100
0001
0010
0100
0010
0001
1000
0100
1000
0001
1000
0010
0100
0001
,
0010
0001
0100
0001
0010
0001
0100
0010
1000
0100
0010
0001
0100
0010
1000
0010
,
0100
0001
0010
0001
0100
0010
1000
0001
1000
0010
0100
0001
0010
0100
0010
0001
,
0100
0010
0100
0001
1000
0100
1000
0001
0100
0010
0100
0001
1000
0010
1000
0001
,
0100
0010
0100
0001
0010
0100
0010
0001
1000
0100
1000
0001
1000
0010
0100
0001
,
0010
0001
0100
0001
0010
0001
0100
0010
1000
0100
1000
0001
0100
0010
0100
0001
,
1000
0100
0010
0001
1000
0001
0010
0100
1000
0001
0100
0001
1000
0100
0010
0001
,
0100
0001
0010
0100
1000
0100
0010
0001
1000
0010
0100
0001
1000
0001
0100
0010
,
1000
0100
1000
0001
0100
0010
0100
0001
1000
0100
0010
0001
1000
0010
0100
0001
,
0010
0001
0100
0001
0010
0001
0100
0010
1000
0100
1000
0010
0100
0001
1000
0100
,
0010
0001
0100
0010
1000
0001
1000
0010
0200
0000
0000
0000
0000
0000
0000
0000
,
M00M
0000
0000
0000
,
0000
0000
0000
0000
0000
0000
0000
0000
0000
0000
0000
0000
0000
0000
0000
0000
0000
0000
0000
0000
0000
0000
0000
0000
0000
0000
0000
0000
0000
0000
0000
0000
0300
0000
0000
0000
0000
0000
0000
0000
0000
0000
0000
0000
0000
0000
0000
0000
0000
0000
0000
0000
0000
0000
0000
0001
2000
0000
0000
0000
0000
0000
0000
0000
,
0000
0000
0000
0000
,
0000
0000
0000
0000
,
0000
0000
0000
0000
,
0000
0000
0000
0000
,
0000
0000
3000
0000
;
