#TITLE:Thor;
#SUBTITLE:;
#ARTIST:XeoN;
#TITLETRANSLIT:;
#SUBTITLETRANSLIT:;
#ARTISTTRANSLIT:;
#CREDIT:;
#BANNER:../banner.png;
#BACKGROUND:../bg.png;
#LYRICSPATH:;
#CDTITLE:;
#MUSIC:Thor.ogg;
#OFFSET:0.054;
#SAMPLESTART:97.280;
#SAMPLELENGTH:21.540;
#SELECTABLE:YES;
#BPMS:0.000=180.002;
#STOPS:;
#BGCHANGES:;
// cache tags:
#FIRSTBEAT:4.000;
#LASTBEAT:488.000;
#SONGFILENAME:Songs/Cirque du Lykan/Thor - [Zaia]/Thor.sm;
#HASMUSIC:1;
#HASBANNER:1;
#MUSICLENGTH:165.883;
// end cache tags

//---------------dance-single - Zaia - 15(mid-high)----------------
#NOTES:
     dance-single:
     Zaia - 15(mid-high):
     Challenge:
     15:
     1.000,1.000,0.000,0.006,1.000,1759.000,0.000,1.000,0.000,0.000:
0000
0000
0000
0000
,
1000
0001
0010
0001
1000
0100
1000
0001
0100
0010
0100
0001
1000
0100
0010
0100
,
1000
0001
0100
0001
1000
0100
1000
0010
0100
0001
1000
0001
1000
0100
0010
0100
,
1000
0001
0100
0001
1000
0010
1000
0001
0010
0100
0010
0001
1000
0010
0100
0010
,
1000
0001
0010
0001
1000
0010
1000
0100
0010
0001
1000
0001
1000
0010
0100
0010
,
1000
0001
1000
0100
1000
0001
0010
0001
1000
0010
0100
0010
1000
0001
0010
0100
,
0010
0001
1000
0010
1000
0001
0010
0001
0100
0010
1000
0001
1000
0001
0010
0100
,
0010
0001
1000
0010
1000
0001
0100
0001
1000
0100
0010
0100
1000
0001
0100
0010
,
0100
0001
1000
0100
1000
0001
0100
0001
0010
0100
1000
0001
1000
0001
0100
0010
,
1000
0001
0010
0001
1000
0100
1000
0001
0100
0010
0100
0001
0010
0100
1000
0001
,
1000
0010
0100
0001
1000
0010
1000
0010
0100
0001
1000
0100
1000
0001
0010
0100
,
1000
0001
0100
0001
1000
0010
1000
0001
0010
0100
0010
0001
0100
0010
1000
0001
,
1000
0100
0010
0001
1000
0100
1000
0100
0010
0001
1000
0010
1000
0001
0100
0010
,
1000
0001
1000
0100
1000
0001
0010
0001
1000
0010
0100
0010
1000
0100
0010
0001
,
1000
0001
0100
0010
1000
0001
0100
0001
0100
0010
1000
0001
0010
0001
1000
0100
,
0010
0001
1000
0010
1000
0001
0100
0001
1000
0100
0010
0100
1000
0010
0100
0001
,
1000
0001
0010
0100
1000
0001
0010
0001
0010
0100
1000
0001
0100
0010
1000
0001
,
1000
0001
0010
0001
0100
0010
1000
0001
0010
0100
1000
0001
0100
0001
0010
0001
,
1000
0010
1000
0001
0010
0100
1000
0001
1000
0010
1000
0100
0010
0001
1000
0001
,
1000
0010
0100
0001
0010
0100
1000
0001
0100
0010
1000
0001
0010
0001
0100
0001
,
1000
0100
1000
0001
0100
0010
1000
0001
1000
0100
1000
0010
0100
0001
1000
0001
,
1000
0100
1000
0010
0100
0001
1000
0100
0010
0001
1000
0010
1000
0100
1000
0001
,
0100
0001
1000
0100
0010
0001
1000
0001
0100
0001
0010
0100
1000
0001
1000
0001
,
0100
0010
1000
0100
0010
0001
1000
0010
0100
0001
1000
0100
1000
0010
1000
0001
,
0010
0001
1000
0010
0100
0001
1000
0001
0010
0001
0100
0010
1000
0001
1000
0100
,
1000
0001
0010
0001
0100
0010
1000
0001
0010
0100
1000
0001
0100
0001
0010
0001
,
1000
0010
1000
0001
0010
0100
1000
0001
1000
0010
1000
0100
0010
0001
1000
0001
,
1000
0010
0100
0001
0010
0100
1000
0001
0100
0010
1000
0001
0010
0001
0100
0001
,
1000
0100
1000
0001
0100
0010
1000
0001
1000
0100
1000
0010
0100
0001
1000
0001
,
1000
0100
1000
0010
0100
0001
1000
0100
0010
0001
1000
0010
1000
0100
1000
0001
,
0100
0001
1000
0100
0010
0001
1000
0001
0100
0001
0010
0100
1000
0001
1000
0001
,
0100
0000
0010
0000
1000
0000
0001
1000
0100
0000
0010
0000
0100
0000
1000
0010
,
0100
0001
1000
0001
0010
0100
1000
0001
0100
0000
0000
0010
0000
0000
1000
0000
,
0001
0000
0000
0100
0000
0000
0010
1000
,
0000
0000
0000
0000
0000
0000
0100
0010
,
0001
0000
0000
1000
0000
0000
0010
0000
,
0100
0000
0000
0000
,
0001
0000
0000
1000
0000
0001
0000
0010
,
0000
0000
0000
0000
0000
0000
0000
0000
0100
0000
0000
1000
0000
0000
0010
0000
,
0100
0000
0001
0000
,
1000
0100
1000
0010
,
0100
0010
1000
0001
1000
0100
0010
0100
1000
0001
1000
0010
0100
0001
1000
0001
,
0010
0001
1000
0010
0100
0001
1000
0001
0010
0100
0010
0100
1000
0001
1000
0100
,
0010
0100
1000
0001
1000
0010
0100
0010
1000
0001
1000
0100
0010
0001
1000
0001
,
0100
0001
1000
0100
0010
0001
1000
0001
0100
0010
0100
0010
1000
0001
1000
0010
,
1000
0001
0010
0001
1000
0001
0100
0010
0100
0001
1000
0001
0010
0100
1000
0001
,
1000
0010
1000
0001
0010
0100
1000
0001
1000
0010
0100
0010
0100
0001
1000
0001
,
0100
0010
0100
0001
1000
0001
0010
0100
0010
0001
1000
0001
0100
0010
1000
0001
,
1000
0100
1000
0001
0100
0010
1000
0001
1000
0100
0010
0100
0010
0001
1000
0001
,
0100
0010
0100
0001
0010
0100
1000
0001
0100
0010
1000
0001
0010
0001
0100
0001
,
1000
0100
1000
0001
0100
0010
1000
0001
1000
0100
1000
0001
0100
0010
1000
0001
,
1000
0100
0010
0001
0100
0010
1000
0001
0010
0100
1000
0001
0100
0001
0010
0001
,
1000
0010
1000
0001
0010
0100
1000
0001
1000
0010
1000
0001
0010
0100
1000
0001
,
1000
0100
0010
0100
1000
0010
0100
0001
1000
0100
0010
0001
1000
0010
1000
0100
,
1000
0001
0100
0001
1000
0100
0010
0001
1000
0001
0100
0001
1000
0100
0010
0001
,
1000
0001
0100
0010
1000
0100
0010
0001
1000
0010
0100
0001
1000
0100
1000
0010
,
1000
0001
0010
0001
1000
0010
0100
0001
1000
0001
0010
0001
1000
0010
0100
0001
,
1000
0100
1000
0001
0100
0001
0010
0100
1000
0001
0100
0010
1000
0100
1000
0001
,
0100
0010
1000
0001
0010
0001
0100
0010
1000
0001
0010
0100
1000
0010
1000
0001
,
0100
0001
0010
0001
1000
0010
1000
0100
0010
0001
1000
0010
0100
0001
0010
0001
,
1000
0010
0100
0001
1000
0100
1000
0010
0100
0001
1000
0100
0010
0001
0100
0001
,
1000
0100
1000
0001
0100
0001
0010
0100
1000
0001
0100
0010
1000
0100
1000
0001
,
0100
0010
1000
0001
0010
0001
0100
0010
1000
0001
0010
0100
1000
0010
1000
0001
,
0100
0000
0010
0000
0100
0000
0010
1000
0001
0000
0010
0000
0100
0000
1000
0001
,
1000
0010
0100
0001
1000
0100
1000
0010
0100
0000
0000
0001
0000
0000
1000
0000
,
0001
0010
0001
0000
1000
0001
0000
0010
0001
0000
1000
0100
0000
0010
0001
0010
,
0001
1000
0001
0000
1000
0001
0000
1000
0010
0000
0100
0010
0000
0100
0010
0100
,
0001
0100
0001
0000
1000
0001
0000
0010
0001
0000
0010
0100
0000
1000
0100
1000
,
0001
1000
0001
0000
0100
0001
0000
1000
0100
0000
1000
0001
0000
1000
0010
1000
,
0010
0100
0010
0000
0100
0001
0000
1000
0001
0000
1000
0100
0000
1000
0001
1000
,
0100
1000
0100
0000
1000
0001
0000
0010
0001
0000
1000
0010
0000
1000
0001
1000
,
0010
1000
0010
0000
0100
0010
0000
0100
0001
0000
1000
0001
0000
0010
0100
0010
,
0100
1000
0100
0000
1000
0001
0000
0100
0001
0000
0100
0010
0000
1000
0010
1000
,
0001
0100
0001
1000
0100
1000
0010
0100
0001
1000
0100
0010
0001
0100
0001
1000
,
0100
0010
0001
1000
0010
1000
0100
0010
0001
1000
0010
0100
0001
0010
0001
1000
,
0100
1000
0010
1000
0001
0010
0001
0100
0010
1000
0001
0010
0100
1000
0010
1000
,
0001
0010
0100
1000
0001
0100
0001
0010
0100
1000
0001
0100
0010
1000
0100
1000
,
0001
0100
0001
1000
0100
1000
0010
0100
0001
1000
0100
0010
0001
0100
0001
1000
,
0100
0010
0001
1000
0010
1000
0100
0010
0001
1000
0010
0100
0001
0010
0001
1000
,
0100
1000
0010
1000
0001
0010
0001
0100
0010
1000
0001
0010
0100
1000
0010
1000
,
0001
0010
0100
1000
0001
0100
0001
0010
0100
1000
0001
0100
0010
1000
0100
1000
,
0001
0100
0010
1000
0001
1000
0100
1000
0010
0100
0001
0010
0100
1000
0001
0010
,
0001
1000
0010
0100
0001
1000
0100
1000
0001
0010
0001
0100
0010
1000
0001
0010
,
0100
1000
0010
1000
0001
0100
0010
0100
0001
1000
0001
0010
0100
0010
0001
1000
,
0010
0100
0001
0010
0100
1000
0001
1000
0100
0010
0100
1000
0010
0100
0001
1000
,
0001
0010
0001
0100
0010
1000
0001
0100
0001
1000
0100
0010
0001
1000
0010
1000
,
0100
1000
0001
0010
0100
0010
0001
1000
0010
0100
0010
1000
0001
0100
0001
1000
,
0001
0010
0100
1000
0001
1000
0010
0100
0010
1000
0001
1000
0100
1000
0001
0010
,
0001
0100
0010
1000
0001
1000
0100
0010
0100
1000
0001
1000
0010
0100
0001
1000
,
0001
0010
0100
1000
0001
1000
0010
1000
0100
0010
0001
0100
0010
1000
0001
0100
,
0001
1000
0100
0010
0001
1000
0010
1000
0001
0100
0001
0010
0100
1000
0001
0100
,
0010
1000
0100
1000
0001
0010
0100
0010
0001
1000
0001
0100
0010
0100
0001
1000
,
0100
0010
0001
0100
0010
1000
0001
1000
0010
0100
0010
1000
0100
0010
0001
1000
,
0001
0100
0001
0010
0100
1000
0001
0010
0001
1000
0010
0100
0001
1000
0100
1000
,
0010
1000
0001
0100
0010
0100
0001
1000
0100
0010
0100
1000
0001
0010
0001
1000
,
0001
0100
0010
1000
0001
1000
0100
0010
0100
1000
0001
1000
0010
1000
0001
0100
,
0001
0010
0100
1000
0001
1000
0010
0100
0010
1000
0001
1000
0100
0010
0001
1000
,
0010
0100
0001
1000
0001
0010
0001
0100
0010
1000
0100
0010
0001
1000
0100
1000
,
0001
0100
0010
1000
0001
0010
0001
1000
0100
1000
0010
0100
0001
1000
0100
0010
,
0001
0100
0001
1000
0010
0100
0010
1000
0001
1000
0100
0010
0100
1000
0001
0100
,
0010
1000
0100
0010
0001
1000
0001
0010
0100
0010
0001
0100
0010
1000
0001
1000
,
0100
1000
0010
0100
0001
1000
0010
1000
0001
0010
0100
1000
0001
0100
0001
0010
,
0001
1000
0100
0010
0100
1000
0001
0100
0010
0100
0001
1000
0010
1000
0001
1000
,
0100
0010
0001
1000
0001
0100
0010
0100
0001
1000
0001
0010
0001
1000
0100
1000
,
0010
0100
0001
1000
0001
0010
0100
0010
0001
1000
0001
0100
0010
1000
0001
1000
,
0100
0010
0001
1000
0001
0100
0001
0010
0100
1000
0010
0100
0001
1000
0010
1000
,
0001
0010
0100
1000
0001
0100
0001
1000
0010
1000
0100
0010
0001
1000
0010
0100
,
0001
0010
0001
1000
0100
0010
0100
1000
0001
1000
0010
0100
0010
1000
0001
0010
,
0100
1000
0010
0100
0001
1000
0001
0100
0010
0100
0001
0010
0100
1000
0001
1000
,
0010
1000
0100
0010
0001
1000
0100
1000
0001
0100
0010
1000
0001
0010
0001
0100
,
0001
1000
0010
0100
0010
1000
0001
0010
0100
0010
0001
1000
0100
1000
0001
1000
,
0010
0100
0001
1000
0001
0010
0100
0010
0001
1000
0001
0100
0001
1000
0010
1000
,
0100
0010
0001
1000
0001
0100
0010
0100
0001
1000
0001
1000
0010
0100
0010
0100
,
0001
1000
0100
1000
0001
0010
0001
1000
0010
0100
0010
1000
0001
0010
0100
0010
,
0001
1000
0010
1000
0001
0010
0001
0100
0010
1000
0001
1000
0001
0010
0100
0010
,
0001
1000
0010
1000
0001
0100
0001
1000
0100
0010
0100
1000
0001
0100
0010
0100
,
0001
1000
0100
1000
0001
0100
0001
0010
0100
1000
0001
1000
0001
0100
0010
0100
,
0001
1000
0001
0010
0001
1000
0100
1000
0001
0100
0010
0100
0001
1000
0100
0010
,
0100
1000
0001
0100
0001
1000
0100
1000
0010
0100
0001
1000
0001
1000
0100
0010
,
0100
1000
0001
0100
0001
1000
0010
1000
0001
0010
0100
0010
0001
1000
0010
0100
,
0010
1000
0001
1000
0100
0000
0010
0001
0000
1000
0100
0000
0010
0001
0100
0001
,
2000
0000
0000
0000
,
3000
0000
0000
0000
;

//---------------dance-single - Zaia - 14(low)----------------
#NOTES:
     dance-single:
     Zaia - 14(low):
     Hard:
     14:
     1.000,1.000,0.000,0.060,1.000,1419.000,0.000,10.000,0.000,0.000:
0000
0000
0000
0000
,
1000
0010
0000
0100
0000
0001
1000
0100
0000
0000
0000
0000
0000
0000
0000
0000
,
0000
0000
0000
0000
,
1000
0100
0000
0010
0000
0001
1000
0010
0000
0000
0000
0000
0000
0000
0000
0000
,
0000
0000
0000
0000
,
1000
0001
0000
0010
0000
0001
0100
0010
0000
0000
0000
0000
0000
0000
0000
0000
,
0000
0000
0000
0000
,
1000
0001
0000
0100
0000
0001
0010
0100
0000
0000
0000
0000
0000
0000
0000
0000
,
0000
0000
0000
0000
,
1000
0010
0000
0100
0000
0001
0010
0100
0000
0000
0000
2000
3002
0023
0030
0000
,
0000
0000
0000
0000
,
1000
0100
0000
0010
0000
0001
0100
0010
0000
0000
0000
2000
3002
0203
0300
0000
,
0000
0000
0000
0000
,
1000
0100
0000
1000
0000
0010
0100
0001
0000
0000
0000
0020
0230
2300
3000
0000
,
0000
0000
0000
0000
,
0000
0000
1000
0000
0000
0010
0000
0000
0100
0000
0000
0001
0000
0000
0010
0000
,
0000
0000
0100
0000
0000
1000
0000
0000
0001
0000
0000
0100
0000
0000
0010
0000
,
1000
0001
0010
0001
0100
0010
1000
0001
0010
0100
1000
0001
0100
0001
0010
0001
,
1000
0010
1000
0001
0010
0100
1000
0001
1000
0010
1000
0100
0010
0001
1000
0001
,
1000
0010
0100
0001
0010
0100
1000
0001
0100
0010
1000
0001
0010
0001
0100
0001
,
1000
0100
1000
0001
0100
0010
1000
0001
1000
0100
1000
0010
0100
0001
1000
0001
,
1000
0100
1000
0010
0100
0001
1000
0100
0010
0001
1000
0010
1000
0100
1000
0001
,
0100
0001
1000
0100
0010
0001
1000
0001
0100
0001
0010
0100
1000
0001
1000
0001
,
0100
0010
1000
0100
0010
0001
1000
0010
0100
0001
1000
0100
1000
0010
1000
0001
,
0010
0001
1000
0010
0100
0001
1000
0001
0010
0001
0100
0010
1000
0001
1000
0100
,
1000
0001
0010
0001
0100
0010
1000
0001
0010
0100
1000
0001
0100
0001
0010
0001
,
1000
0010
1000
0001
0010
0100
1000
0001
1000
0010
1000
0100
0010
0001
1000
0001
,
1000
0010
0100
0001
0010
0100
1000
0001
0100
0010
1000
0001
0010
0001
0100
0001
,
1000
0100
1000
0001
0100
0010
1000
0001
1000
0100
1000
0010
0100
0001
1000
0001
,
1000
0100
1000
0010
0100
0001
1000
0100
0010
0001
1000
0010
1000
0100
1000
0001
,
0100
0001
1000
0100
0010
0001
1000
0001
0100
0001
0010
0100
1000
0001
1000
0001
,
0100
0000
0010
0000
1000
0000
0001
1000
0100
0000
0010
0000
0100
0000
1000
0010
,
0100
0001
1000
0001
0010
0100
1000
0001
0100
0000
0000
0010
0000
0000
1000
0000
,
0001
0000
0000
0100
0000
0000
0010
1000
,
0000
0000
0000
0000
0000
0000
0100
0010
,
0001
0000
0000
1000
0000
0000
0010
0000
,
0100
0000
0000
0000
,
0001
0000
0000
1000
0000
0001
0000
0010
,
0000
0000
0000
0000
0000
0000
0000
0000
0100
0000
0000
1000
0000
0000
0010
0000
,
0100
0000
0001
0000
,
1000
0100
1000
0010
,
0100
0001
0010
0001
1000
0100
1000
0010
,
0100
0001
1000
0100
0010
0100
1000
0010
,
0100
0001
1000
0100
1000
0001
0100
0010
,
0100
0001
0010
0001
1000
0100
1000
0010
,
1000
0001
0010
0100
1000
0001
0100
0010
,
0100
0001
1000
0100
1000
0001
0100
0001
,
1000
0010
0100
0001
0010
0100
0010
0001
,
1000
0000
0010
0000
0100
0000
0010
0000
1000
0100
0010
0100
0010
0001
1000
0001
,
0100
0010
0100
0001
0010
0100
1000
0001
0100
0010
1000
0001
0010
0001
0100
0001
,
1000
0100
1000
0001
0100
0010
1000
0001
1000
0100
1000
0001
0100
0010
1000
0001
,
1000
0100
0010
0001
0100
0010
1000
0001
0010
0100
1000
0001
0100
0001
0010
0001
,
1000
0010
1000
0001
0010
0100
1000
0001
1000
0010
1000
0001
0010
0100
1000
0001
,
1000
0100
0010
0100
1000
0010
0100
0001
1000
0100
0010
0001
1000
0010
1000
0100
,
1000
0001
0100
0001
1000
0100
0010
0001
1000
0001
0100
0001
1000
0100
0010
0001
,
1000
0001
0100
0010
1000
0100
0010
0001
1000
0010
0100
0001
1000
0100
1000
0010
,
1000
0001
0010
0001
1000
0010
0100
0001
1000
0001
0010
0001
1000
0010
0100
0001
,
1000
0100
1000
0001
0100
0001
0010
0100
1000
0001
0100
0010
1000
0100
1000
0001
,
0100
0010
1000
0001
0010
0001
0100
0010
1000
0001
0010
0100
1000
0010
1000
0001
,
0100
0001
0010
0001
1000
0010
1000
0100
0010
0001
1000
0010
0100
0001
0010
0001
,
1000
0010
0100
0001
1000
0100
1000
0010
0100
0001
1000
0100
0010
0001
0100
0001
,
1000
0100
1000
0001
0100
0001
0010
0100
1000
0001
0100
0010
1000
0100
1000
0001
,
0100
0010
1000
0001
0010
0001
0100
0010
1000
0001
0010
0100
1000
0010
1000
0001
,
0100
0000
0010
0000
0100
0000
0010
1000
0001
0000
0010
0000
0100
0000
1000
0001
,
1000
0010
0100
0001
1000
0100
1000
0010
0100
0000
0000
0001
0000
0000
1000
0000
,
0001
0010
0001
0000
1000
0001
0000
0010
0001
0000
1000
0100
0000
0010
0001
0010
,
0001
1000
0001
0000
1000
0001
0000
1000
0010
0000
0100
0010
0000
0100
0010
0100
,
0001
0100
0001
0000
1000
0001
0000
0010
0001
0000
0010
0100
0000
1000
0100
1000
,
0001
1000
0001
0000
0100
0001
0000
1000
0100
0000
1000
0001
0000
1000
0010
1000
,
0010
0100
0010
0000
0100
0001
0000
1000
0001
0000
1000
0100
0000
1000
0001
1000
,
0100
1000
0100
0000
1000
0001
0000
0010
0001
0000
1000
0010
0000
1000
0001
1000
,
0010
1000
0010
0000
0100
0010
0000
0100
0001
0000
1000
0001
0000
0010
0100
0010
,
0100
1000
0100
0000
1000
0001
0000
0100
0001
0000
0100
0010
0000
1000
0010
1000
,
0001
0100
0001
0000
1000
0001
0000
0100
0001
0000
1000
0010
0000
0100
0001
0100
,
0001
1000
0001
0000
1000
0001
0000
1000
0100
0000
0010
0100
0000
0010
0100
0010
,
0001
0010
0001
0000
1000
0001
0000
0100
0001
0000
0100
0010
0000
1000
0010
1000
,
0001
1000
0001
0000
0010
0001
0000
1000
0010
0000
1000
0001
0000
1000
0100
1000
,
0100
0010
0100
0000
0010
0001
0000
1000
0001
0000
1000
0010
0000
1000
0001
1000
,
0010
1000
0010
0000
1000
0001
0000
0100
0001
0000
1000
0100
0000
1000
0001
1000
,
0100
1000
0100
0000
0010
0100
0000
0010
0001
0000
1000
0001
0000
0100
0010
0100
,
0010
1000
0010
0000
1000
0001
0000
0010
0001
0000
0010
0100
0000
1000
0010
1000
,
0001
0100
0010
1000
0001
1000
0100
1000
0010
0100
0001
0010
0100
1000
0001
0010
,
0001
1000
0010
0100
0001
1000
0100
1000
0001
0010
0001
0100
0010
1000
0001
0010
,
0100
1000
0010
1000
0001
0100
0010
0100
0001
1000
0001
0010
0100
0010
0001
1000
,
0010
0100
0001
0010
0100
1000
0001
1000
0100
0010
0100
1000
0010
0100
0001
1000
,
0001
0010
0001
0100
0010
1000
0001
0100
0001
1000
0100
0010
0001
1000
0010
1000
,
0100
1000
0001
0010
0100
0010
0001
1000
0010
0100
0010
1000
0001
0100
0001
1000
,
0001
0010
0100
1000
0001
1000
0010
0100
0010
1000
0001
1000
0100
1000
0001
0010
,
0001
0100
0010
1000
0001
1000
0100
0010
0100
1000
0001
1000
0010
0100
0001
1000
,
0001
0010
0100
1000
0001
1000
0010
1000
0100
0010
0001
0100
0010
1000
0001
0100
,
0001
1000
0100
0010
0001
1000
0010
1000
0001
0100
0001
0010
0100
1000
0001
0100
,
0010
1000
0100
1000
0001
0010
0100
0010
0001
1000
0001
0100
0010
0100
0001
1000
,
0100
0010
0001
0100
0010
1000
0001
1000
0010
0100
0010
1000
0100
0010
0001
1000
,
0001
0100
0001
0010
0100
1000
0001
0010
0001
1000
0010
0100
0001
1000
0100
1000
,
0010
1000
0001
0100
0010
0100
0001
1000
0100
0010
0100
1000
0001
0010
0001
1000
,
0001
0100
0010
1000
0001
1000
0100
0010
0100
1000
0001
1000
0010
1000
0001
0100
,
0001
0010
0100
1000
0001
1000
0010
0100
0010
1000
0001
1000
0100
0010
0001
1000
,
0010
0100
0001
1000
0001
0010
0001
0100
0010
1000
0100
0010
0001
1000
0100
1000
,
0001
0100
0010
1000
0001
0010
0001
1000
0100
1000
0010
0100
0001
1000
0100
0010
,
0001
0100
0001
1000
0010
0100
0010
1000
0001
1000
0100
0010
0100
1000
0001
0100
,
0010
1000
0100
0010
0001
1000
0001
0010
0100
0010
0001
0100
0010
1000
0001
1000
,
0100
1000
0010
0100
0001
1000
0010
1000
0001
0010
0100
1000
0001
0100
0001
0010
,
0001
1000
0100
0010
0100
1000
0001
0100
0010
0100
0001
1000
0010
1000
0001
1000
,
0100
0010
0001
1000
0001
0100
0010
0100
0001
1000
0001
0010
0001
1000
0100
1000
,
0010
0100
0001
1000
0001
0010
0100
0010
0001
1000
0001
0100
0010
1000
0001
1000
,
0100
0010
0001
1000
0001
0100
0001
0010
0100
1000
0010
0100
0001
1000
0010
1000
,
0001
0010
0100
1000
0001
0100
0001
1000
0010
1000
0100
0010
0001
1000
0010
0100
,
0001
0010
0001
1000
0100
0010
0100
1000
0001
1000
0010
0100
0010
1000
0001
0010
,
0100
1000
0010
0100
0001
1000
0001
0100
0010
0100
0001
0010
0100
1000
0001
0000
,
0100
0010
1000
0001
0100
0010
1000
0001
,
0010
0000
0100
0000
1000
0000
0001
0000
0010
0000
0100
0000
1000
0000
0001
1000
,
0010
0100
0001
1000
0001
0010
0100
0010
0001
1000
0001
0100
0001
1000
0010
1000
,
0100
0010
0001
1000
0001
0100
0010
0100
0001
1000
0001
1000
0010
0100
0010
0100
,
0001
1000
0000
0001
0100
0000
0010
1000
0000
0001
0010
0000
0100
1000
0001
0000
,
0100
0010
0000
1000
0010
0000
0100
0001
0000
1000
0001
0000
0010
0100
1000
0000
,
0001
0010
0000
0001
1000
0000
0001
0100
0000
0010
1000
0000
0001
0010
0100
0000
,
1000
0001
0000
1000
0010
0000
0100
0001
0000
1000
0100
0000
1000
0001
0100
0000
,
0001
1000
0000
0001
0010
0000
0100
1000
0000
0001
0100
0000
0010
1000
0001
0000
,
0010
0100
0000
1000
0100
0000
0010
0001
0000
1000
0001
0000
0100
0010
1000
0000
,
0001
0100
0000
0001
1000
0000
0001
0010
0000
0100
1000
0000
0001
0100
0010
0000
,
1000
0001
0000
1000
0100
0000
0010
0001
0000
1000
0010
0000
1000
0001
0010
0000
,
0002
0000
0000
0000
,
0003
0000
0000
0000
;

//---------------dance-single - Zaia - 10(mid-high)----------------
#NOTES:
     dance-single:
     Zaia - 10(mid-high):
     Medium:
     10:
     0.706,0.625,0.024,0.060,0.127,806.000,4.000,10.000,0.000,0.000:
0000
0000
0000
0000
,
1000
0010
0000
0100
0000
0001
1000
0100
0000
0000
0000
0000
0000
0000
0000
0000
,
0000
0000
0000
0000
,
1000
0100
0000
0010
0000
0001
1000
0010
0000
0000
0000
0000
0000
0000
0000
0000
,
0000
0000
0000
0000
,
1000
0001
0000
0010
0000
0001
0100
0010
0000
0000
0000
0000
0000
0000
0000
0000
,
0000
0000
0000
0000
,
1000
0001
0000
0100
0000
0001
0010
0100
0000
0000
0000
0000
0000
0000
0000
0000
,
0000
0000
0000
0000
,
1000
0010
0000
0100
0000
0001
0010
0100
0000
0000
0000
2000
3002
0023
0030
0000
,
0000
0000
0000
0000
,
1000
0100
0000
0010
0000
0001
0100
0010
0000
0000
0000
2000
3002
0203
0300
0000
,
0000
0000
0000
0000
,
1000
0100
0000
1000
0000
0010
0100
0001
0000
0000
0000
0020
0230
2300
3000
0000
,
0000
0000
0000
0000
,
0000
0000
1000
0000
0000
0010
0000
0000
0100
0000
0000
0001
0000
0000
0010
0000
,
0000
0000
0100
0000
0000
1000
0000
0000
0001
0000
0000
0100
0000
0000
0010
0000
,
1000
0001
0010
0001
0100
0001
1000
0010
,
1000
0100
1000
0001
0100
0010
1000
0001
,
0010
0100
0010
0001
1000
0010
1000
0100
,
0010
0001
0100
0001
1000
0100
0010
0100
,
1000
0001
0100
0001
0010
0001
1000
0100
,
1000
0010
1000
0001
0010
0100
1000
0001
,
1000
0010
0100
0001
1000
0100
0010
0100
,
1000
0001
1000
0010
0100
0001
0010
0001
,
1000
0010
0100
0001
0010
0001
1000
0100
,
1000
0010
1000
0001
0010
0100
1000
0001
,
0100
0010
0100
0001
1000
0100
1000
0010
,
0100
0001
0010
0001
1000
0010
0100
0010
,
1000
0001
0010
0001
0100
0001
1000
0010
,
1000
0100
1000
0001
0100
0010
1000
0001
,
1000
0100
0010
0001
1000
0010
0100
0010
,
1000
0001
1000
0100
0010
0001
0100
0001
,
1000
0000
0000
0100
0000
0000
0010
0001
,
0000
0000
0000
0000
0000
0000
0010
0100
,
1000
0000
0000
0001
0000
0000
0100
0000
,
0010
0000
0000
0000
,
1000
0000
0000
0001
0000
1000
0000
0100
,
0000
0000
0000
0000
0000
0000
0000
0000
0010
0000
0000
0001
0000
0000
0100
0000
,
0010
0000
1000
0000
,
0001
0010
0001
0100
,
0010
1000
0100
1000
0001
0010
0001
0100
,
0010
1000
0001
0010
0100
0010
0001
0100
,
0010
1000
0001
0010
0001
1000
0010
0100
,
0010
1000
0100
1000
0001
0010
0001
0100
,
0001
1000
0100
0010
0001
1000
0010
0100
,
0010
1000
0001
0010
0001
1000
0010
1000
,
0001
0100
0010
1000
0100
0010
0100
1000
,
0001
0100
0010
0100
0001
0010
0100
1000
,
0001
0100
0010
1000
0100
1000
0001
0010
,
0001
0100
0010
1000
0001
0010
0100
1000
,
0001
1000
0010
0100
0010
1000
0100
1000
,
0001
0010
0001
0100
0010
0100
0001
1000
,
0100
0010
0100
1000
0001
1000
0010
0100
,
0001
1000
0001
0010
0100
0010
0001
1000
,
0010
0100
0010
1000
0001
0010
0100
1000
,
0001
0100
0001
0010
0100
1000
0001
0100
,
0001
0010
0100
1000
0001
0100
0010
1000
,
0001
1000
0100
0010
0100
1000
0010
1000
,
0001
0100
0001
0010
0100
0010
0001
1000
,
0010
0100
0010
1000
0001
1000
0100
0010
,
0001
1000
0001
0100
0010
0100
0001
1000
,
0100
0010
0100
1000
0001
0100
0010
1000
,
0001
0100
0001
0100
0010
1000
0010
1000
,
0001
0000
0010
0000
0100
0000
1000
0000
0010
0000
0000
0100
0000
0000
0001
0000
,
1000
0000
0000
0000
,
0000
0000
0000
0000
0000
0000
0000
0001
,
1001
0000
0000
0000
,
0000
0000
0000
0000
0000
1000
0000
0010
,
0101
0000
0000
0000
,
0000
0000
0000
0000
0000
0000
0000
0001
,
0011
0000
0000
0010
0110
0000
0000
0100
,
1000
0000
0000
0000
0001
0000
0000
0000
0100
0010
0000
1000
0001
0000
0010
0000
,
0100
1000
0010
1000
0100
0010
0001
0100
,
0001
0010
0100
1000
0010
1000
0001
0010
,
0001
0100
0010
1000
0001
0010
0100
0010
,
0001
0100
0010
1000
0100
1000
0010
0100
,
0001
0010
0100
1000
0001
0100
0001
0010
,
0001
1000
0100
0010
0100
1000
0001
0100
,
0010
1000
0001
0010
0100
0010
0001
0100
,
0010
1000
0001
0010
0001
1000
0010
0100
,
0001
1000
0100
1000
0010
1000
0001
0100
,
0001
0010
0001
1000
0010
0100
0001
1000
,
0100
0010
0100
1000
0001
0100
0001
0010
,
0100
1000
0010
1000
0001
0010
0100
0010
,
0001
1000
0010
1000
0100
1000
0001
0010
,
0001
0100
0001
1000
0100
0010
0001
1000
,
0001
0100
0010
1000
0001
0010
0100
0010
,
0001
1000
0001
0100
0010
1000
0100
1000
,
0001
0100
0010
1000
0100
1000
0001
0010
,
0001
0100
0001
1000
0100
0010
0001
1000
,
0010
0100
0010
1000
0001
0010
0001
0100
,
0010
1000
0100
1000
0001
0100
0010
0100
,
0001
1000
0100
1000
0010
1000
0001
0100
,
0001
0010
0001
1000
0010
0100
0001
1000
,
0001
0010
0100
1000
0001
0100
0010
0100
,
0001
1000
0001
0010
0100
1000
0010
1000
,
0001
1000
0010
1000
0100
1000
0001
0010
,
0001
0100
0001
1000
0100
0010
0001
1000
,
0010
0100
0010
1000
0001
0010
0001
0100
,
0010
1000
0100
1000
0001
0100
0010
0100
,
0001
1000
0100
1000
0010
1000
0001
0100
,
0001
0010
0001
1000
0010
0100
0001
1000
,
0001
0010
0100
1000
0001
0100
0010
0100
,
0001
1000
0001
0010
0100
1000
0010
1000
,
0001
0010
0100
1000
0010
1000
0001
0100
,
0001
0010
0001
1000
0010
0100
0001
1000
,
0100
0010
0100
1000
0001
0100
0001
0010
,
0100
1000
0010
1000
0001
0010
0100
0010
,
0001
1000
0010
1000
0100
1000
0001
0010
,
0001
0100
0001
1000
0100
0010
0001
1000
,
0001
0100
0010
1000
0001
0010
0100
0010
,
0001
1000
0001
0100
0010
1000
0100
1000
,
0001
0100
0010
0100
0001
0100
0010
1000
,
0100
0010
0100
1000
0100
0010
0001
1000
,
0010
0100
0010
1000
0010
0100
0001
0010
,
0100
0010
0001
0010
0100
0010
0001
0100
,
0010
1000
0001
1000
0100
1000
0001
0100
,
0010
0100
0001
0010
0100
1000
0001
1000
,
0010
0100
0001
1000
0100
1000
0001
0010
,
0100
0010
0001
0100
0010
0100
0001
1000
,
0002
0000
0000
0000
,
0003
0000
0000
0000
;
