#TITLE:Claiomh Solais;
#SUBTITLE:;
#ARTIST:ETIA.;
#TITLETRANSLIT:;
#SUBTITLETRANSLIT:;
#ARTISTTRANSLIT:;
#CREDIT:Owem;
#BANNER:../banner.png;
#BACKGROUND:../bg.png;
#LYRICSPATH:;
#CDTITLE:../cdtitleowem.png;
#MUSIC:ETIA. - Claiomh Solais.ogg;
#OFFSET:-1.460;
#SAMPLESTART:21.886;
#SAMPLELENGTH:29.999;
#SELECTABLE:YES;
#BPMS:0.000=94.000,32.000=188.000,112.000=94.000,128.000=188.000,288.000=94.000;
#STOPS:;
#BGCHANGES:;
// cache tags:
#FIRSTBEAT:16.000;
#LASTBEAT:320.625;
#SONGFILENAME:Songs/Owem's Simfiles 08 - 1.2/Claiomh Solais - [Braeden & Owem] v1.0.0/Claiomh Solais.sm;
#HASMUSIC:1;
#HASBANNER:1;
#MUSICLENGTH:136.777;
// end cache tags

//---------------dance-single - 1 (Braeden)----------------
#NOTES:
     dance-single:
     1 (Braeden):
     Beginner:
     1:
     0.054,0.145,0.037,0.000,0.000,47.000,5.000,0.000,0.000,0.000:
0000
0000
0000
0000
,
0000
0000
0000
0000
,
0000
0000
0000
0000
,
0000
0000
0000
0000
,
0010
0000
0000
0000
,
0100
0000
0000
0000
,
0010
0000
0000
0000
,
1000
0000
0000
0000
,
0001
0000
0000
0000
,
0000
0000
0000
0000
,
1000
0000
0000
0000
,
0000
0000
0000
0000
,
0010
0000
0000
0000
,
0100
0000
0000
0000
,
0001
0000
0000
0000
,
1000
0000
0000
0000
,
0001
0000
0000
0000
,
0000
0000
0000
0000
,
1000
0000
0000
0000
,
0000
0000
0000
0000
,
0100
0000
0000
0000
,
0000
0000
0000
0000
,
0010
0000
0000
0000
,
0000
0000
0000
0000
,
1001
0000
0000
0000
,
0000
0000
0000
0000
,
1001
0000
0000
0000
,
0000
0000
0000
0000
,
1000
0000
0000
0000
,
0001
0000
0000
0000
,
0100
0000
0000
0000
,
0001
0000
0000
0000
,
1001
0000
0000
0000
,
0000
0000
0000
0000
,
1001
0000
0000
0000
,
1001
0000
0000
0000
,
1000
0000
0000
0000
,
0001
0000
0000
0000
,
0010
0000
0000
0000
,
0100
0000
0000
0000
,
0001
0000
0000
0000
,
0000
0000
0000
0000
,
1000
0000
0000
0000
,
0000
0000
0000
0000
,
0010
0000
0000
0000
,
0000
0000
0000
0000
,
0100
0000
0000
0000
,
0000
0000
0000
0000
,
0001
0000
0000
0000
,
0000
0000
0000
0000
,
1000
0000
0000
0000
,
0000
0000
0000
0000
,
0010
0000
0000
0000
,
0000
0000
0000
0000
,
0100
0000
0000
0000
,
0000
0000
0000
0000
,
0001
0000
0000
0000
,
0000
0000
0000
0000
,
1000
0000
0000
0000
,
0000
0000
0000
0000
,
0001
0000
0000
0000
,
0000
0000
0000
0000
,
0100
0000
0000
0000
,
0000
0000
0000
0000
,
0010
0000
0000
0000
,
0000
0000
0000
0000
,
0100
0000
0000
0000
,
0000
0000
0000
0000
,
0000
0000
0000
0000
,
0000
0000
0000
0000
,
0000
0000
0000
0000
,
0000
0000
0000
0000
,
0001
0000
0000
0000
,
0000
0000
0000
0000
,
0001
0000
0000
0000
,
0000
0000
0000
0000
,
0001
0000
0000
0000
,
0100
0000
0000
0000
,
0010
0000
0000
0000
,
0000
0100
0000
0000
0000
0000
0000
0000
;

//---------------dance-single - 4- (Braeden)----------------
#NOTES:
     dance-single:
     4- (Braeden):
     Easy:
     4:
     0.159,0.289,0.102,0.000,0.000,138.000,14.000,0.000,0.000,0.000:
0000
0000
0000
0000
,
0000
0000
0000
0000
,
0000
0000
0000
0000
,
0000
0000
0000
0000
,
1001
0000
0001
0000
,
0100
0000
0010
0000
,
1000
0000
0100
0000
,
0010
0000
0001
0000
,
1000
0000
0001
0000
,
0100
0000
0000
0000
,
0010
0000
1000
0000
,
0001
0000
0000
0000
,
0100
0000
0010
0000
,
1000
0000
0000
0000
,
0001
0000
1000
0000
,
0010
0000
0010
0000
,
1001
0000
0001
0000
,
0100
0000
0000
0000
,
0010
0000
1000
0000
,
0100
0000
0000
0000
,
0010
0000
0001
0000
,
0100
0000
0010
0000
,
1000
0000
0001
0000
,
0100
0000
0100
0000
,
1010
0000
0000
0000
,
0000
0000
0000
0000
,
1001
0000
0000
0000
,
0000
0000
0000
0000
,
0110
0000
0001
0000
,
0100
0000
0010
0000
,
0100
0000
0001
0000
,
0100
0000
0001
0000
,
0010
0000
0000
0000
,
0001
0000
0000
0000
,
1001
0000
0000
0000
,
1001
0000
0000
0000
,
1001
0000
0000
0000
,
0101
0000
0000
0000
,
1001
0000
0000
0000
,
1001
0000
0000
0000
,
1000
0000
0000
0010
0000
0000
1000
0000
,
0000
0010
0000
0000
1000
0000
0000
0000
,
0010
0000
0000
0100
0000
0000
0001
0000
,
0000
0010
0000
0000
0001
0000
0000
0000
,
0100
0000
0000
0010
0000
0000
1000
0000
,
0000
0100
0000
0000
1000
0000
0000
0000
,
0010
0000
0000
0100
0000
0000
0001
0000
,
0000
0100
0000
0000
0010
0000
0000
0000
,
1000
0000
0000
0010
0000
0000
1000
0000
,
0000
0010
0000
0000
1000
0000
0000
0000
,
0001
0000
0000
0100
0000
0000
0001
0000
,
0000
0100
0000
0000
0001
0000
0000
0000
,
1000
0000
0000
0010
0000
0000
0100
0000
,
0000
0001
0000
0000
0010
0000
0000
0000
,
0001
0000
0001
0000
,
0001
0000
1000
0000
,
1001
0000
0001
0000
,
1000
0000
0001
0000
,
0100
0000
0010
0000
,
1000
0000
0100
0000
,
0010
0001
0010
0000
,
0100
1000
0100
0000
,
0010
0010
0010
0100
,
0010
0010
0010
1000
,
1001
0000
0001
0000
,
0100
0000
0010
0000
,
1000
0000
0100
0000
,
0010
0000
0001
0000
,
0000
1001
0000
0000
,
0001
0000
0000
0000
,
0001
0000
0001
0000
,
0010
0000
0000
0000
,
0001
0000
0000
0000
,
0010
0000
0001
0000
,
0100
0000
0000
0000
,
0100
0000
0000
0000
,
0001
0000
0000
0000
,
0001
0000
0100
0000
,
0001
0000
0100
0000
,
0000
0001
0000
0000
0000
0000
0000
0000
;

//---------------dance-single - 7+ (Braeden)----------------
#NOTES:
     dance-single:
     7+ (Braeden):
     Medium:
     7:
     0.429,0.526,0.358,0.366,0.055,312.000,49.000,50.000,0.000,0.000:
0000
0000
0000
0000
,
0000
0000
0000
0000
,
0000
0000
0000
0000
,
0000
0000
0000
0000
,
1000
0000
0000
0001
0000
0000
0000
0000
0100
0000
0000
0000
0010
0000
1000
0000
,
0100
0000
0000
0100
0000
0000
0010
0000
0001
0000
0000
0000
0100
0000
0010
0000
,
1000
0000
0000
0100
0000
0000
0010
0000
0000
0000
0000
0000
0000
0000
0001
0000
,
0100
0000
0000
0100
0000
0000
0010
0000
1000
0000
0000
0000
0010
0000
0000
0000
,
0100
0001
1000
0010
,
0100
0000
0001
0000
0010
0100
0010
0100
,
0010
0001
0100
0010
,
1000
0000
0100
0000
0010
0001
0010
0001
,
0020
0000
0000
0230
0000
0000
2300
0000
,
0010
0000
0001
0000
3100
0010
0100
0001
,
0020
0000
0000
0032
0000
0000
0203
0000
,
0320
0000
2030
0000
,
3002
0000
0000
0203
0000
0000
0310
0000
,
1000
0000
0100
0000
0010
0001
0100
0010
,
2000
0000
0000
3002
0000
0000
1003
0000
,
0010
0000
0100
0000
0001
0100
1000
0100
,
0002
0000
0000
0023
0000
0000
0230
0000
,
0310
0001
0100
0000
0010
1000
0100
1000
,
0002
0000
0000
2003
0000
0000
3002
0000
,
2003
0000
3002
0003
,
0110
0000
0000
1010
0000
0000
0000
0000
,
0000
0000
0000
1010
0000
1010
0000
1000
,
0001
0000
0000
1001
0000
0000
0000
0000
,
0000
0000
0000
0000
,
0001
0100
0010
1000
,
0100
0010
0100
1000
,
0010
0100
0001
1000
,
0010
0100
0001
0100
,
2010
0001
0010
3001
,
0102
1000
0100
1003
,
2010
0000
0000
3010
0000
0000
1000
0001
1000
0001
1000
0001
,
2000
3010
0200
0301
,
1001
0000
0000
0000
0000
0101
0000
0000
,
1001
0000
0000
1010
0000
0000
0110
0000
,
1001
1000
0100
0001
,
0100
1000
0010
0100
0001
0010
0001
0010
,
0001
0000
0000
1001
0000
0000
1010
0000
,
0000
0000
0110
0000
0000
0000
0000
0000
0100
0000
0000
0001
0000
0000
0010
0000
,
0011
0000
0000
0101
0000
0000
0110
0000
,
0000
0000
1010
0000
0000
0000
0000
0000
1000
0000
0000
0010
0000
0000
1000
0000
,
1010
0000
0000
0110
0000
0000
0101
0000
,
0000
0000
0011
0000
0000
0000
0000
0000
0001
0000
0000
0100
0000
0000
0100
0000
,
0110
0000
0000
1010
0000
0000
1001
0000
,
0000
0000
0101
0000
0000
0000
0000
0000
0010
0000
0000
1000
0000
0000
1000
0000
,
0001
0010
0001
0100
0010
0100
0001
1000
,
0001
0000
0100
0000
0010
0000
0100
0000
0001
0000
0000
1000
0000
0000
0010
0000
,
1000
0100
1000
0001
0010
0001
1000
0100
,
0010
0000
0001
0000
0100
0000
0010
0000
1000
0000
0000
1000
0000
0000
0010
0000
,
1000
0001
0100
0010
,
1000
0100
0010
0001
,
0100
0010
1000
0001
,
0100
0010
1000
0000
,
2001
3010
0102
0013
,
0210
0301
0120
0130
,
0201
0310
0120
1030
,
2000
3010
0200
0301
,
1000
0010
0100
0001
0010
0100
0010
0001
,
2000
0000
3001
0100
0010
0000
0100
0000
,
0002
0000
0103
0010
0001
0000
0010
0000
,
0200
0000
0301
1000
0100
0000
0001
0000
,
0101
0100
0110
0010
,
1010
1000
1001
0001
,
0101
0000
0000
0000
0001
0000
1000
0001
,
0010
0000
0000
0000
0000
0000
0000
0000
1001
0000
0000
0101
0000
0000
0110
0000
,
0000
0000
0101
0100
0000
0000
0000
0000
,
1010
0000
0000
0001
0000
0110
0000
1000
,
0001
0000
0000
1000
0010
0000
0000
0000
,
1001
0000
0001
0100
,
0110
0000
1000
0000
,
0002
0203
0310
0100
,
0020
0000
0230
0302
,
0023
0032
0203
0310
,
2020
3030
0200
0302
,
0023
0000
0030
0000
0001
0100
0010
0100
,
0001
0000
0200
0000
,
0000
0310
0000
0000
0000
0000
0000
0000
,
1000
0000
0000
0000
;

//---------------dance-single - 9+ (Braeden)----------------
#NOTES:
     dance-single:
     9+ (Braeden):
     Hard:
     9:
     0.669,0.820,0.351,0.431,0.219,534.000,48.000,59.000,0.000,0.000:
0000
0000
0000
0000
,
0000
0000
0000
0000
,
0000
0000
0000
0000
,
0000
0000
0000
0000
,
1001
0000
1000
0100
0010
0000
0001
0100
0010
0000
1000
0010
0100
0001
0100
0001
,
1000
0000
0100
0010
0001
0000
0100
0001
1000
0000
0010
1000
0010
0100
0001
0100
,
0001
0000
0001
1000
0010
0000
0010
0100
0001
0000
1000
0001
1000
0010
1000
0010
,
0100
0000
0000
0101
0000
0000
1001
0000
1020
0000
0000
0000
0230
0000
0000
0000
,
0320
0000
0030
2020
0000
3030
1000
0001
,
0100
0010
1000
0100
0001
0100
1000
0010
,
0202
0000
0303
0022
0000
0033
0001
0100
,
0010
1000
0010
0100
0010
0100
0001
0010
,
0200
0000
0000
2300
0000
0000
3010
0100
,
0001
0010
0001
1000
0010
0100
0001
1000
,
0100
0010
0100
1000
0001
1000
0010
0100
,
0010
1000
0100
0010
0001
0100
0010
1000
,
2020
0000
3030
0220
0000
0330
0100
0001
,
0010
0100
1000
0001
0010
0001
0100
0010
,
2020
0000
3030
0202
0000
0303
0100
0010
,
1000
0100
0010
0001
0100
0010
1000
0010
,
0200
0000
0000
0302
0000
0000
1003
0010
,
1000
0100
1000
0001
1000
0100
1000
0010
,
0100
0001
0100
0010
1000
0010
1000
0100
,
0010
0001
0010
0001
0100
0010
0100
0010
,
1010
0000
0000
0100
0202
0000
0303
0000
,
0000
0000
0000
0101
0000
0110
0000
1010
,
1002
0000
0000
1003
1000
0100
0010
0010
,
0200
0000
0000
0000
0000
0000
0000
0000
0000
0000
0000
0000
0000
0000
0310
0001
,
1000
0000
0010
0000
0100
0001
1000
0001
0010
0000
0000
0000
0100
1000
0001
1000
,
0010
0000
0000
0000
0100
0001
1000
0010
0100
0010
1000
0100
1000
0001
1000
0100
,
0010
0001
1000
0001
1000
0010
0100
0001
1000
0100
1000
0010
0200
0000
0000
0000
,
0301
0000
1000
0000
0000
0000
0010
0000
1000
0000
0000
0000
0001
0000
0000
0000
0010
0000
0100
0000
1000
0000
0001
0000
2000
0000
0000
0000
0000
0000
3010
0100
,
0002
0000
0000
0000
0003
0000
0100
0001
,
0101
0010
1000
0010
,
0110
0000
0000
1000
0000
0000
0100
0010
0001
1000
0001
0100
,
0010
1000
0100
1000
0001
1000
0100
1000
,
0002
0000
0000
0003
0000
0110
0000
0000
,
0101
0000
0000
1001
0000
0000
0110
0000
,
0101
0001
1000
0010
1000
0100
1000
0001
,
0010
0001
0100
0010
1000
0100
0010
0001
,
1000
0100
0001
1000
0010
0001
1000
0100
,
0001
0000
0100
0000
0010
0000
0001
0000
0011
0000
0000
1001
0000
0000
1000
0000
,
0001
0010
1000
0001
0100
1000
0001
0100
,
1000
0000
0001
0000
0010
0000
1000
0000
1010
0000
0000
0100
0000
0000
0001
0000
,
1000
0100
0001
1000
0010
0001
1000
0100
,
0001
0000
1000
0000
0010
0000
0001
0000
1001
0000
0000
1000
0000
0000
0001
0000
,
1000
0010
0100
0001
0010
0001
1000
0010
,
0100
0000
0001
0000
0010
0000
0100
0000
1000
0000
0000
0101
0000
0000
0110
0000
,
0010
1000
0100
1000
0001
0010
0001
1000
,
0010
0100
0001
0010
0100
0010
0001
1000
,
0010
0100
0001
1000
0010
1000
0001
0010
,
0001
1000
0010
0100
0001
0100
0010
1000
,
0001
0010
0100
1000
0010
0100
0001
0010
,
0001
1000
0010
1000
0001
0010
0001
1000
,
0010
0100
0001
0010
0100
0010
0001
1000
,
0010
0100
0001
1000
0100
0010
0001
1000
,
0010
0100
0001
0010
0100
0010
0001
1000
,
0010
0100
0001
0010
0100
0010
0001
1000
,
0010
0100
0001
0010
0100
0010
0001
1000
,
0010
0100
0001
1000
0010
1000
0100
0010
,
0001
0100
0010
1000
0001
0010
0100
0010
,
0001
0100
0010
0100
0001
1000
0010
1000
,
0100
0010
0001
1000
0010
1000
0100
0010
,
0001
1000
0010
0100
0001
0010
0100
1000
,
1001
0001
0101
0100
,
0010
0100
0001
0010
0001
0000
1001
0000
,
1010
0000
0000
1000
0010
0000
0100
0001
,
0100
0000
0010
0000
1000
0000
0001
0000
1100
0000
0000
0110
0000
0000
0011
0000
,
0000
0000
0101
0001
0000
0000
0000
0000
,
1001
0000
0000
0101
0000
0100
0010
0100
,
0010
0000
1000
0000
0000
0000
0001
1000
0001
0000
0000
0000
0000
0000
0000
0000
,
1001
0020
0030
0200
0302
2003
3020
0230
,
0301
0000
0000
0000
0000
1000
0010
0100
0010
0000
0000
0110
0000
0000
0101
0000
,
1001
0000
0000
0000
2100
0000
0000
3000
0120
0000
0000
0030
0201
0000
0000
0300
,
0120
0000
2030
3002
,
0023
0000
0000
0000
0000
0000
0230
0000
0000
0000
0000
0000
2300
0000
0000
0000
0000
0000
3001
0100
0010
1000
0001
0100
,
0002
0000
2003
0000
3200
0010
0320
0000
,
0032
1000
2003
0000
3020
0230
0302
2003
,
3002
0010
0023
0000
0230
1000
2300
0000
,
0000
0000
3000
0000
0001
0000
0000
0000
0100
0000
0000
0000
0010
0000
0000
0000
0000
0000
1000
0000
0000
0000
0000
0000
0002
0000
0000
0000
0000
0000
0000
0103
,
0000
0000
0010
0000
0000
1000
0000
0000
0000
0000
0000
0000
0000
0000
0000
0000
0000
0000
0000
0000
0000
0000
0000
0000
0000
0000
0000
0000
0000
0000
0000
0000
;

//---------------dance-single - 14 (Owem)----------------
#NOTES:
     dance-single:
     14 (Owem):
     Challenge:
     14:
     1.000,0.967,0.424,0.278,1.000,927.000,58.000,38.000,5.000,0.000:
0000
0000
0000
0000
,
0000
0000
0000
0000
,
0000
0000
0000
0000
,
0000
0000
0000
0000
,
1001
0000
1000
0100
0010
0000
0001
0100
0010
0000
1000
0010
0100
0001
0100
0001
,
1000
0000
0100
0010
0001
0000
0100
0001
1000
0000
0010
1000
0010
0100
0001
0100
,
0101
0000
0001
1000
0010
0000
0110
0100
0001
0000
1000
0001
1000
0010
1000
0010
,
0100
0000
0000
0101
0000
0000
1001
0000
1020
0000
0000
0000
0230
0000
0000
0000
,
0301
1000
0010
0100
0001
1000
0010
1000
0100
0010
0001
1000
0100
1000
0001
0100
,
0010
0100
0001
1000
0010
1000
0100
0010
0001
1000
0100
1000
0001
1000
0010
0100
,
0001
1000
0010
0100
0001
0100
0010
1000
0001
1000
0100
0010
0100
1000
0001
0100
,
0001
1000
0010
0100
0001
1000
0100
1000
0001
0010
0100
1000
0001
0100
0010
1000
,
0100
1000
0001
0100
0010
1000
0001
0100
0001
1000
0100
1000
0001
0010
0001
1000
,
0100
0010
0100
1000
0001
0010
0001
0100
0010
1000
0001
0100
0001
1000
0100
0010
,
0001
1000
0100
1000
0010
0100
0001
1000
0010
1000
0001
0100
0001
0010
0100
1000
,
0001
0010
0001
1000
0100
0010
0001
1000
0001
0100
0010
1000
0001
0100
0001
0010
,
0100
1000
0001
1000
0010
0100
0001
1000
0100
1000
0010
0100
0001
1000
0010
0100
,
0001
0100
0010
1000
0001
0100
0001
0010
0100
1000
0100
0010
0001
1000
0100
1000
,
0001
0100
0010
1000
0100
1000
0001
0010
0001
0100
0010
1000
0001
0100
0001
0010
,
0100
1000
0001
0010
0001
1000
0100
1000
0001
0100
0010
1000
0100
1000
0001
0010
,
0001
0100
0010
1000
0001
0100
0001
0010
0100
1000
0001
0010
0001
1000
0100
1000
,
0010
0100
0001
1000
0010
1000
0100
0010
0001
1000
0100
1000
0001
0100
0010
1000
,
0001
0100
0001
0010
0100
1000
0001
0010
0001
1000
0100
0010
0001
1000
0100
1000
,
0010
1000
0001
0100
0001
0010
0100
1000
0001
1000
0100
0010
0001
1000
0100
1000
,
0020
0000
0000
0130
0101
0001
1000
0100
,
0110
0010
0001
0101
0100
0110
0000
1010
,
1002
0000
0000
0000
0000
0000
0103
0010
1000
0000
0010
0000
0100
0001
1000
0000
,
0200
0000
0000
0000
0000
0000
0000
0000
0000
0000
0000
0000
0000
0000
0310
0001
,
1000
0000
0010
0000
0100
0001
1000
0001
0010
0000
0000
0000
0100
1000
0001
1000
,
0010
0000
0000
0000
0100
0001
1000
0010
0100
0010
1000
0100
1000
0001
1000
0100
,
0010
0001
1000
0001
1000
0010
0100
0001
1000
0100
1000
0010
0200
0000
0000
0000
,
0301
0000
1000
0000
0000
0000
0010
0000
1000
0000
0000
0000
0001
0000
0000
0000
0010
0000
0100
0000
1000
0000
0001
0000
2000
0000
0000
0000
0000
0000
3010
0100
,
0001
1000
0100
0010
0001
1000
0010
0100
,
0101
0001
1000
0100
0010
0001
1000
0010
,
0110
0000
0000
0100
0000
0000
0001
0000
0000
1000
0000
0000
0100
0000
0010
0000
0001
0000
1000
0000
0001
0000
0100
0000
,
0010
1000
0001
0100
0001
0010
0100
1000
0010
0100
0001
1000
0001
0010
0100
1000
,
00M1
0100
0010
1000
0010
0110
0100
0000
,
0101
0001
0000
1001
1000
0010
0110
0000
,
0101
0000
0001
0000
1000
0000
0010
0000
0100
0001
1000
0010
1000
0100
0010
0001
,
1000
0100
1000
0001
0010
0001
0100
0010
1000
0001
0100
0001
0010
0100
1000
0001
,
0100
0010
1000
1001
0001
0100
0110
0010
,
1000
0000
1100
0000
0100
0000
0010
0000
0011
0000
0000
1001
0000
0000
1010
0000
,
0110
0100
0001
1001
1000
0100
0110
0010
,
0001
0000
1001
0000
1000
0000
0010
0000
1010
0000
0000
0110
0000
0000
0101
0000
,
1001
1000
0100
0110
0010
0001
0101
0100
,
0010
0000
1010
0000
1000
0000
0001
0000
0011
0000
0000
0110
0000
0000
1100
0000
,
1001
0001
0100
0110
0010
1000
1100
0100
,
0010
0000
0011
0000
0001
0000
1000
0000
1001
0000
0000
0101
0000
0000
0110
0000
,
0010
1000
0001
0100
0001
1000
0010
1000
0100
0010
0001
1000
0100
1000
0001
0100
,
0010
1000
0001
0100
0010
0100
0001
1000
0010
1000
0100
0010
0001
1000
0100
1000
,
0001
1000
0010
0100
0001
1000
0100
0010
0001
1000
0100
1000
0010
0100
0001
1000
,
0001
0100
0010
1000
0001
0100
0001
0010
0100
1000
0001
0010
0001
1000
0100
1000
,
0001
0010
0100
1000
0001
0010
0001
1000
0100
1000
0001
0100
0010
1000
0100
1000
,
0001
0010
0001
1000
0100
0010
0001
1000
0100
1000
0010
0100
0001
0010
0100
1000
,
0001
0010
0001
1000
0100
0010
0001
1000
0001
0100
0010
1000
0001
0100
0001
0010
,
0100
1000
0001
1000
0010
0100
0001
1000
0100
1000
0010
0100
0001
1000
0010
0100
,
0001
0100
0010
1000
0001
0100
0001
0010
0100
1000
0100
0010
0001
1000
0100
1000
,
0001
0100
0010
1000
0100
1000
0001
0010
0001
0100
0010
1000
0001
0100
0001
0010
,
0100
1000
0001
0010
0001
1000
0100
1000
0001
0100
0010
1000
0100
1000
0001
0010
,
0001
0100
0010
1000
0001
0100
0001
0010
0100
1000
0001
0010
0001
1000
0100
1000
,
0010
0100
0001
1000
0010
1000
0100
0010
0001
1000
0100
1000
0001
0100
0010
1000
,
0001
0100
0001
0010
0100
1000
0001
0010
0001
1000
0100
0010
0001
1000
0100
1000
,
0010
1000
0001
0100
0001
0010
0100
1000
0001
1000
0100
0010
0001
1000
0010
0100
,
0001
1000
0100
1000
0001
0100
0010
0100
0001
1000
0100
1000
0010
1000
0001
0100
,
0001
0010
0100
1000
0100
0010
0001
1000
0100
1000
0010
1000
0001
0100
0001
0010
,
0100
1000
0001
0010
0001
1000
0100
1000
0001
0100
0010
1000
0001
0100
0010
1000
,
0001
0100
0001
1000
0100
0010
0001
1000
0100
0010
0100
1000
0001
0010
0001
1000
,
0001
0100
0010
1000
0010
0100
0001
1000
0100
0000
0000
0110
0000
0000
0011
0000
,
0000
MMMM
0000
0000
0101
0000
0001
1000
0010
1000
0100
0010
0001
1000
0100
1000
,
0001
0100
0010
1000
0001
0100
0010
0100
0001
1000
0100
0010
0001
0000
0101
0000
,
0100
0010
1000
0001
0100
0001
0010
0100
1000
0001
0010
0001
0100
0010
1000
0000
,
2010
0000
0020
3000
0030
0000
0200
0000
0302
0000
2003
0000
3020
0000
0230
0000
,
0301
0000
0000
0000
0000
1000
0010
0100
0010
0000
0000
0110
0000
0000
0101
0000
,
1001
0000
0000
0000
2100
0000
0000
3000
0120
0000
0000
0030
0201
0000
0000
0300
,
0120
0000
2030
3002
,
0023
0000
0000
0000
0000
0000
0230
0000
0000
0000
0000
0000
2300
0000
0000
0000
0000
0000
3001
0100
0010
1000
0001
0100
,
0002
0000
2003
0000
3200
0010
0320
0000
,
0032
1000
2003
0000
3020
0230
0302
2003
,
3002
0010
0023
0000
0230
1000
2300
0000
,
0000
0000
3000
0000
0001
0000
0000
0000
0100
0000
0000
0000
0010
0000
0000
0000
0000
0000
1000
0000
0000
0000
0000
0000
0002
0000
0000
0000
0000
0000
0000
0103
,
0000
0000
0010
0000
0000
1000
0000
0000
0000
0000
0000
0000
0000
0000
0000
0000
0000
0000
0000
0000
0000
0000
0000
0000
0000
0000
0000
0000
0000
0000
0000
0000
;
