#TITLE:Boss Stage;
#SUBTITLE:Fester's Quest;
#ARTIST:Sunsoft;
#TITLETRANSLIT:;
#SUBTITLETRANSLIT:;
#ARTISTTRANSLIT:;
#CREDIT:;
#BANNER:Boss Stage.jpg;
#BACKGROUND:Boss Stage-bg.jpg;
#LYRICSPATH:;
#CDTITLE:!dashoeTitle.png;
#MUSIC:Boss Stage.mp3;
#OFFSET:-0.080;
#SAMPLESTART:31.878;
#SAMPLELENGTH:12.000;
#SELECTABLE:YES;
#BPMS:0.000=128.570,20.500=257.140,84.500=128.570,118.500=257.140,182.500=128.570,216.500=257.140,280.500=128.570;
#STOPS:;
#BGCHANGES:;
// cache tags:
#FIRSTBEAT:0.000;
#LASTBEAT:280.750;
#SONGFILENAME:Songs/VGMP 2/Boss Stage (DAshoe93)/Boss Stage.sm;
#HASMUSIC:1;
#HASBANNER:1;
#MUSICLENGTH:95.451;
// end cache tags

//---------------dance-single - Blank----------------
#NOTES:
     dance-single:
     Blank:
     Hard:
     11:
     1.000,1.000,1.000,0.021,0.697,546.000,186.000,2.000,0.000,0.000:

0220
0000
0000
0000
,
0000
0000
0000
0000
0000
0000
0000
0000
0000
0000
0000
0000
0000
0000
0000
0000
0000
0000
0000
0000
0000
0000
0000
0000
0000
0000
0000
0000
0330
0000
1001
0000
0000
1001
0000
0000
0000
0000
0000
0000
0000
0000
0000
0000
0000
0000
0000
0000
,
0000
0000
0000
0000
0000
0000
0000
0000
0110
0110
0000
0000
0000
0000
0000
0000
,
0000
0000
0000
0000
0000
0000
0101
0101
0000
0000
0000
0000
0000
0000
0000
0000
,
0000
0000
0000
0000
1010
1010
0000
0000
0000
0000
0000
0000
1000
1000
0100
0100
,
0010
0010
0100
0000
0000
0000
0011
0000
0000
0000
0100
0000
0100
0000
0011
0000
,
0000
0100
0100
0011
0100
0000
0100
0011
,
0000
0010
0000
1100
0000
0010
0010
1100
,
0010
0000
0010
1100
0010
0010
0000
1100
,
0000
1000
0000
0101
0000
1000
1000
0101
,
0000
1000
1000
0101
1000
0000
1000
0101
,
0000
0001
0000
1010
0000
0001
0001
1010
,
0001
0000
0001
1010
0001
1010
1010
0101
,
0101
0010
0000
0110
0000
0010
0010
0110
,
0000
0010
0010
0110
0010
0000
0010
0110
,
0000
1000
0000
1001
0000
1000
1000
1001
,
1000
0000
1000
1001
1000
1000
0000
1001
,
0000
0100
0000
0110
0000
0100
0100
0110
,
0000
0100
0100
0110
0100
0000
0100
0110
,
0000
0001
0000
1001
0000
0001
0001
1001
,
0001
1001
1001
1001
1001
0110
0110
0110
,
0110
0000
1001
1001
0000
0000
0000
0000
1000
0000
0000
0000
0100
0000
0011
0011
,
0011
0000
0000
0011
0000
0000
0101
0000
0000
0101
0000
0000
0000
0000
0000
0000
0000
0000
1000
0000
0100
0000
0010
0000
0001
0000
0000
0000
0000
0000
0000
0000
0000
0000
0000
0000
0001
0000
0000
0000
0000
0000
0110
0000
0000
0011
0000
0000
,
1100
1100
1010
1010
0000
0000
0000
0000
0000
0000
1000
0000
0000
0000
0001
0000
,
0000
0000
0000
0001
0100
0010
1000
0000
0000
0010
0100
0001
1000
0000
0000
0001
0010
0100
1000
0000
0000
0001
0100
0010
,
1000
0000
0000
0000
0000
0000
0100
0000
0000
0011
0000
0000
0011
0000
0000
0100
0000
0000
0011
0000
0000
0011
0000
0000
0000
0000
0000
0000
0000
0000
1000
0000
0100
0000
0010
0000
0001
0000
0000
0000
0000
0000
0001
0000
0010
0000
0100
0000
,
1000
0000
0100
0000
0010
0000
1001
0000
0000
1001
0000
0000
0010
0000
0000
0100
0000
0000
1000
0000
0000
0001
0000
0000
0100
0000
0000
0010
0000
0000
1000
0000
0000
0001
0000
0000
1000
0000
0000
0100
0000
0000
0010
0000
0000
0001
0000
0000
,
0110
0110
1000
0001
0100
0010
1000
0001
0100
0001
0010
0100
1000
0001
1010
1010
,
0100
0001
1000
0010
0100
0010
1000
0001
0100
0010
0100
0010
0101
0101
0010
0100
,
1000
0001
0100
0010
1000
1000
0100
0100
0010
0010
0100
0000
0000
0000
0101
0000
,
0000
0010
0010
0101
0000
0010
0010
0101
,
0010
0000
0010
0101
0000
0001
0000
1010
,
0000
0001
0001
1010
0001
0000
0001
1010
,
0001
0001
0000
1010
0000
1000
0000
0110
,
0000
1000
1000
0110
0000
1000
1000
0110
,
1000
0000
1000
0110
0000
0100
0000
1001
,
0000
0100
0100
1001
0100
0000
0100
1001
,
0100
1001
1001
0110
0110
0001
0000
0011
,
0000
0001
0001
0011
0000
0001
0001
0011
,
0001
0000
0001
0011
0000
1000
0000
1100
,
0000
1000
1000
1100
1000
0000
1000
1100
,
1000
1000
0000
1100
0000
0010
0000
0011
,
0000
0010
0010
0011
0000
0010
0010
0011
,
0010
0000
0010
0011
0000
0100
0000
1100
,
0000
0100
0100
1100
0100
1100
1100
1100
,
1100
0000
0011
0000
0011
0000
0011
0000
0011
0000
1001
1001
0100
0010
1000
0100
,
0010
0000
0000
0001
0000
0000
1000
0000
0000
0001
0000
0000
0100
0000
0000
0010
0000
0000
1100
0000
0000
1100
0000
0000
1100
0000
0000
1100
0000
0000
1010
0000
0000
1010
0000
0000
0100
0000
0000
0010
0000
0000
0001
0000
0010
0000
0100
0000
,
1000
0001
0100
0010
1000
0001
0110
1100
0011
0011
0101
0101
0010
1000
0100
0010
,
0001
0000
0000
0010
0000
0000
0100
0000
0000
1000
0000
0000
0001
0000
0000
0100
0000
0000
0010
0000
0000
1000
0000
0000
0001
0000
0000
0100
0000
0000
0010
0000
1000
0000
0100
0000
0010
0000
0000
0000
0000
0000
0001
0000
0010
0000
0100
0000
,
1000
0000
0000
0000
0000
0000
0010
0000
0100
0000
0001
0000
1000
0000
0000
0000
0000
0000
0001
0000
0010
0000
0100
0000
1000
0000
0000
0000
0000
0000
0010
0000
0000
1100
0000
0000
1100
0000
0000
0010
0000
0000
1100
0000
0000
1100
0000
0000
,
0010
0000
0000
0100
0000
0000
0001
0000
0010
0000
0100
0000
1000
0000
0000
0000
0000
0000
0001
0000
0010
0000
0100
0000
1000
0000
0001
0000
0010
0000
0101
0000
0000
0101
0000
0000
1000
0000
0000
0100
0000
0000
0010
0000
0000
0001
0000
0000
,
0100
0010
1000
0001
0010
0100
1000
0001
1010
1010
0100
0001
1000
0001
0010
0100
,
1000
0010
0100
0001
1000
0100
0011
0011
0100
1000
0001
0100
0010
1000
0010
0100
,
0001
0010
0100
1000
0110
0110
1000
0001
0010
0100
1000
0100
0010
0010
0001
0001
,
1000
1000
0010
0000
0000
0000
1100
0000
0000
0000
0010
0000
0010
0000
1100
0000
,
0000
0010
0010
1100
0010
0000
0010
1100
,
0000
1000
0000
0011
0000
1000
1000
0011
,
1000
0000
1000
0011
1000
1000
0000
0011
,
0000
0001
0000
0110
0000
0001
0001
0110
,
0000
0001
0001
0110
0001
0000
0001
0110
,
0000
0100
0000
1001
0000
0100
0100
1001
,
0100
0000
0100
1001
0100
1001
1001
0110
,
0110
1000
0000
1010
0000
1000
1000
1010
,
0000
1000
1000
1010
1000
0000
1000
1010
,
0000
0001
0000
0101
0000
0001
0001
0101
,
0001
0000
0001
0101
0001
0001
0000
0101
,
0000
0010
0000
1010
0000
0010
0010
1010
,
0000
0010
0010
1010
0010
0000
0010
1010
,
0000
0100
0000
0101
0000
0100
0100
0101
,
0100
0101
0101
0101
0101
1010
1010
1010
,
1010
0000
1001
1001
0000
0000
0000
0000
0000
0000
0000
0000
0000
0000
0000
0000
;
