#TITLE:Anata Ga Mawaru;
#SUBTITLE:;
#ARTIST:Bloody Vomit Bukkake;
#TITLETRANSLIT:;
#SUBTITLETRANSLIT:;
#ARTISTTRANSLIT:;
#CREDIT:;
#BANNER:Anata Ga Mawaru - bn.png;
#BACKGROUND:Anata Ga Mawaru - bg.png;
#LYRICSPATH:;
#CDTITLE:;
#MUSIC:Anata Ga Mawaru.ogg;
#OFFSET:0.009;
#SAMPLESTART:37.380;
#SAMPLELENGTH:20.864;
#SELECTABLE:YES;
#DISPLAYBPM:257.000;
#BPMS:0.000=256.000,1.000=256.400,2.000=256.700,3.000=256.800,6.000=256.300,7.000=256.600,8.000=256.800,10.000=256.600,11.000=256.700,13.000=256.600,14.000=256.400,15.000=256.500,16.000=256.700,18.000=256.600,20.000=256.700,21.000=256.600,23.000=256.700,25.000=256.600,27.000=256.700,29.000=257.000,30.000=256.500,32.000=256.660,40.000=256.700,48.000=256.650,56.000=256.600,64.000=256.665,96.000=256.664,128.000=256.645,160.000=256.635,192.000=256.670,208.000=256.650,280.000=256.750,288.000=227.000,290.000=274.300,293.000=237.100,294.000=257.800,296.000=257.360,309.000=256.030,318.000=256.600,322.000=256.660,335.000=256.604,344.000=256.350,376.000=258.900,380.000=256.730,404.000=255.100,408.000=256.640,436.000=256.620,440.000=256.670,444.000=256.760,447.000=234.700,448.000=256.600,452.000=256.645,500.000=256.670,524.000=256.650,552.000=257.500,556.000=255.820,560.000=256.650,580.000=256.640,612.000=256.512,676.000=254.200,684.000=255.900,687.000=258.550,689.000=256.170,692.000=256.380,704.000=256.690,712.000=256.640,728.000=256.600,732.000=204.500,733.000=212.100,734.000=128.500,734.500=186.800,735.500=208.250;
#STOPS:;
#BGCHANGES:;
// cache tags:
#FIRSTBEAT:0.000;
#LASTBEAT:739.000;
#SONGFILENAME:Songs/SPEEEDCOOOORE 4/Anata Ga Mawaru - [Aoreo]/Anata Ga Mawaru.sm;
#HASMUSIC:1;
#HASBANNER:1;
#MUSICLENGTH:177.440;
// end cache tags

//---------------dance-single - J. Nero----------------
#NOTES:
     dance-single:
     J. Nero:
     Challenge:
     19:
     1.000,1.000,0.265,0.242,1.000,1478.000,47.000,43.000,2.000,0.000:
1000
1100
0001
0101
,
1000
0000
0000
1100
0000
0000
0001
0000
1000
0010
0000
0100
,
0001
0011
1000
1010
,
0001
0000
0000
0011
0000
0000
1000
0000
0100
0010
0000
0001
,
1000
1001
0010
0110
,
1000
0000
0000
1001
0000
0000
0001
0000
1000
0100
0000
1000
,
0010
0110
1000
1001
,
0001
0000
0000
0101
0000
0000
0100
0001
1000
0001
0010
0100
,
1000
0010
1000
0010
,
0100
0000
0001
0000
0000
0001
0000
0000
1000
0100
0000
0010
,
0001
0100
0001
0010
,
0100
0000
1000
0010
0000
2000
0000
3000
0001
0100
0000
0001
,
0010
0100
1000
0001
,
1000
0000
0010
0000
0000
0010
0000
0000
1000
0001
0000
1000
,
0100
0000
0000
0010
0000
0000
0001
0000
0100
0000
0000
0002
,
0000
0000
0003
0000
0000
0000
0100
0000
0001
0010
0000
0100
,
1000
0001
0100
0001
,
1000
0000
0100
0000
0000
0100
0000
0000
1000
0100
0000
1000
,
0001
0010
0100
1000
,
0001
0000
0100
0001
0000
0020
0000
0030
0100
1000
0000
0001
,
0100
0010
1000
0001
,
1000
0000
0001
0000
0000
0001
0000
0000
0100
0001
0000
0010
,
0100
0000
0000
1000
0000
0000
0010
0000
0100
0000
0000
0002
,
0000
0000
0000
0000
0003
0000
1000
0100
1000
0010
0000
0100
,
0001
0000
0001
1000
0000
1000
0100
0000
0100
0010
0000
0010
,
0001
0000
1000
0001
0000
0000
1000
0000
0010
0100
0000
0001
,
1000
0000
1000
0001
0000
0001
0010
0000
0010
0100
0000
1000
,
0010
0000
0100
0010
0000
2000
0000
3000
0001
0100
0000
0001
,
0010
0000
0010
0100
0000
0100
1000
0000
1000
0001
0000
0001
,
0100
0000
0100
0010
0000
2000
0000
3000
0001
0100
0000
0001
,
0010
0000
0010
0100
0000
0100
1000
0000
1000
0001
0000
0001
,
0100
0000
0010
0000
0000
2000
0000
3000
0001
1000
0000
0100
,
0010
0000
0010
0001
0000
0001
1000
0000
0010
0100
0000
0001
,
1000
0000
1000
0010
0000
0010
0100
0000
0000
0001
0000
0010
,
0100
0000
0100
1000
0000
0000
0010
0000
0000
0100
0000
0001
,
1000
0000
1000
0010
0000
0100
0001
0000
0010
0100
0000
1000
,
0001
0000
0001
0100
0000
0100
0010
0000
1000
0001
0000
0100
,
0001
0000
0020
0000
0030
0100
1000
0000
0010
1000
0000
1000
,
0001
0000
0000
0100
0000
0100
0001
0000
0000
0010
0000
0100
,
1000
0000
0000
0000
0000
0000
0000
0000
0001
0000
0000
0000
0100
0000
0000
0000
0000
0000
0000
0000
0000
0000
0000
0000
0001
0000
0000
0100
0000
0000
0001
0000
0000
1000
0000
0000
0100
0000
0000
0010
0000
0000
0001
0000
0000
1000
0000
0000
,
0001
0010
0100
1000
0001
0100
0001
1000
,
0010
0000
1000
0000
0100
0000
1000
0000
0010
0000
1000
0000
0001
0100
0001
1000
,
0010
1000
0001
0100
0010
0100
0001
0010
,
0100
0000
1000
0000
0010
0000
1000
0000
0100
0000
1000
0001
1000
0000
0001
0010
,
0100
1000
0001
0100
0001
0010
0100
1000
,
0001
0100
0001
1000
0100
0010
0100
1000
,
0001
0100
0001
1000
0010
0100
0010
1000
0001
1000
0010
0100
0001
1000
0001
0010
,
0100
1000
0001
1000
0100
0010
0001
1000
0001
0100
0010
0100
0001
1000
0010
1000
,
0001
1000
0001
0100
0001
0010
0001
1000
,
0100
0010
0001
1000
0010
1000
0100
1000
,
0001
0100
0010
0100
0001
0100
0010
0100
,
0001
1000
0100
0010
0100
1000
0001
0100
,
0001
1000
0010
1000
0001
0100
0010
0100
0001
1000
0001
0100
0010
0100
0001
1000
,
0100
0010
0100
1000
0001
0010
0100
1000
0001
1000
0010
0100
0010
1000
0001
0100
,
0001
1000
0100
0010
0100
1000
0001
1000
0010
0100
0010
1000
0001
0100
0001
1000
,
0100
0010
0001
1000
0100
1000
0001
0100
0001
1000
0010
0100
0001
1000
0001
0010
,
0100
0010
0001
1000
0100
1000
0001
0100
0010
0100
0001
1000
0010
0100
0001
1000
,
0100
0010
0001
1000
0001
0010
0100
0010
0001
1000
0001
0100
0010
0100
0001
1000
,
0100
0010
0001
1000
0100
1000
0001
0100
0001
1000
0010
0100
0010
1000
0001
0010
,
0100
0010
0001
1000
0010
0100
0001
1000
0001
0010
0100
0010
0001
1000
0001
0100
,
0010
0100
0001
1000
0100
0010
0001
1000
0100
1000
0001
0100
0010
1000
0001
1000
,
0100
0010
0100
1000
0001
0100
0001
1000
0010
1000
0001
0010
0100
0010
0001
1000
,
0001
0100
0010
0100
0001
1000
0010
1000
0001
0010
0100
0010
0001
1000
0100
1000
,
0001
0100
0001
1000
0010
0100
0001
1000
0001
0010
0100
1000
0001
1000
0010
0100
,
0010
1000
0001
1000
0010
0100
0001
1000
0100
0010
0100
1000
0001
0100
0001
1000
,
0010
0100
0010
1000
0001
0010
0100
1000
0001
1000
0010
0100
0010
1000
0001
0010
,
0100
0010
0001
1000
0010
1000
0001
0100
0010
0100
0001
1000
0001
0010
0100
1000
,
0001
1000
0010
0100
0010
1000
0001
1000
0100
0010
0001
1000
0100
1000
0001
0100
,
0001
1000
0010
0100
0001
1000
0001
0010
0100
1000
0001
1000
0010
0100
0010
1000
,
0001
1000
0100
0010
0001
1000
0010
1000
0001
0100
0010
0100
0001
1000
0001
0010
,
0100
1000
0001
0100
,
0001
0010
0100
1000
,
0002
0003
0000
0000
,
0000
0000
0000
0000
0000
0000
0000
0000
1000
0000
0001
1000
0001
0010
0100
1000
,
0001
0101
1000
1100
,
0001
0000
0000
0101
0000
0000
1000
0000
0100
0010
0000
0001
,
1000
1010
0001
0011
,
1000
0000
0000
1010
0000
0000
0001
0000
1000
0010
0000
1000
,
0001
0000
0001
0010
0000
0010
0100
0000
0100
1000
0000
1000
,
0001
0000
0100
0010
0000
0000
1000
0000
0100
1000
0000
0001
,
1000
0000
1000
0010
0000
0010
0100
0000
0100
0001
0000
0000
,
1000
0000
1000
0100
0000
0020
0000
0000
0031
1000
0000
0001
,
0100
0000
0100
0001
0000
0001
0010
0000
0010
0100
0000
0100
,
1000
0000
0001
0100
0000
0001
0000
0000
1000
0010
0000
0010
,
0100
0000
0000
0001
0000
1000
0100
0000
0100
0010
0000
0010
,
0001
0000
0100
0001
0000
0010
0100
1000
0001
0100
0000
0001
,
1000
0000
0001
0100
0001
0010
0000
0100
,
1000
0001
1000
0010
0000
0100
0010
1000
,
0001
0200
0000
0000
0000
0301
0100
0010
,
0100
0001
0000
0010
0100
0000
0100
0000
,
1000
0010
1000
0010
0100
0001
0100
0001
,
0010
0100
0010
0100
1000
0010
1000
0001
,
2000
3020
0230
0000
,
0302
0000
0000
0000
,
1003
0010
0100
0001
,
0010
0100
1000
0002
0000
0000
0000
0000
,
1003
0100
0010
0001
,
1000
0001
0100
0002
0000
0000
0000
0000
,
1003
0001
0100
0000
0001
0010
0000
0100
,
1000
0001
1000
0010
0000
0100
0001
1000
,
0001
1000
0001
0010
0100
1000
0001
0100
0010
1000
0001
0010
0100
1000
0001
0100
,
0001
0101
1000
1100
,
0001
0000
0000
0101
0000
0000
1000
0000
0100
1000
0000
0001
,
0010
0110
0001
1001
,
0100
0000
0000
0110
0000
0000
0001
0000
1000
0010
0000
1000
,
0100
1100
0001
0011
,
1000
0000
0000
1100
0000
0000
0001
0000
1000
0100
0000
0010
,
0001
0101
1000
1100
,
0001
0000
0000
0101
0000
0000
1000
0100
0010
0100
1000
0001
,
0100
0001
0010
0100
,
1000
0000
0000
0001
0000
0000
1000
0000
0100
1000
0000
0001
,
0100
0001
0010
0100
,
1000
0000
0000
0001
0000
0000
0100
0000
0001
1000
0000
0001
,
0010
0001
1000
0010
,
0100
0000
0000
0010
0000
0000
1000
0000
0001
1000
0000
0001
,
0010
0100
1000
0010
,
1000
0000
0000
0001
0000
0000
0100
0000
0001
1000
0000
0001
,
0010
0001
1000
0100
,
1000
0000
0000
0001
0000
0000
1000
0000
0100
1000
0000
0010
,
0100
0001
0010
0100
,
0010
0000
0000
0001
0000
0000
0100
0000
0001
0010
0000
0100
,
0010
0001
0100
0010
,
1000
0000
0000
0001
0000
0000
1000
0000
0100
0010
0000
0001
,
1000
0010
1000
0001
,
0010
0000
0000
0100
0000
0000
0010
0000
0001
1000
0000
0010
,
1000
0100
1000
0010
0100
0010
1000
0001
,
1000
0001
0010
0100
1000
0010
0100
0001
,
0010
0001
1000
0001
1000
0010
0100
0010
,
0100
0001
1000
0001
1000
0100
0010
0001
,
1000
0001
0010
0001
0100
0010
0100
0001
,
0010
0100
1000
0010
1000
0100
0010
0001
,
1000
0001
1000
0100
0010
0001
1000
0001
0100
0010
0100
0001
1000
0100
0010
0100
,
1000
0001
1000
0010
0100
0010
1000
0001
0100
0001
1000
0010
0100
0001
0100
0010
,
1000
0001
0010
0100
0010
0001
1000
0001
0100
0010
0100
0001
1000
0001
0010
0100
,
1000
0001
1000
0010
0100
0010
1000
0001
0100
0001
1000
0010
0100
0010
1000
0001
,
1000
0100
0010
0001
1000
0001
0100
0010
0100
0001
1000
0001
0010
0100
1000
0001
,
1000
0010
0100
0010
1000
0001
1000
0100
0010
0001
1000
0100
1000
0001
0100
0010
,
2000
3000
0000
0000
,
2002
3003
0000
0000
,
2002
3003
0000
0000
,
2002
3003
0000
0000
,
2002
3003
0000
0000
,
2002
3003
0000
0000
,
2002
3003
0000
0000
,
2002
0000
0000
3003
0000
0000
0001
0010
0100
1000
0000
0001
,
1000
0001
0100
0001
,
0010
0100
1000
0001
,
0100
0001
1000
0100
,
0010
0001
1000
0001
,
0100
0001
0010
0100
,
1000
0001
0100
0001
,
0010
0001
1000
0100
,
1000
0100
1000
0010
0100
0010
1000
0100
0010
0001
0100
0001
,
1000
0001
0010
0100
0010
0001
1000
0001
0100
0010
0100
0001
1000
0010
1000
0001
,
0010
0100
1000
0001
0010
0001
1000
0010
1000
0001
0100
0010
1000
0001
1000
0100
,
0010
0100
1000
0001
0010
0001
1000
0010
0100
0010
1000
0001
0100
0010
1000
0001
,
0010
0100
1000
0001
1000
0100
0010
0100
1000
0001
1000
0010
0100
0010
1000
0001
,
0010
0100
1000
0001
0010
0001
1000
0010
1000
0001
0100
0010
0100
0001
1000
0100
,
0010
0100
1000
0001
0100
0010
1000
0001
1000
0100
0010
0100
1000
0001
1000
0010
,
0100
0010
1000
0001
0010
0100
1000
0001
0010
0001
1000
0010
0100
0001
1000
0001
,
0010
0100
0010
0001
1000
0010
1000
0001
0100
0001
1000
0100
0010
0100
1000
0001
,
1000
0010
0100
0010
1000
0001
0100
0001
1000
0100
0010
0100
1000
0001
0010
0001
,
1000
0010
1000
0001
0100
0010
1000
0001
1000
0100
0010
0001
1000
0001
0100
0010
,
0100
0001
1000
0001
0100
0010
1000
0001
0010
0100
0010
0001
1000
0010
1000
0001
,
0100
0010
0100
0001
1000
0100
0010
0001
1000
0001
0100
0010
0100
0001
1000
0100
,
0010
0100
1000
0001
0100
0001
1000
0010
0100
0010
1000
0001
1000
0100
0010
0001
,
1000
0001
0100
0010
0100
0001
1000
0001
0010
0100
1000
0001
0010
0001
1000
0010
,
1000
0001
0100
0010
1000
0001
1000
0100
0010
0001
1000
0001
0100
0010
0100
0001
,
1000
0001
0010
0100
1000
0001
0100
0001
1000
0010
0100
0010
1000
0001
1000
0100
,
0010
0001
1000
0010
,
0100
0001
0010
0100
,
2000
0000
3000
0000
,
0000
0000
0000
0000
0000
0000
0000
0000
0001
0000
1000
0001
1000
0100
0010
0001
,
1000
1100
0001
0101
,
1000
0000
0000
1100
0000
0000
0001
0000
0100
0001
0000
0010
,
0100
1100
0001
0011
,
1000
0000
0000
1100
0000
0000
0001
0000
1000
0001
0000
0010
,
0100
1000
0001
0100
,
0001
0000
0100
0000
0000
0100
0000
0000
0001
1000
0000
0001
,
0010
0100
1000
0001
,
1000
0000
0100
1000
0000
0020
0000
0030
0100
0001
0000
1000
,
0100
0010
0001
1000
,
0001
0000
0100
0000
0000
0100
0000
0000
0001
0010
0000
0100
,
2000
0000
3000
0000
2002
0000
3003
0000
0022
0033
0220
0000
0330
0000
2002
0000
,
0000
0000
0000
3MM3
;

//---------------dance-single - J. Nero----------------
#NOTES:
     dance-single:
     J. Nero:
     Hard:
     16:
     1.000,1.000,0.265,0.254,1.000,1346.000,47.000,45.000,2.000,0.000:
1000
1100
0001
0101
,
1000
0000
0000
1100
0000
0000
0001
0000
1000
0010
0000
0100
,
0001
0011
1000
1010
,
0001
0000
0000
0011
0000
0000
1000
0000
0100
0010
0000
0001
,
1000
1001
0010
0110
,
1000
0000
0000
1001
0000
0000
0001
0000
1000
0100
0000
1000
,
0010
0110
1000
1001
,
0001
0000
0000
0101
0000
0000
0100
0001
1000
0001
0010
0100
,
1000
0010
1000
0010
,
0100
0000
0001
0000
0000
0001
0000
0000
1000
0100
0000
0010
,
0001
0100
0001
0010
,
0100
0000
1000
0010
0000
2000
0000
3000
0001
0100
0000
0001
,
0010
0100
1000
0001
,
1000
0000
0010
0000
0000
0010
0000
0000
1000
0001
0000
1000
,
0100
0000
0000
0010
0000
0000
0001
0000
0100
0000
0000
0002
,
0000
0000
0003
0000
0000
0000
0100
0000
0001
0010
0000
0100
,
1000
0001
0100
0001
,
1000
0000
0100
0000
0000
0100
0000
0000
1000
0100
0000
1000
,
0001
0010
0100
1000
,
0001
0000
0100
0001
0000
0020
0000
0030
0100
1000
0000
0001
,
0100
0010
1000
0001
,
1000
0000
0001
0000
0000
0001
0000
0000
0100
0001
0000
0010
,
0100
0000
0000
1000
0000
0000
0010
0000
0100
0000
0000
0002
,
0000
0000
0000
0000
0003
0000
1000
0100
1000
0010
0000
0100
,
0001
0000
0001
1000
0000
1000
0100
0000
0100
0010
0000
0010
,
0001
0000
1000
0001
0000
0000
1000
0000
0010
0100
0000
0001
,
1000
0000
1000
0001
0000
0001
0010
0000
0010
0100
0000
1000
,
0010
0000
0100
0010
0000
2000
0000
3000
0001
0100
0000
0001
,
0010
0000
0010
0100
0000
0100
1000
0000
1000
0001
0000
0001
,
0100
0000
0100
0010
0000
2000
0000
3000
0001
0100
0000
0001
,
0010
0000
0010
0100
0000
0100
1000
0000
1000
0001
0000
0001
,
0100
0000
0010
0000
0000
2000
0000
3000
0001
1000
0000
0100
,
0010
0000
0010
0001
0000
0001
1000
0000
0010
0100
0000
0001
,
1000
0000
1000
0010
0000
0010
0100
0000
0000
0001
0000
0010
,
0100
0000
0100
1000
0000
0000
0010
0000
0000
0100
0000
0001
,
1000
0000
1000
0010
0000
0100
0001
0000
0010
0100
0000
1000
,
0001
0000
0001
0100
0000
0100
0010
0000
1000
0001
0000
0100
,
0001
0000
0020
0000
0030
0100
1000
0000
0010
1000
0000
1000
,
0001
0000
0000
0100
0000
0100
0001
0000
0000
0010
0000
0100
,
1000
0000
0000
0000
0000
0000
0000
0000
0001
0000
0000
0000
0100
0000
0000
0000
0000
0000
0000
0000
0000
0000
0000
0000
0001
0000
0000
0100
0000
0000
0001
0000
0000
1000
0000
0000
0100
0000
0000
0010
0000
0000
0001
0000
0000
1000
0000
0000
,
0001
0010
0100
1000
0001
0100
0001
1000
,
0010
0000
1000
0000
0100
0000
1000
0000
0010
0000
1000
0000
0001
0100
0001
1000
,
0010
1000
0001
0100
0010
0100
0001
0010
,
0100
0000
1000
0000
0010
0000
1000
0000
0100
0000
1000
0001
1000
0000
0001
0010
,
0100
1000
0001
0100
0001
0010
0100
1000
,
0001
0100
0001
1000
0100
0010
0100
1000
,
0001
0100
0001
1000
0010
0100
0010
1000
0001
1000
0010
0100
0001
1000
0001
0010
,
0100
1000
0001
1000
0100
0010
0001
1000
0001
0100
0010
0100
0001
1000
0010
1000
,
0001
1000
0001
0100
0001
0010
0001
1000
,
0100
0010
0001
1000
0010
1000
0100
1000
,
0001
0100
0010
0100
0001
0100
0010
0100
,
0001
1000
0100
0010
0100
1000
0001
0100
,
0001
0010
0000
0100
2000
0000
3010
0100
,
0000
0001
2000
0000
3001
0000
0010
0000
,
0100
1000
0010
0100
0010
1000
0100
0010
0001
0100
0001
0010
,
0100
1000
0001
1000
0010
0100
0001
1000
0100
0010
0100
1000
,
0010
0100
0001
1000
0100
0010
0001
1000
0001
0100
0010
1000
,
0100
0010
0001
0100
0001
1000
0100
0010
0100
1000
0010
0100
,
0001
1000
0001
0010
0100
1000
0001
1000
0010
0100
0010
1000
,
0001
1000
0100
0010
0001
0100
0001
1000
0100
0010
0100
1000
,
0010
0100
0010
1000
0100
0010
0001
0100
0001
1000
0010
0100
,
0010
1000
0001
0010
0100
0010
0001
0100
0001
1000
0100
0010
,
0001
1000
0010
0100
0010
1000
0001
0010
0100
1000
0001
1000
,
0010
0100
0010
1000
0100
0010
0001
1000
0001
0100
0010
0100
,
0001
0010
0100
0010
0001
1000
0010
1000
0100
0010
0001
1000
,
0001
0100
0010
0100
0001
1000
0100
0010
0001
0100
0001
1000
,
0010
0100
0010
1000
0100
0010
0001
1000
0001
0100
0010
0100
,
0001
0000
0000
0000
1000
0000
0000
0000
0100
0000
0000
0000
0010
0000
0000
0000
0100
0000
0000
0000
1000
0000
0000
0000
0010
0000
0000
0000
0100
0000
0000
0000
0001
0000
0000
0000
1000
0000
0000
0001
0000
0000
1000
0000
0000
0100
0000
0000
,
0010
0001
1000
0001
0100
0010
1000
0010
0100
0001
1000
0001
0010
0100
1000
0001
,
1000
0010
0100
0001
0100
0010
1000
0001
1000
0100
0010
0001
1000
0001
0100
0010
,
0100
0001
1000
0010
,
1000
0100
0010
0001
,
2000
3000
0000
0000
,
0000
0000
0000
0000
0000
0000
0000
0000
1000
0000
0001
1000
0001
0010
0100
1000
,
0001
0101
1000
1100
,
0001
0000
0000
0101
0000
0000
1000
0000
0100
0010
0000
0001
,
1000
1010
0001
0011
,
1000
0000
0000
1010
0000
0000
0001
0000
1000
0010
0000
1000
,
0001
0000
0001
0010
0000
0010
0100
0000
0100
1000
0000
1000
,
0001
0000
0100
0010
0000
0000
1000
0000
0100
1000
0000
0001
,
1000
0000
1000
0010
0000
0010
0100
0000
0100
0001
0000
0000
,
1000
0000
1000
0100
0000
0020
0000
0000
0031
1000
0000
0001
,
0100
0000
0100
0001
0000
0001
0010
0000
0010
0100
0000
0100
,
1000
0000
0001
0100
0000
0001
0000
0000
1000
0010
0000
0010
,
0100
0000
0000
0001
0000
1000
0100
0000
0100
0010
0000
0010
,
0001
0000
0100
0001
0000
0010
0100
1000
0001
0100
0000
0001
,
1000
0000
0001
0100
0001
0010
0000
0100
,
1000
0001
1000
0010
0000
0100
0010
1000
,
0001
0200
0000
0000
0000
0301
0100
0010
,
0100
0001
0000
0010
0100
0000
0100
0000
,
1000
0010
1000
0010
0100
0001
0100
0001
,
0010
0100
0010
0100
1000
0010
1000
0001
,
2000
3020
0230
0000
,
0302
0000
0000
0000
,
1003
0010
0100
0001
,
0010
0100
1000
0002
0000
0000
0000
0000
,
1003
0100
0010
0001
,
1000
0001
0100
0002
0000
0000
0000
0000
,
1003
0001
0100
0000
0001
0010
0000
0100
,
1000
0001
1000
0010
0000
0100
0001
1000
,
0001
1000
0001
0010
0100
1000
0001
0100
0010
1000
0001
0010
0100
1000
0001
0100
,
0001
0101
1000
1100
,
0001
0000
0000
0101
0000
0000
1000
0000
0100
1000
0000
0001
,
0010
0110
0001
1001
,
0100
0000
0000
0110
0000
0000
0001
0000
1000
0010
0000
1000
,
0100
1100
0001
0011
,
1000
0000
0000
1100
0000
0000
0001
0000
1000
0100
0000
0010
,
0001
0101
1000
1100
,
0001
0000
0000
0101
0000
0000
1000
0100
0010
0100
1000
0001
,
0100
0001
0010
0100
,
1000
0000
0000
0001
0000
0000
1000
0000
0100
1000
0000
0001
,
0100
0001
0010
0100
,
1000
0000
0000
0001
0000
0000
0100
0000
0001
1000
0000
0001
,
0010
0001
1000
0010
,
0100
0000
0000
0010
0000
0000
1000
0000
0001
1000
0000
0001
,
0010
0100
1000
0010
,
1000
0000
0000
0001
0000
0000
0100
0000
0001
1000
0000
0001
,
0010
0001
1000
0100
,
1000
0000
0000
0001
0000
0000
1000
0000
0100
1000
0000
0010
,
0100
0001
0010
0100
,
0010
0000
0000
0001
0000
0000
0100
0000
0001
0010
0000
0100
,
0010
0001
0100
0010
,
1000
0000
0000
0001
0000
0000
1000
0000
0100
0010
0000
0001
,
1000
0010
1000
0001
,
0010
0000
0000
0100
0000
0000
0010
0000
0001
1000
0000
0010
,
1000
0100
1000
0010
0100
0010
1000
0001
,
1000
0001
0010
0100
1000
0010
0100
0001
,
0010
0001
1000
0001
1000
0010
0100
0010
,
0100
0001
1000
0001
1000
0100
0010
0001
,
1000
0001
0010
0001
0100
0010
0100
0001
,
0010
0100
1000
0010
1000
0100
0010
0001
,
1000
0001
1000
0100
0010
0001
1000
0001
0100
0010
0100
0001
1000
0100
0010
0100
,
1000
0001
1000
0010
0100
0010
1000
0001
0100
0001
1000
0010
0100
0001
0100
0010
,
1000
0001
0010
0100
0010
0001
1000
0001
0100
0010
0100
0001
1000
0001
0010
0100
,
1000
0001
1000
0010
0100
0010
1000
0001
0100
0001
1000
0010
0100
0010
1000
0001
,
1000
0100
0010
0001
1000
0001
0100
0010
0100
0001
1000
0001
0010
0100
1000
0001
,
1000
0010
0100
0010
1000
0001
1000
0100
0010
0001
1000
0100
1000
0001
0100
0010
,
2000
3000
0000
0000
,
2002
3003
0000
0000
,
2002
3003
0000
0000
,
2002
3003
0000
0000
,
2002
3003
0000
0000
,
2002
3003
0000
0000
,
2002
3003
0000
0000
,
2002
0000
0000
3003
0000
0000
0001
0010
0100
1000
0000
0001
,
1000
0001
0100
0001
,
0010
0100
1000
0001
,
0100
0001
1000
0100
,
0010
0001
1000
0001
,
0100
0001
0010
0100
,
1000
0001
0100
0001
,
0010
0001
1000
0100
,
1000
0100
1000
0010
0100
0010
1000
0100
0010
0001
0100
0001
,
1000
0100
0010
0001
0100
0001
0010
0100
1000
0010
0100
0001
,
0010
0001
0100
0010
1000
0100
0010
0001
0100
0001
1000
0100
,
0010
0100
1000
0010
0100
0001
0010
0001
1000
0100
0010
0001
,
0100
0001
1000
0100
1000
0010
0100
0001
0010
0001
0100
0010
,
1000
0100
0010
0001
0100
0001
1000
0100
0010
0100
1000
0010
,
0100
0001
0010
0001
0100
0010
1000
0100
0010
0001
1000
0010
,
0100
0010
1000
0001
0010
0100
1000
0010
0100
0001
1000
0100
,
0010
0001
0100
0001
1000
0010
0100
0010
1000
0001
0010
0100
,
0010
0001
0100
0010
1000
0010
0100
0001
1000
0100
0010
0001
,
0100
0001
1000
0010
0100
0010
1000
0001
0010
0100
1000
0001
,
0100
0010
0100
0001
1000
0100
0010
0001
0100
0001
1000
0100
,
0010
0100
1000
0010
0100
0001
1000
0100
0010
0001
0100
0010
,
0100
0001
0010
0100
1000
0010
0100
0001
1000
0100
0010
0001
,
1000
0000
0000
0000
0010
0000
0000
0000
0100
0000
0000
0000
0010
0000
0000
0000
1000
0000
0000
0000
0001
0000
0000
0000
0010
0000
0000
0000
0100
0000
0000
0000
1000
0000
0000
0000
0001
0000
0000
1000
0000
0000
0001
0000
0000
0100
0000
0000
,
0010
1000
0010
0100
0001
1000
0001
0010
0100
1000
0001
1000
0010
0100
0010
1000
,
0001
1000
0100
0010
0001
1000
0010
1000
0001
0100
0010
0100
0001
1000
0001
0010
,
0100
1000
0001
0100
,
0010
1000
0100
0010
,
0002
0000
0003
0000
,
0000
0000
0000
0000
0000
0000
0000
0000
0001
0000
1000
0001
1000
0100
0010
0001
,
1000
1100
0001
0101
,
1000
0000
0000
1100
0000
0000
0001
0000
0100
0001
0000
0010
,
0100
1100
0001
0011
,
1000
0000
0000
1100
0000
0000
0001
0000
1000
0001
0000
0010
,
0100
1000
0001
0100
,
0001
0000
0100
0000
0000
0100
0000
0000
0001
1000
0000
0001
,
0010
0100
1000
0001
,
1000
0000
0100
1000
0000
0020
0000
0030
0100
0001
0000
1000
,
0100
0010
0001
1000
,
0001
0000
0100
0000
0000
0100
0000
0000
0001
0010
0000
0100
,
2000
0000
3000
0000
2002
0000
3003
0000
0022
0033
0220
0000
0330
0000
2002
0000
,
0000
0000
0000
3MM3
;

//---------------dance-single - J. Nero----------------
#NOTES:
     dance-single:
     J. Nero:
     Medium:
     15:
     1.000,1.000,0.265,0.282,1.000,1301.000,47.000,50.000,2.000,0.000:
1000
1100
0001
0101
,
1000
0000
0000
1100
0000
0000
0001
0000
1000
0010
0000
0100
,
0001
0011
1000
1010
,
0001
0000
0000
0011
0000
0000
1000
0000
0100
0010
0000
0001
,
1000
1001
0010
0110
,
1000
0000
0000
1001
0000
0000
0001
0000
1000
0100
0000
1000
,
0010
0110
1000
1001
,
0001
0000
0000
0101
0000
0000
0100
0001
1000
0001
0010
0100
,
1000
0010
1000
0010
,
0100
0000
0001
0000
0000
0001
0000
0000
1000
0100
0000
0010
,
0001
0100
0001
0010
,
0100
0000
1000
0010
0000
2000
0000
3000
0001
0100
0000
0001
,
0010
0100
1000
0001
,
1000
0000
0010
0000
0000
0010
0000
0000
1000
0001
0000
1000
,
0100
0000
0000
0010
0000
0000
0001
0000
0100
0000
0000
0002
,
0000
0000
0003
0000
0000
0000
0100
0000
0001
0010
0000
0100
,
1000
0001
0100
0001
,
1000
0000
0100
0000
0000
0100
0000
0000
1000
0100
0000
1000
,
0001
0010
0100
1000
,
0001
0000
0100
0001
0000
0020
0000
0030
0100
1000
0000
0001
,
0100
0010
1000
0001
,
1000
0000
0001
0000
0000
0001
0000
0000
0100
0001
0000
0010
,
0100
0000
0000
1000
0000
0000
0010
0000
0100
0000
0000
0002
,
0000
0000
0000
0000
0003
0000
1000
0100
1000
0010
0000
0100
,
0001
0000
0001
1000
0000
1000
0100
0000
0100
0010
0000
0010
,
0001
0000
1000
0001
0000
0000
1000
0000
0010
0100
0000
0001
,
1000
0000
1000
0001
0000
0001
0010
0000
0010
0100
0000
1000
,
0010
0000
0100
0010
0000
2000
0000
3000
0001
0100
0000
0001
,
0010
0000
0010
0100
0000
0100
1000
0000
1000
0001
0000
0001
,
0100
0000
0100
0010
0000
2000
0000
3000
0001
0100
0000
0001
,
0010
0000
0010
0100
0000
0100
1000
0000
1000
0001
0000
0001
,
0100
0000
0010
0000
0000
2000
0000
3000
0001
1000
0000
0100
,
0010
0000
0010
0001
0000
0001
1000
0000
0010
0100
0000
0001
,
1000
0000
1000
0010
0000
0010
0100
0000
0000
0001
0000
0010
,
0100
0000
0100
1000
0000
0000
0010
0000
0000
0100
0000
0001
,
1000
0000
1000
0010
0000
0100
0001
0000
0010
0100
0000
1000
,
0001
0000
0001
0100
0000
0100
0010
0000
1000
0001
0000
0100
,
0001
0000
0020
0000
0030
0100
1000
0000
0010
1000
0000
1000
,
0001
0000
0000
0100
0000
0100
0001
0000
0000
0010
0000
0100
,
1000
0000
0000
0000
0000
0000
0000
0000
0001
0000
0000
0000
0100
0000
0000
0000
0000
0000
0000
0000
0000
0000
0000
0000
0001
0000
0000
0100
0000
0000
0001
0000
0000
1000
0000
0000
0100
0000
0000
0010
0000
0000
0001
0000
0000
1000
0000
0000
,
0001
0010
0100
1000
0001
0100
0001
1000
,
0010
0000
1000
0000
0100
0000
1000
0000
0010
0000
1000
0000
0001
0100
0001
1000
,
0010
1000
0001
0100
0010
0100
0001
0010
,
0100
0000
1000
0000
0010
0000
1000
0000
0100
0000
1000
0001
1000
0000
0001
0010
,
0100
1000
0001
0100
0001
0010
0100
1000
,
0001
0100
0001
1000
0100
0010
0100
1000
,
0001
0100
0001
1000
0010
0100
0010
1000
0001
1000
0010
0100
0001
1000
0001
0010
,
0100
1000
0001
1000
0100
0010
0001
1000
0001
0100
0010
0100
0001
1000
0010
1000
,
0001
1000
0001
0100
0001
0010
0001
1000
,
0100
0010
0001
1000
0010
1000
0100
1000
,
0001
0100
0010
0100
0001
0100
0010
0100
,
0001
1000
0100
0010
0100
1000
0001
0100
,
0001
0010
0000
0100
2000
0000
3010
0100
,
0000
0001
2000
0000
3001
0000
0010
0000
,
0100
1000
0010
0100
0010
1000
0100
0010
0001
0100
0001
0010
,
0100
1000
0001
1000
0010
0100
0001
1000
0100
0010
0100
1000
,
0010
0100
0001
1000
0100
0010
0001
1000
0001
0100
0010
1000
,
0100
0010
0001
0100
0001
1000
0100
0010
0100
1000
0010
0100
,
0001
1000
0001
0010
0100
1000
0001
1000
0010
0100
0010
1000
,
0001
1000
0100
0010
0001
0100
0001
1000
0100
0010
0100
1000
,
0010
0100
0010
1000
0100
0010
0001
0100
0001
1000
0010
0100
,
0010
1000
0001
0010
0100
0010
0001
0100
0001
1000
0100
0010
,
0001
1000
0010
0100
0010
1000
0001
0010
0100
1000
0001
1000
,
0010
0100
0010
1000
0100
0010
0001
1000
0001
0100
0010
0100
,
0001
0010
0100
0010
0001
1000
0010
1000
0100
0010
0001
1000
,
0001
0100
0010
0100
0001
1000
0100
0010
0001
0100
0001
1000
,
0010
0100
0010
1000
0100
0010
0001
1000
0001
0100
0010
0100
,
0001
1000
0100
0010
0100
1000
0010
0100
0001
1000
0100
0010
,
0001
0100
0001
1000
0100
0010
0100
1000
0010
0100
0001
1000
,
0100
0010
0001
1000
0001
0010
0100
1000
0010
0100
0010
1000
,
0100
0010
0001
1000
,
0001
0010
0100
1000
,
0002
0003
0000
0000
,
0000
0000
0000
0000
0000
0000
0000
0000
1000
0000
0001
1000
0001
0010
0100
1000
,
0001
0101
1000
1100
,
0001
0000
0000
0101
0000
0000
1000
0000
0100
0010
0000
0001
,
1000
1010
0001
0011
,
1000
0000
0000
1010
0000
0000
0001
0000
1000
0010
0000
1000
,
0001
0000
0001
0010
0000
0010
0100
0000
0100
1000
0000
1000
,
0001
0000
0100
0010
0000
0000
1000
0000
0100
1000
0000
0001
,
1000
0000
1000
0010
0000
0010
0100
0000
0100
0001
0000
0000
,
1000
0000
1000
0100
0000
0020
0000
0000
0031
1000
0000
0001
,
0100
0000
0100
0001
0000
0001
0010
0000
0010
0100
0000
0100
,
1000
0000
0001
0100
0000
0001
0000
0000
1000
0010
0000
0010
,
0100
0000
0000
0001
0000
1000
0100
0000
0100
0010
0000
0010
,
0001
0000
0100
0001
0000
0010
0100
1000
0001
0100
0000
0001
,
1000
0000
0001
0100
0001
0010
0000
0100
,
1000
0001
1000
0010
0000
0100
0010
1000
,
0001
0200
0000
0000
0000
0301
0100
0010
,
0100
0001
0000
0010
0100
0000
0100
0000
,
1000
0010
1000
0010
0100
0001
0100
0001
,
0010
0100
0010
0100
1000
0010
1000
0001
,
2000
3020
0230
0000
,
0302
0000
0000
0000
,
1003
0010
0100
0001
,
0010
0100
1000
0002
0000
0000
0000
0000
,
1003
0100
0010
0001
,
1000
0001
0100
0002
0000
0000
0000
0000
,
1003
0001
0100
0000
0001
0010
0000
0100
,
1000
0001
1000
0010
0000
0100
0001
1000
,
0001
1000
0001
0010
0100
1000
0001
0100
0010
1000
0001
0010
0100
1000
0001
0100
,
0001
0101
1000
1100
,
0001
0000
0000
0101
0000
0000
1000
0000
0100
1000
0000
0001
,
0010
0110
0001
1001
,
0100
0000
0000
0110
0000
0000
0001
0000
1000
0010
0000
1000
,
0100
1100
0001
0011
,
1000
0000
0000
1100
0000
0000
0001
0000
1000
0100
0000
0010
,
0001
0101
1000
1100
,
0001
0000
0000
0101
0000
0000
1000
0100
0010
0100
1000
0001
,
0100
0001
0010
0100
,
1000
0000
0000
0001
0000
0000
1000
0000
0100
1000
0000
0001
,
0100
0001
0010
0100
,
1000
0000
0000
0001
0000
0000
0100
0000
0001
1000
0000
0001
,
0010
0001
1000
0010
,
0100
0000
0000
0010
0000
0000
1000
0000
0001
1000
0000
0001
,
0010
0100
1000
0010
,
1000
0000
0000
0001
0000
0000
0100
0000
0001
1000
0000
0001
,
0010
0001
1000
0100
,
1000
0000
0000
0001
0000
0000
1000
0000
0100
1000
0000
0010
,
0100
0001
0010
0100
,
0010
0000
0000
0001
0000
0000
0100
0000
0001
0010
0000
0100
,
0010
0001
0100
0010
,
1000
0000
0000
0001
0000
0000
1000
0000
0100
0010
0000
0001
,
1000
0010
1000
0001
,
0010
0000
0000
0100
0000
0000
0010
0000
0001
1000
0000
0010
,
1000
0100
1000
0010
0100
0010
1000
0001
,
1000
0001
0010
0100
1000
0010
0100
0001
,
0010
0001
1000
0001
1000
0010
0100
0010
,
0100
0001
1000
0001
1000
0100
0010
0001
,
1000
0001
0010
0001
0100
0010
0100
0001
,
0010
0100
1000
0010
1000
0100
0010
0001
,
2000
3200
0320
0032
,
0003
2000
0000
0000
,
3001
0100
0001
1000
0010
0100
0010
1000
0001
0100
0001
1000
0100
0010
0001
1000
,
0001
0010
0100
0010
0001
1000
0001
0100
0010
1000
0001
0100
0010
0100
0001
1000
,
0001
0010
0100
1000
0001
1000
0010
0100
0010
1000
0001
1000
0100
0010
0001
1000
,
0001
0100
0010
0100
0001
1000
0001
0010
0100
1000
0001
0010
0001
1000
0010
0100
,
0002
0003
0000
0000
,
2002
3003
0000
0000
,
2002
3003
0000
0000
,
2002
3003
0000
0000
,
2002
3003
0000
0000
,
2002
3003
0000
0000
,
2002
3003
0000
0000
,
2002
0000
0000
3003
0000
0000
0001
0010
0100
1000
0000
0001
,
1000
0001
0100
0001
,
0010
0100
1000
0001
,
0100
0001
1000
0100
,
0010
0001
1000
0001
,
0100
0001
0010
0100
,
1000
0001
0100
0001
,
0010
0001
1000
0100
,
1000
0100
1000
0010
0100
0010
1000
0100
0010
0001
0100
0001
,
1000
0100
0010
0001
0100
0001
0010
0100
1000
0010
0100
0001
,
0010
0001
0100
0010
1000
0100
0010
0001
0100
0001
1000
0100
,
0010
0100
1000
0010
0100
0001
0010
0001
1000
0100
0010
0001
,
0100
0001
1000
0100
1000
0010
0100
0001
0010
0001
0100
0010
,
1000
0100
0010
0001
0100
0001
1000
0100
0010
0100
1000
0010
,
0100
0001
0010
0001
0100
0010
1000
0100
0010
0001
1000
0010
,
0100
0010
1000
0001
0010
0100
1000
0010
0100
0001
1000
0100
,
0010
0001
0100
0001
1000
0010
0100
0010
1000
0001
0010
0100
,
0010
0001
0100
0010
1000
0010
0100
0001
1000
0100
0010
0001
,
0100
0001
1000
0010
0100
0010
1000
0001
0010
0100
1000
0001
,
0100
0010
0100
0001
1000
0100
0010
0001
0100
0001
1000
0100
,
0010
0100
1000
0010
0100
0001
1000
0100
0010
0001
0100
0010
,
0100
0001
0010
0100
1000
0010
0100
0001
1000
0100
0010
0001
,
1000
0010
0100
0010
1000
0001
0010
0100
1000
0010
0100
0001
,
0010
0100
1000
0010
0100
0010
1000
0100
0010
0001
0100
0001
,
1000
0100
0010
0100
1000
0010
0100
0001
1000
0100
0010
0001
,
0100
0010
1000
0100
,
1000
0001
0010
0100
,
2000
0000
3000
0000
,
0000
0000
0000
0000
0000
0000
0000
0000
0001
0000
1000
0001
1000
0100
0010
0001
,
1000
1100
0001
0101
,
1000
0000
0000
1100
0000
0000
0001
0000
0100
0001
0000
0010
,
0100
1100
0001
0011
,
1000
0000
0000
1100
0000
0000
0001
0000
1000
0001
0000
0010
,
0100
1000
0001
0100
,
0001
0000
0100
0000
0000
0100
0000
0000
0001
1000
0000
0001
,
0010
0100
1000
0001
,
1000
0000
0100
1000
0000
0020
0000
0030
0100
0001
0000
1000
,
0100
0010
0001
1000
,
0001
0000
0100
0000
0000
0100
0000
0000
0001
0010
0000
0100
,
2000
0000
3000
0000
2002
0000
3003
0000
0022
0033
0220
0000
0330
0000
2002
0000
,
0000
0000
0000
3MM3
;

//---------------dance-single - J. Nero----------------
#NOTES:
     dance-single:
     J. Nero:
     Easy:
     13:
     0.936,1.000,0.293,0.473,0.764,1027.000,52.000,84.000,2.000,0.000:
1000
1100
0001
0101
,
1000
0000
0000
1100
0000
0000
0001
0000
1000
0010
0000
0100
,
0001
0011
1000
1010
,
0001
0000
0000
0011
0000
0000
1000
0000
0100
0010
0000
0001
,
1000
1001
0010
0110
,
1000
0000
0000
1001
0000
0000
0001
0000
1000
0100
0000
1000
,
0010
0110
1000
1001
,
0001
0000
0000
0101
0000
0000
0100
0001
1000
0001
0010
0100
,
1000
0010
1000
0010
,
0100
0000
0001
0000
0000
0001
0000
0000
1000
0100
0000
0010
,
0001
0100
0001
0010
,
0100
0000
1000
0010
0000
2000
0000
3000
0001
0100
0000
0001
,
0010
0100
1000
0001
,
1000
0000
0010
0000
0000
0010
0000
0000
1000
0001
0000
1000
,
0100
0000
0000
0010
0000
0000
0001
0000
0100
0000
0000
0002
,
0000
0000
0003
0000
0000
0000
0100
0000
0001
0010
0000
0100
,
1000
0001
0100
0001
,
1000
0000
0100
0000
0000
0100
0000
0000
1000
0100
0000
1000
,
0001
0010
0100
1000
,
0001
0000
0100
0001
0000
0020
0000
0030
0100
1000
0000
0001
,
0100
0010
1000
0001
,
1000
0000
0001
0000
0000
0001
0000
0000
0100
0001
0000
0010
,
0100
0000
0000
1000
0000
0000
0010
0000
0100
0000
0000
0002
,
0000
0000
0000
0000
0003
0000
1000
0100
1000
0010
0000
0100
,
0001
0000
0001
1000
0000
1000
0100
0000
0100
0010
0000
0010
,
0001
0000
1000
0001
0000
0000
1000
0000
0010
0100
0000
0001
,
1000
0000
1000
0001
0000
0001
0010
0000
0010
0100
0000
1000
,
0010
0000
0100
0010
0000
2000
0000
3000
0001
0100
0000
0001
,
0010
0000
0010
0100
0000
0100
1000
0000
1000
0001
0000
0001
,
0100
0000
0100
0010
0000
2000
0000
3000
0001
0100
0000
0001
,
0010
0000
0010
0100
0000
0100
1000
0000
1000
0001
0000
0001
,
0100
0000
0010
0000
0000
2000
0000
3000
0001
1000
0000
0100
,
0010
0000
0010
0001
0000
0001
1000
0000
0010
0100
0000
0001
,
1000
0000
1000
0010
0000
0010
0100
0000
0000
0001
0000
0010
,
0100
0000
0100
1000
0000
0000
0010
0000
0000
0100
0000
0001
,
1000
0000
1000
0010
0000
0100
0001
0000
0010
0100
0000
1000
,
0001
0000
0001
0100
0000
0100
0010
0000
1000
0001
0000
0100
,
0001
0000
0020
0000
0030
0100
1000
0000
0010
1000
0000
1000
,
0001
0000
0000
0100
0000
0100
0001
0000
0000
0010
0000
0100
,
1000
0000
0000
0000
0000
0000
0000
0000
0001
0000
0000
0000
0100
0000
0000
0000
0000
0000
0000
0000
0000
0000
0000
0000
0001
0000
0000
0100
0000
0000
0001
0000
0000
1000
0000
0000
0100
0000
0000
0010
0000
0000
0001
0000
0000
1000
0000
0000
,
0001
0010
0100
1000
0001
0100
0001
1000
,
0010
0000
1000
0000
0100
0000
1000
0000
0010
0000
1000
0000
0001
0100
0001
1000
,
0010
1000
0001
0100
0010
0100
0001
0010
,
0100
0000
1000
0000
0010
0000
1000
0000
0100
0000
1000
0001
1000
0000
0001
0010
,
0100
1000
0001
0100
0001
0010
0100
1000
,
0001
0100
0001
1000
0100
0010
0100
1000
,
0001
0100
0001
1000
0010
0100
0010
1000
0001
1000
0010
0100
0001
1000
0001
0010
,
0100
1000
0001
1000
0100
0010
0001
1000
0001
0100
0010
0100
0001
1000
0010
1000
,
0001
1000
0001
0100
0001
0010
0001
1000
,
0100
0010
0001
1000
0010
1000
0100
1000
,
0001
0100
0010
0100
0001
0100
0010
0100
,
0001
1000
0100
0010
0100
1000
0001
0100
,
0001
0010
0000
0100
2000
0000
3010
0100
,
0000
0001
2000
0000
3001
0000
0010
0000
,
0200
1300
0020
0130
,
0002
0000
0000
0013
0000
0000
0100
0000
1000
0010
0000
0100
,
0002
0013
0200
1300
,
0020
0130
0001
0010
,
0110
0000
0000
0000
0000
0000
1100
0000
0000
0000
0000
1000
,
0001
0100
0001
0010
,
0100
1000
0010
0100
,
0002
0003
1000
0100
,
0020
0000
0000
0031
0000
0000
0200
0000
0000
0310
0000
1000
,
0002
0000
0000
0013
0000
0000
0100
0000
1000
0010
0000
0010
,
0200
0301
0020
0130
,
2000
3010
0200
0302
,
0000
0000
0000
0000
,
0000
0000
0000
0000
0000
0000
0000
0000
0000
1003
0100
1000
,
0010
0100
0001
0010
0100
1000
0001
0100
0010
0100
0001
1000
,
0100
0010
0001
1000
0010
0100
0010
1000
0001
0010
0100
1000
,
0001
0010
0001
1000
,
0001
0010
0100
1000
,
0002
0003
0000
0000
,
0000
0000
0000
0000
0000
0000
0000
0000
1000
0000
0001
1000
0001
0010
0100
1000
,
0001
0101
1000
1100
,
0001
0000
0000
0101
0000
0000
1000
0000
0100
0010
0000
0001
,
1000
1010
0001
0011
,
1000
0000
0000
1010
0000
0000
0001
0000
1000
0010
0000
1000
,
0001
0000
0001
0010
0000
0010
0100
0000
0100
1000
0000
1000
,
0001
0000
0100
0010
0000
0000
1000
0000
0100
1000
0000
0001
,
1000
0000
1000
0010
0000
0010
0100
0000
0100
0001
0000
0000
,
1000
0000
1000
0100
0000
0020
0000
0000
0031
1000
0000
0001
,
0100
0000
0100
0001
0000
0001
0010
0000
0010
0100
0000
0100
,
1000
0000
0001
0100
0000
0001
0000
0000
1000
0010
0000
0010
,
0100
0000
0000
0001
0000
1000
0100
0000
0100
0010
0000
0010
,
0001
0000
0100
0001
0000
0010
0100
1000
0001
0100
0000
0001
,
1000
0000
0001
0100
0001
0010
0000
0100
,
1000
0001
1000
0010
0000
0100
0010
1000
,
0001
0200
0000
0000
0000
0301
0100
0010
,
0100
0001
0000
0010
0100
0000
0100
0000
,
1000
0010
1000
0010
0100
0001
0100
0001
,
0010
0100
0010
0100
1000
0010
1000
0001
,
2000
3020
0230
0000
,
0302
0000
0000
0000
,
1003
0010
0100
0001
,
0010
0100
1000
0002
0000
0000
0000
0000
,
1003
0100
0010
0001
,
1000
0001
0100
0002
0000
0000
0000
0000
,
1003
0001
0100
0000
0001
0010
0000
0100
,
1000
0001
1000
0010
0000
0100
0001
1000
,
0001
1000
0001
0010
0100
1000
0001
0100
0010
1000
0001
0010
0100
1000
0001
0100
,
0001
0101
1000
1100
,
0001
0000
0000
0101
0000
0000
1000
0000
0100
1000
0000
0001
,
0010
0110
0001
1001
,
0100
0000
0000
0110
0000
0000
0001
0000
1000
0010
0000
1000
,
0100
1100
0001
0011
,
1000
0000
0000
1100
0000
0000
0001
0000
1000
0100
0000
0010
,
0001
0101
1000
1100
,
0001
0000
0000
0101
0000
0000
1000
0100
0010
0100
1000
0001
,
0100
0001
0010
0100
,
1000
0000
0000
0001
0000
0000
1000
0000
0100
1000
0000
0001
,
0100
0001
0010
0100
,
1000
0000
0000
0001
0000
0000
0100
0000
0001
1000
0000
0001
,
0010
0001
1000
0010
,
0100
0000
0000
0010
0000
0000
1000
0000
0001
1000
0000
0001
,
0010
0100
1000
0010
,
1000
0000
0000
0001
0000
0000
0100
0000
0001
1000
0000
0001
,
0010
0001
1000
0100
,
1000
0000
0000
0001
0000
0000
1000
0000
0100
1000
0000
0010
,
0100
0001
0010
0100
,
0010
0000
0000
0001
0000
0000
0100
0000
0001
0010
0000
0100
,
0010
0001
0100
0010
,
1000
0000
0000
0001
0000
0000
1000
0000
0100
0010
0000
0001
,
1000
0010
1000
0001
,
0010
0000
0000
0100
0000
0000
0010
0000
0001
1000
0000
0010
,
1000
0100
1000
0010
0100
0010
1000
0001
,
1000
0001
0010
0100
1000
0010
0100
0001
,
0010
0001
1000
0001
1000
0010
0100
0010
,
0100
0001
1000
0001
1000
0100
0010
0001
,
1000
0001
0010
0001
0100
0010
0100
0001
,
0010
0100
1000
0010
1000
0100
0010
0001
,
2000
3200
0320
0032
,
0003
2000
0000
0000
,
3001
0100
0000
0001
0020
0000
0130
1000
,
0000
0010
0200
0000
0000
0000
0000
0000
,
0301
1000
0000
0100
1000
0000
0010
0100
,
0000
0001
0020
0000
0130
0000
1000
0000
,
2002
3003
0000
0000
,
2002
3003
0000
0000
,
2002
3003
0000
0000
,
2002
3003
0000
0000
,
2002
3003
0000
0000
,
2002
3003
0000
0000
,
2002
3003
0000
0000
,
2002
0000
0000
3003
0000
0000
0001
0010
0100
1000
0000
0001
,
1000
0001
0100
0001
,
0010
0100
1000
0001
,
0100
0001
1000
0100
,
0010
0001
1000
0001
,
0100
0001
0010
0100
,
1000
0001
0100
0001
,
0010
0001
1000
0100
,
1000
0100
1000
0010
0100
0010
1000
0100
0010
0001
0100
0001
,
2000
3001
0200
0310
,
2000
0000
0000
3100
0000
0000
0010
0000
0001
0100
0000
0010
,
2000
3100
0020
0031
,
0200
0310
1000
0100
,
0110
0000
0000
0000
0000
0000
0011
0000
0000
0000
0000
0001
,
1000
0010
1000
0100
,
0010
0001
0100
0010
,
2000
3000
0001
0010
,
0200
0000
0000
1300
0000
0000
0020
0000
0000
0130
0000
0001
,
2000
0000
0000
3100
0000
0000
0010
0000
0001
0100
0000
0100
,
0020
1030
0200
0310
,
0002
0103
0020
2030
,
0000
0000
0000
0000
,
0000
0000
0000
0000
0000
0000
0000
0000
0000
3001
0010
0001
,
0100
0010
1000
0100
0010
0001
1000
0010
0100
0010
1000
0001
,
0010
0100
1000
0001
0100
0010
0100
0001
1000
0100
0010
0001
,
0100
0010
1000
0100
,
1000
0001
0010
0100
,
2000
0000
3000
0000
,
0000
0000
0000
0000
0000
0000
0000
0000
0001
0000
1000
0001
1000
0100
0010
0001
,
1000
1100
0001
0101
,
1000
0000
0000
1100
0000
0000
0001
0000
0100
0001
0000
0010
,
0100
1100
0001
0011
,
1000
0000
0000
1100
0000
0000
0001
0000
1000
0001
0000
0010
,
0100
1000
0001
0100
,
0001
0000
0100
0000
0000
0100
0000
0000
0001
1000
0000
0001
,
0010
0100
1000
0001
,
1000
0000
0100
1000
0000
0020
0000
0030
0100
0001
0000
1000
,
0100
0010
0001
1000
,
0001
0000
0100
0000
0000
0100
0000
0000
0001
0010
0000
0100
,
2000
0000
3000
0000
2002
0000
3003
0000
0022
0033
0220
0000
0330
0000
2002
0000
,
0000
0000
0000
3MM3
;
