#TITLE:I Gotta Feeling;
#SUBTITLE:Sexuality Violation;
#ARTIST:The Black Eyed Peas;
#TITLETRANSLIT:;
#SUBTITLETRANSLIT:;
#ARTISTTRANSLIT:;
#CREDIT:;
#BANNER:I Gotta Feeling-bn.png;
#BACKGROUND:I Gotta Feeling-bg.png;
#LYRICSPATH:;
#CDTITLE:GazeboCD.png;
#MUSIC:I Gotta Feeling.ogg;
#OFFSET:-0.040;
#SAMPLESTART:120.043;
#SAMPLELENGTH:15.428;
#SELECTABLE:YES;
#BPMS:0.000=256.000;
#STOPS:;
#BGCHANGES:;
// cache tags:
#FIRSTBEAT:64.000;
#LASTBEAT:1101.000;
#SONGFILENAME:Songs/Sexuality Violation 2/I Gotta Feeling - [Gazebo]/I Gotta Feeling.sm;
#HASMUSIC:1;
#HASBANNER:1;
#MUSICLENGTH:259.253;
// end cache tags

//---------------dance-single - Gazebo----------------
#NOTES:
     dance-single:
     Gazebo:
     Challenge:
     18:
     0.937,1.000,0.266,0.810,0.567,1418.000,69.000,210.000,4.000,2.000:
0000
0000
0000
0000
,
0000
0000
0000
0000
,
0000
0000
0000
0000
,
0000
0000
0000
0000
,
0000
0000
0000
0000
,
0000
0000
0000
0000
,
0000
0000
0000
0000
,
0000
0000
0000
0000
,
0000
0000
0000
0000
,
0000
0000
0000
0000
,
0000
0000
0000
0000
,
0000
0000
0000
0000
,
0000
0000
0000
0000
,
0000
0000
0000
0000
,
0000
0000
0000
0000
,
0000
0000
0000
0000
,
0010
0000
0010
0000
,
0010
0000
0010
0000
,
1000
0000
1000
0000
,
0001
0000
0001
0000
,
1000
0000
1000
0000
,
1000
0000
1000
0000
,
1000
0000
1000
0000
,
1000
0000
1000
0000
,
0001
0000
0001
0000
,
0001
0000
0001
0000
,
0001
0000
0001
0000
,
0001
0000
0001
0000
,
0100
0000
0100
0000
,
0100
0000
0100
0000
,
0100
0000
0100
0000
,
0020
2030
3200
0320
,
0032
1003
0001
1000
,
0001
1000
0001
1000
,
0010
1000
0010
1000
,
0100
0000
0000
0000
0020
0030
0000
0000
0020
0030
0000
0000
0002
0000
0000
0000
,
1003
0020
0230
0302
,
1003
0200
0310
0002
,
0013
0200
1300
0001
,
1000
0000
0000
0000
0200
0300
0000
0000
0200
0300
0000
0000
0020
0000
0000
0000
,
0031
2000
3020
0230
,
0301
2000
3001
0020
,
0130
2000
3001
0010
,
0001
0000
0000
0000
2000
3000
0000
0000
2000
3000
0000
0000
0020
0000
0000
0000
,
0130
0002
2003
3200
,
0310
0002
1003
0020
,
1030
0020
1030
0200
,
0320
0032
0203
0320
,
2030
3001
1000
0001
,
1000
0001
1000
0001
,
0100
0001
0100
0001
,
0010
0000
0000
0000
0200
0300
0000
0000
0200
0300
0000
0000
2000
0000
0000
0000
,
3001
0200
0320
2030
,
3001
0020
0130
2000
,
3100
0020
0031
1000
,
0001
0000
0000
0000
0020
0030
0000
0000
0020
0030
0000
0000
0200
0000
0000
0000
,
1300
0002
0203
0320
,
1030
0002
1003
0200
,
0310
0002
1003
0100
,
1000
0000
0000
0000
0002
0003
0000
0000
0002
0003
0000
0000
0200
0000
0000
0000
,
0310
2000
3002
0023
,
0130
2000
3001
0200
,
0301
0200
0301
0020
,
0230
2300
3002
0203
,
0310
0100
0101
0001
,
0020
0130
1100
1000
,
0002
0103
0110
0010
,
1000
0001
0011
0010
,
0100
1000
1001
0001
,
0100
0010
1010
1000
,
0100
0010
0011
0001
,
1000
0010
0110
0100
,
0001
1000
1100
0100
,
0010
0001
1001
1000
,
0010
0100
0101
0001
,
0010
0100
1100
1000
,
0010
0100
0101
0001
,
1000
0100
0110
0010
,
0001
1000
1010
0010
,
0100
0001
1001
1000
,
0001
0010
0001
0000
1000
0100
1000
0000
,
0001
0010
0001
0000
1000
0100
1000
0000
,
0001
0100
0001
0000
1000
0010
1000
0000
,
0010
0100
0010
0000
0100
0001
0100
0000
,
0001
1000
0001
0000
1000
0100
1000
0000
,
0001
1000
0001
0000
1000
0100
1000
0000
,
0001
1000
0001
0000
1000
0100
1000
0000
,
0001
1000
0001
0000
1000
0100
1000
0000
,
0010
0100
0010
0000
0100
0001
0100
0000
,
0010
1000
0010
0000
1000
0001
1000
0000
,
0010
0100
0010
0000
0100
0001
0100
0000
,
0010
1000
0010
0000
1000
0001
1000
0000
,
0100
0010
0100
0000
0010
0001
0010
0000
,
0001
1000
0001
0000
1000
0100
1000
0000
,
0001
0010
0001
0000
0001
0010
0001
0000
,
1000
0010
0010
0010
,
1000
0001
0100
0010
0100
0001
1000
0001
0100
0010
1000
0001
1000
0001
0100
0010
,
1000
0001
1000
0001
0010
0100
0010
0001
1000
0100
1000
0001
1000
0001
0010
0100
,
1000
0001
1000
0001
0100
0010
1000
0010
0100
0001
1000
0001
1000
0010
0100
0010
,
1000
0001
1000
0001
0010
0100
1000
0100
1000
0001
0010
0001
1000
0100
0010
0001
,
1000
0001
1000
0010
1000
0001
0100
0010
1000
0001
0100
0001
0100
0010
1000
0001
,
1000
0001
0010
0100
0010
0001
1000
0100
0010
0001
1000
0001
1000
0100
0010
0100
,
1000
0001
1000
0001
0100
0010
1000
0001
0100
0010
0100
0001
1000
0010
0100
0001
,
1000
0001
1000
0100
0010
0100
1000
0001
0010
0001
1000
0100
0010
0001
1000
0001
,
1000
0010
0100
0001
0100
0001
1000
0010
0100
0010
1000
0001
0100
0010
1000
0001
,
1000
0001
0010
0100
1000
0100
1000
0001
0010
0001
1000
0100
0010
0100
1000
0001
,
1000
0001
0100
0010
1000
0010
0100
0001
1000
0001
1000
0010
0100
0010
1000
0001
,
1000
0001
0010
0100
1000
0001
0010
0001
0010
0100
1000
0001
0010
0100
0010
0001
,
1000
0001
1000
0010
0100
0001
0100
0010
1000
0001
1000
0001
0100
0010
0100
0001
,
1000
0001
1000
0100
0010
0001
1000
0100
1000
0100
0010
0001
1000
0100
0010
0001
,
1000
0001
0001
0001
,
MMMM
0000
1111
0002
,
1003
0100
1000
0020
,
0130
0002
2003
3020
,
0130
0002
2003
3200
,
0310
0000
0002
0003
0002
0003
2000
0000
,
3010
0200
0302
2003
,
3010
0200
0302
0203
,
0310
2000
3002
0023
,
0130
1000
0002
0203
,
0301
1000
0001
0200
,
0310
2000
3002
0203
,
0310
2000
3002
0203
,
0310
0000
2000
3000
2000
3000
0002
0000
,
0013
0200
1300
0002
,
0013
0000
0200
0000
2300
0000
3002
0003
,
0002
0003
2000
0000
3020
0000
0230
0000
,
0301
0001
0001
0001
,
1000
0001
0010
0100
0010
0001
1000
0001
0010
0100
1000
0001
1000
0001
0010
0100
,
1000
0001
1000
0001
0100
0010
0100
0001
1000
0010
1000
0001
1000
0001
0100
0010
,
1000
0001
1000
0001
0010
0100
1000
0100
0010
0001
1000
0001
1000
0100
0010
0100
,
1000
0001
1000
0001
0100
0010
1000
0010
1000
0001
0100
0001
1000
0010
0100
0001
,
1000
0001
1000
0100
1000
0001
0010
0100
1000
0001
0010
0001
0010
0100
1000
0001
,
1000
0001
0100
0010
0100
0001
1000
0010
0100
0001
1000
0001
1000
0010
0100
0010
,
1000
0001
1000
0001
0010
0100
1000
0001
0010
0100
0010
0001
1000
0100
0010
0001
,
1000
0001
1111
2000
,
3000
0000
0000
0000
0001
1000
0001
0100
0010
0100
0001
1000
0010
0100
0001
1000
,
0001
1000
0010
0100
0001
0100
0001
1000
0010
1000
0001
0100
0010
0100
0001
1000
,
0001
1000
0100
0010
0001
0010
0100
1000
0001
1000
0001
0010
0100
0010
0001
1000
,
0200
0000
0300
0000
,
1000
0001
1000
0100
0010
0001
0010
0100
1000
0001
1000
0001
0010
0100
0010
0001
,
1000
0001
1000
0010
0100
0001
1000
0010
1000
0010
0100
0001
1000
0010
0100
0001
,
1000
0002
0023
0230
,
2300
3000
2000
3000
0002
0000
0203
0000
,
0320
0000
2030
3000
1001
0000
0001
0000
,
0010
0010
1100
1000
,
0001
0001
0110
1000
,
0010
0010
0100
0001
,
0010
0100
1100
1000
,
0001
0001
1010
0010
,
0100
0100
1001
1000
,
0200
0000
0000
0310
0001
0000
1000
0000
,
0010
0010
0101
0001
,
1000
1000
0110
0001
,
1000
1000
1100
1000
,
0001
0001
1010
0010
,
0100
0100
1001
1000
,
0100
0100
0011
0001
,
1000
1000
1010
0001
,
0200
0320
2030
3200
,
0320
0030
0000
0000
,
0022
0000
0000
0033
,
2002
0000
0000
0000
,
3003
1000
1000
0020
,
0000
0130
0001
2000
,
0000
3200
0000
0320
,
0000
0032
0000
0003
,
0000
1000
1000
0020
,
0000
1030
0100
0020
,
0000
0032
0000
0203
,
0000
0320
0000
0030
,
0000
1000
1000
0200
,
0000
0310
0001
2000
,
0000
3020
0000
0130
,
0000
0100
0000
0002
,
2003
3200
0320
0032
,
2003
3000
0000
0000
,
2020
0000
0000
3030
,
2002
0000
0000
0000
,
3003
0001
0001
0020
,
0000
0130
1000
0002
,
0000
0203
0000
0320
,
0000
2030
0000
3000
,
0000
0001
0001
0020
,
0000
0031
0100
0020
,
0000
2030
0000
3200
,
0000
0320
0000
0030
,
0000
0001
0001
0200
,
0000
0310
1000
0002
,
0000
0023
0000
0230
,
0300
0200
2300
3002
,
0203
0300
0200
0300
0020
0000
2030
0000
,
3001
0010
0100
0000
1000
0000
0001
0000
,
0100
0100
0010
1000
,
0100
0100
0010
0001
,
1000
1000
0010
0100
,
0002
0000
0013
0100
,
1000
1000
0001
0100
,
0010
0010
1000
0001
,
0020
0000
0000
0130
1000
0000
0001
0000
,
0100
0100
0010
1000
,
0001
0001
0010
0100
,
1000
1000
0001
0001
,
0100
0100
0010
1000
,
0100
0100
0010
0001
,
1000
1000
0010
0100
,
0001
0001
1000
1000
,
0001
0001
1000
1000
,
0001
1000
0001
1000
0100
0010
0001
0010
0001
1000
0001
1000
0100
0010
0001
0010
,
0001
1000
0001
1000
0010
0100
0001
0100
0001
1000
0001
1000
0010
0100
0001
0100
,
0001
1000
0100
1000
0100
0010
0001
1000
0100
0010
0100
1000
0002
0003
0000
0000
,
2000
3000
0000
0000
0002
0003
0000
0000
2000
3000
0000
0000
0002
0003
0000
0000
,
1000
0001
1000
0001
0100
0010
1000
0010
1000
0001
1000
0001
0100
0010
1000
0010
,
1000
0001
1000
0001
0010
0100
1000
0100
1000
0001
1000
0001
0010
0100
1000
0100
,
1000
0001
0100
0001
0100
0010
1000
0001
0100
0010
0100
0001
2000
3000
0000
0000
,
0002
0003
0000
0000
2000
3000
0000
0000
0002
0003
0000
0000
2000
3000
0000
0000
,
0001
1000
0001
1000
0010
0100
0001
0100
0001
1000
0001
1000
0010
0100
0001
0100
,
0001
1000
0001
1000
0100
0010
0001
0010
0001
1000
0001
1000
0100
0010
0001
0010
,
0001
1000
0010
1000
0010
0100
0001
1000
0010
0100
0010
1000
0002
0003
0000
0000
,
2000
3000
0000
0000
0002
0003
0000
0000
2000
3000
0000
0000
0002
0003
0000
0000
,
1000
0001
1000
0001
0010
0100
1000
0100
1000
0001
1000
0001
0010
0100
1000
0100
,
1000
0001
1000
0001
0100
0010
1000
0010
1000
0001
1000
0001
0100
0010
1000
0010
,
1000
0001
0010
0001
0010
0100
1000
0001
0010
0100
0010
0001
2000
3000
0000
0000
,
0002
0003
0000
0000
2000
3000
0000
0000
0002
0003
0000
0000
2000
3000
0000
0000
,
0001
0100
0001
0100
0010
0000
1000
0000
,
0001
0010
0001
0010
0100
0000
1000
0000
,
0001
0100
0001
0100
0010
0000
1000
0000
,
0100
0010
0100
0010
0001
0000
0001
0000
,
1000
0010
1000
0010
0100
0000
0001
0000
,
1000
0100
1000
0100
0010
0000
0001
0000
,
1000
0010
1000
0010
0100
0000
0001
0000
,
0010
0100
0010
0100
1000
0000
1000
0000
,
0001
0001
0101
0001
,
1000
1000
1100
0000
,
1000
0001
1000
0001
,
0100
0000
0100
0000
,
0010
1000
0010
1000
,
0100
0010
0010
0010
,
0001
1000
0001
1000
,
0010
0200
0302
0023
,
0130
0010
0011
0001
,
0200
0310
1010
1000
,
0002
0013
0110
0100
,
1000
0001
0101
0100
,
0010
1000
1001
0001
,
0010
0100
1100
1000
,
0010
0100
0101
0001
,
1000
0100
0110
0010
,
0001
1000
1010
0010
,
0100
0001
1001
1000
,
0100
0010
0011
0001
,
0100
0010
1010
1000
,
0100
0010
0011
0001
,
1000
0010
0110
0100
,
0001
1000
1100
0100
,
0010
0001
1001
1000
,
0010
0100
0101
0001
,
0020
0130
1100
1000
,
0002
0103
0110
0010
,
1000
0001
0011
0010
,
0100
1000
1001
0001
,
0100
0010
1010
1000
,
0100
0010
0011
0001
,
1000
0010
0110
0100
,
0001
1000
1100
0100
,
0010
0001
1001
1000
,
0010
0100
0101
0001
,
0010
0100
1100
1000
,
0010
0100
0101
0001
,
1000
0100
0110
0010
,
0001
1000
1010
0010
,
0100
0001
0011
0010
,
0200
0000
0000
0000
,
2300
0000
0000
0000
,
0002
0000
0000
0000
,
0000
3003
0000
0000
;

//---------------dance-single - Gazebo----------------
#NOTES:
     dance-single:
     Gazebo:
     Hard:
     16:
     1.000,1.000,0.093,0.536,1.000,1918.000,24.000,139.000,4.000,0.000:
0000
0000
0000
0000
,
0000
0000
0000
0000
,
0000
0000
0000
0000
,
0000
0000
0000
0000
,
0000
0000
0000
0000
,
0000
0000
0000
0000
,
0000
0000
0000
0000
,
0000
0000
0000
0000
,
0000
0000
0000
0000
,
0000
0000
0000
0000
,
0000
0000
0000
0000
,
0000
0000
0000
0000
,
0000
0000
0000
0000
,
0000
0000
0000
0000
,
0000
0000
0000
0000
,
0000
0000
0000
0000
,
0010
0000
0010
0000
,
0010
0000
0010
0000
,
1000
0000
1000
0000
,
0001
0000
0001
0000
,
1000
0000
1000
0000
,
1000
0000
1000
0000
,
1000
0000
1000
0000
,
1000
0000
1000
0000
,
0001
0000
0001
0000
,
0001
0000
0001
0000
,
0001
0000
0001
0000
,
0001
0000
0001
0000
,
0100
0000
0100
0000
,
0100
0000
0100
0000
,
0100
0000
0100
0000
,
0020
2030
3200
0320
,
0032
1003
0001
1000
,
0001
1000
0001
1000
,
0010
1000
0010
1000
,
0100
0000
0000
0000
0020
0030
0000
0000
0020
0030
0000
0000
0002
0000
0000
0000
,
1003
0020
0230
0302
,
1003
0200
0310
0002
,
0013
0200
1300
0001
,
1000
0000
0000
0000
0200
0300
0000
0000
0200
0300
0000
0000
0020
0000
0000
0000
,
0031
2000
3020
0230
,
0301
2000
3001
0020
,
0130
2000
3001
0010
,
0001
0000
0000
0000
2000
3000
0000
0000
2000
3000
0000
0000
0020
0000
0000
0000
,
0130
0002
2003
3200
,
0310
0002
1003
0020
,
1030
0020
1030
0200
,
0320
0032
0203
0320
,
2030
3001
1000
0001
,
1000
0001
1000
0001
,
0100
0001
0100
0001
,
0010
0000
0000
0000
0200
0300
0000
0000
0200
0300
0000
0000
2000
0000
0000
0000
,
3001
0200
0320
2030
,
3001
0020
0130
2000
,
3100
0020
0031
1000
,
0001
0000
0000
0000
0020
0030
0000
0000
0020
0030
0000
0000
0200
0000
0000
0000
,
1300
0002
0203
0320
,
1030
0002
1003
0200
,
0310
0002
1003
0100
,
1000
0000
0000
0000
0002
0003
0000
0000
0002
0003
0000
0000
0200
0000
0000
0000
,
0310
2000
3002
0023
,
0130
2000
3001
0200
,
0301
0200
0301
0020
,
0230
2300
3002
0203
,
0310
0100
0101
0001
,
0020
0130
1100
1000
,
0002
0103
0110
0010
,
1000
0001
0011
0010
,
0100
1000
1001
0001
,
0100
0010
1010
1000
,
0100
0010
0011
0001
,
1000
0010
0110
0100
,
0001
1000
1100
0100
,
0010
0001
1001
1000
,
0010
0100
0101
0001
,
0010
0100
1100
1000
,
0010
0100
0101
0001
,
1000
0100
0110
0010
,
0001
1000
1010
0010
,
0100
0001
1001
1000
,
0001
0010
0001
0000
1000
0100
1000
0000
,
0001
0010
0001
0000
1000
0100
1000
0000
,
0001
0100
0001
0000
1000
0010
1000
0000
,
0010
0100
0010
0000
0100
0001
0100
0000
,
0001
1000
0001
0000
1000
0100
1000
0000
,
0001
1000
0001
0000
1000
0100
1000
0000
,
0001
1000
0001
0000
1000
0100
1000
0000
,
0001
1000
0001
0000
1000
0100
1000
0000
,
0010
0100
0010
0000
0100
0001
0100
0000
,
0010
1000
0010
0000
1000
0001
1000
0000
,
0010
0100
0010
0000
0100
0001
0100
0000
,
0010
1000
0010
0000
1000
0001
1000
0000
,
0100
0010
0100
0000
0010
0001
0010
0000
,
0001
1000
0001
0000
1000
0100
1000
0000
,
0001
0010
0001
0000
0001
0010
0001
0000
,
1000
0010
0010
0010
,
1000
0010
1000
0001
0010
0001
1000
0100
1000
0001
0010
0001
,
1000
0010
0100
0001
0100
0001
1000
0010
1000
0100
1000
0001
,
0010
0001
1000
0010
1000
0001
0100
0001
1000
0010
1000
0001
,
1000
0100
0010
0001
0010
0100
1000
0001
1000
0010
1000
0001
,
1000
0100
1000
0001
0100
0001
1000
0010
1000
0001
0100
0001
,
0010
0100
1000
0001
0010
0001
1000
0100
1000
0010
1000
0001
,
0100
0001
1000
0100
1000
0001
0010
0001
1000
0100
1000
0001
,
1000
0010
0100
0001
0100
0010
1000
0001
1000
0100
1000
0001
,
1000
0010
1000
0001
0010
0001
1000
0100
1000
0001
0010
0001
,
1000
0010
0100
0001
1000
0100
0010
0001
1000
0010
1000
0001
,
0100
0001
1000
0100
1000
0001
0010
0001
1000
0100
1000
0001
,
1000
0010
0100
0001
0100
0010
1000
0001
1000
0100
1000
0001
,
1000
0010
1000
0001
0010
0001
1000
0100
1000
0001
0010
0001
,
1000
0010
1000
0001
0100
0001
1000
0010
1000
0100
1000
0001
,
1000
0001
0001
0001
,
MMMM
0000
1001
0002
,
1003
0010
1000
0010
0100
0001
1000
0001
1000
0100
0010
0001
,
0010
0001
1000
0010
1000
0001
0100
0001
1000
0100
0010
0001
,
0010
0001
1000
0010
1000
0001
0100
0001
1000
0100
0010
0001
,
0100
0010
1000
0001
0100
0001
1000
0010
1000
0100
0010
0001
,
0010
0001
1000
0010
1000
0001
0100
0001
1000
0100
0010
0001
,
0010
0001
1000
0010
1000
0001
0100
0001
1000
0100
1000
0100
,
0010
0001
1000
0010
1000
0001
0100
0001
1000
0100
0010
0001
,
0100
0010
1000
0001
0100
0001
1000
0010
1000
0100
0010
0100
,
0010
0001
1000
0001
1000
0100
1000
0001
0100
0010
0100
0010
,
1000
0001
0010
0001
1000
0100
1000
0001
0100
0010
0100
0010
,
1000
0001
0010
0001
1000
0100
1000
0001
0100
0010
0100
0010
,
1000
0001
0100
0001
1000
0010
1000
0001
0010
0001
0010
0100
,
1000
0001
0100
0001
1000
0010
1000
0001
0010
0001
0010
0100
,
1000
0001
0100
0001
1000
0010
1000
0001
0010
0001
1000
0100
,
1000
0001
0100
0001
1000
0010
1000
0100
1000
0001
0000
0000
,
0001
0001
0001
0001
,
1000
0100
0010
0001
0100
0001
1000
0010
1000
0001
0100
0001
,
1000
0100
1000
0100
0010
0001
1000
0100
1000
0010
1000
0001
,
0100
0001
0100
0010
1000
0001
0010
0100
1000
0010
1000
0001
,
0100
0001
1000
0001
1000
0100
0010
0001
0010
0100
1000
0001
,
1000
0010
0100
0001
0010
0001
1000
0100
1000
0001
0010
0001
,
1000
0010
0100
0001
1000
0100
0010
0001
1000
0010
1000
0001
,
0100
0001
1000
0010
1000
0001
0010
0001
1000
0100
1000
0001
,
1000
0001
1001
0002
,
0003
0000
0000
1000
0010
1000
0001
0100
0001
1000
0100
0010
,
0001
0010
0100
1000
0001
1000
0001
0010
0001
1000
0010
1000
,
0001
0100
0001
0010
0001
1000
0100
1000
0001
0100
0001
0010
,
0200
0000
0300
0000
,
1000
0100
0010
0001
0100
0001
1000
0010
1000
0001
0100
0001
,
0010
0100
1000
0100
0010
0001
1000
0001
1000
0010
0100
0001
,
1000
0002
0023
0230
,
1300
1000
0002
0203
,
0310
1000
0010
1000
0100
0010
0001
1000
0001
0100
0010
1000
,
0001
0010
0001
1000
0100
1000
0001
0100
0010
1000
0100
1000
,
0001
0100
0001
1000
0010
1000
0001
0010
0100
1000
0010
1000
,
0001
0010
0001
1000
0100
1000
0001
0100
0001
0010
0100
1000
,
0001
0100
0001
0100
0010
1000
0001
1000
0001
0010
0100
1000
,
0001
0100
0001
1000
0010
1000
0001
0010
0100
1000
0010
1000
,
0001
0010
0001
1000
0100
1000
0001
1000
0001
0100
0010
0100
,
0001
1000
0100
1000
0001
1000
0010
0100
0001
0010
0100
1000
,
0001
0010
0001
1000
0100
1000
0001
0100
0010
1000
0100
1000
,
0001
0100
0001
1000
0010
1000
0001
0010
0100
1000
0010
1000
,
0001
0010
0001
1000
0100
1000
0001
0010
0001
1000
0100
1000
,
0001
0100
0001
1000
0010
1000
0001
0010
0100
1000
0010
1000
,
0001
0010
0001
1000
0100
1000
0001
0100
0010
1000
0100
1000
,
0001
0100
0001
1000
0010
1000
0001
0010
0100
1000
0010
1000
,
0001
0010
0001
1000
0100
1000
0001
1000
0010
0200
0000
0000
,
0302
0203
0302
0023
,
0230
0300
0000
0000
,
2200
0000
0000
3300
,
2002
0000
0000
0000
,
3003
1000
1000
0020
,
0000
0130
0001
2000
,
0000
3200
0000
0320
,
0000
0032
0000
0003
,
0000
1000
1000
0020
,
0000
1030
0100
0020
,
0000
0032
0000
0203
,
0000
0320
0000
0030
,
0000
1000
1000
0200
,
0000
0310
0001
2000
,
0000
3020
0000
0130
,
0000
0100
0000
0002
,
2003
3200
0320
0032
,
2003
3000
0000
0000
,
2020
0000
0000
3030
,
2002
0000
0000
0000
,
3003
0001
0001
0020
,
0000
0130
1000
0002
,
0000
0203
0000
0320
,
0000
2030
0000
3000
,
0000
0001
0001
0020
,
0000
0031
0100
0020
,
0000
2030
0000
3200
,
0000
0320
0000
0030
,
0000
0001
0001
0200
,
0000
0310
1000
0002
,
0000
0023
0000
0230
,
0300
0200
2300
3002
,
0203
0300
0200
0300
0020
0000
2030
0000
,
3001
0010
0100
0000
1000
0000
0001
0000
,
0100
0100
0010
1000
,
0100
0100
0010
0001
,
1000
1000
0010
0100
,
0002
0000
0013
0100
,
1000
1000
0001
0100
,
0010
0010
1000
0001
,
0020
0000
0000
0130
1000
0000
0001
0000
,
0100
0100
0010
1000
,
0001
0001
0010
0100
,
1000
1000
0001
0001
,
0100
0100
0010
1000
,
0100
0100
0010
0001
,
1000
1000
0010
0100
,
0001
0001
1000
1000
,
0001
0011
1000
1100
,
0001
0010
0001
1000
0100
1000
0001
0100
0001
0100
0010
1000
,
0001
0010
0001
1000
0100
1000
0001
0100
0001
0100
0010
1000
,
0001
0010
0001
1000
0100
1000
0001
0100
0001
1000
0010
1000
,
0100
0010
0100
1000
0010
1000
0100
0010
0100
1000
0010
1000
,
0001
0100
0001
1000
0010
1000
0001
0010
0001
0010
0100
1000
,
0001
0100
0001
1000
0010
1000
0001
0010
0001
0010
0100
1000
,
0001
0100
0001
1000
0010
1000
0001
0010
0001
1000
0100
1000
,
0010
0100
0010
1000
0100
1000
0010
0100
0010
1000
0100
1000
,
0001
0010
0001
1000
0100
1000
0001
0100
0001
0100
0010
1000
,
0001
0010
0001
1000
0100
1000
0001
0100
0001
0100
0010
1000
,
0001
0010
0001
1000
0100
1000
0001
0100
0001
1000
0010
1000
,
0100
0010
0100
1000
0010
1000
0100
0010
0100
1000
0010
1000
,
0001
0100
0001
1000
0010
1000
0001
0010
0001
0010
0100
1000
,
0001
0100
0001
1000
0010
1000
0001
0010
0001
0010
0100
1000
,
0001
0100
0001
1000
0010
1000
0001
0010
0001
1000
0100
1000
,
0010
0100
0010
1000
0100
1000
0010
0100
0010
1000
0100
1000
,
0001
0010
0001
1000
0001
0010
0001
1000
0010
0100
0001
1000
,
0001
0010
0001
1000
0001
0010
0001
1000
0010
0100
0001
1000
,
0001
0010
0001
1000
0001
0010
0001
0100
0010
1000
0100
1000
,
0001
0100
0001
1000
0001
0100
0001
0010
0100
0010
0100
1000
,
0001
0100
0001
1000
0001
0100
0001
1000
0100
0010
0001
1000
,
0001
0100
0001
1000
0001
0100
0001
1000
0100
0010
0001
1000
,
0001
0100
0001
1000
0001
0100
0001
0010
0100
1000
0010
1000
,
0001
0010
0001
1000
0001
0010
0001
0100
0010
0100
0010
1000
,
0001
0010
0001
1000
0100
1000
0001
0100
0001
1000
0010
1000
,
0001
0010
0001
1000
0100
1000
0001
0100
0001
0100
0010
1000
,
0001
0100
0001
0010
0001
1000
0100
1000
0010
1000
0001
0100
,
0001
0010
0100
1000
0100
1000
0001
0010
0100
1000
0100
1000
,
0001
0010
0001
0100
0001
1000
0010
1000
0100
1000
0001
1000
,
0001
0100
0001
0010
0100
0010
0001
0100
0001
0010
0100
0010
,
0001
1000
0001
0100
0001
1000
0010
1000
0100
1000
0001
0010
,
0001
0100
0010
1000
0001
0010
0001
1000
0001
0100
0010
1000
,
0001
0010
0100
1000
0100
1000
0001
0010
0100
1000
0100
1000
,
0010
0100
0001
0100
0010
0100
0001
0100
0010
0100
0001
1000
,
0100
0010
0001
0010
0100
0010
0001
0010
0100
0010
0001
0010
,
0100
1000
0001
0100
0001
1000
0010
1000
0001
0010
0100
1000
,
0100
0010
0001
1000
0010
1000
0001
0100
0001
1000
0100
1000
,
0100
0010
0001
1000
0010
1000
0010
0100
0001
0010
0100
0010
,
0100
1000
0001
0100
0001
0100
0010
1000
0001
1000
0001
0100
,
0001
1000
0010
1000
0100
1000
0001
0010
0001
0100
0010
1000
,
0010
0100
0001
1000
0100
1000
0001
0010
0001
1000
0010
1000
,
0010
0100
0001
1000
0100
1000
0100
0010
0001
0100
0010
0100
,
0010
1000
0001
0010
0001
0010
0100
1000
0001
1000
0001
0010
,
0001
1000
0100
1000
0010
1000
0001
0100
0001
1000
0100
1000
,
0100
0010
0001
1000
0010
1000
0010
0100
0001
0010
0100
0010
,
0100
1000
0001
0100
0001
0100
0010
1000
0001
0010
0001
0010
,
0100
1000
0001
0010
0001
0010
0100
1000
0001
0100
0001
1000
,
0010
1000
0100
1000
0001
0010
0001
1000
0100
1000
0010
1000
,
0001
0100
0010
1000
0010
1000
0001
0100
0010
1000
0010
1000
,
0100
0010
0001
0010
0100
0010
0001
0010
0100
0010
0001
1000
,
0010
0100
0001
0100
0010
0100
0001
0100
0010
0100
0001
0100
,
0010
1000
0001
0010
0001
1000
0100
1000
0001
0100
0010
1000
,
0010
0100
0001
1000
0100
1000
0001
0010
0001
1000
0010
1000
,
0010
0100
0001
1000
0100
1000
0100
0010
0001
0100
0010
0100
,
0010
1000
0001
0010
0001
0010
0100
1000
0001
1000
0001
0010
,
0001
1000
0100
1000
0010
1000
0001
0100
0001
0010
0100
1000
,
0100
0010
0001
1000
0010
1000
0001
0100
0001
1000
0100
1000
,
0100
0010
0001
1000
0010
1000
0010
0100
0001
0010
0100
0010
,
0100
1000
0001
0100
0001
0100
0010
1000
0001
1000
0001
0100
,
0001
1000
0010
1000
0100
1000
0001
0010
0001
1000
0010
1000
,
0010
0100
0001
1000
0100
1000
0100
0010
0001
0100
0010
0100
,
0010
1000
0001
0010
0001
0010
0100
1000
0001
0100
0001
0100
,
0010
1000
0001
0100
0001
0100
0010
1000
0001
0010
0001
1000
,
0100
1000
0010
1000
0001
0100
0001
1000
0010
1000
0100
1000
,
0002
0000
0000
0000
,
0203
0000
0000
0000
,
0320
0000
0000
0000
,
0000
0030
0000
0000
;

//---------------dance-single - Gazebo----------------
#NOTES:
     dance-single:
     Gazebo:
     Medium:
     13:
     0.844,1.000,0.274,0.733,0.567,1271.000,71.000,190.000,4.000,0.000:
0000
0000
0000
0000
,
0000
0000
0000
0000
,
0000
0000
0000
0000
,
0000
0000
0000
0000
,
0000
0000
0000
0000
,
0000
0000
0000
0000
,
0000
0000
0000
0000
,
0000
0000
0000
0000
,
0000
0000
0000
0000
,
0000
0000
0000
0000
,
0000
0000
0000
0000
,
0000
0000
0000
0000
,
0000
0000
0000
0000
,
0000
0000
0000
0000
,
0000
0000
0000
0000
,
0000
0000
0000
0000
,
0010
0000
0010
0000
,
0010
0000
0010
0000
,
1000
0000
1000
0000
,
0001
0000
0001
0000
,
1000
0000
1000
0000
,
1000
0000
1000
0000
,
1000
0000
1000
0000
,
1000
0000
1000
0000
,
0001
0000
0001
0000
,
0001
0000
0001
0000
,
0001
0000
0001
0000
,
0001
0000
0001
0000
,
0100
0000
0100
0000
,
0100
0000
0100
0000
,
0100
0000
0100
0000
,
0020
2030
3200
0320
,
0032
1003
0001
1000
,
0001
1000
0001
1000
,
0010
1000
0010
1000
,
0100
0000
0000
0000
0020
0030
0000
0000
0020
0030
0000
0000
0002
0000
0000
0000
,
1003
0020
0230
0302
,
1003
0200
0310
0002
,
0013
0200
1300
0001
,
1000
0000
0000
0000
0200
0300
0000
0000
0200
0300
0000
0000
0020
0000
0000
0000
,
0031
2000
3020
0230
,
0301
2000
3001
0020
,
0130
2000
3001
0010
,
0001
0000
0000
0000
2000
3000
0000
0000
2000
3000
0000
0000
0020
0000
0000
0000
,
0130
0002
2003
3200
,
0310
0002
1003
0020
,
1030
0020
1030
0200
,
0320
0032
0203
0320
,
2030
3001
1000
0001
,
1000
0001
1000
0001
,
0100
0001
0100
0001
,
0010
0000
0000
0000
0200
0300
0000
0000
0200
0300
0000
0000
2000
0000
0000
0000
,
3001
0200
0320
2030
,
3001
0020
0130
2000
,
3100
0020
0031
1000
,
0001
0000
0000
0000
0020
0030
0000
0000
0020
0030
0000
0000
0200
0000
0000
0000
,
1300
0002
0203
0320
,
1030
0002
1003
0200
,
0310
0002
1003
0100
,
1000
0000
0000
0000
0002
0003
0000
0000
0002
0003
0000
0000
0200
0000
0000
0000
,
0310
2000
3002
0023
,
0130
2000
3001
0200
,
0301
0200
0301
0020
,
0230
2300
3002
0203
,
0310
0100
0101
0001
,
0020
0130
1100
1000
,
0002
0103
0110
0010
,
1000
0001
0011
0010
,
0100
1000
1001
0001
,
0100
0010
1010
1000
,
0100
0010
0011
0001
,
1000
0010
0110
0100
,
0001
1000
1100
0100
,
0010
0001
1001
1000
,
0010
0100
0101
0001
,
0010
0100
1100
1000
,
0010
0100
0101
0001
,
1000
0100
0110
0010
,
0001
1000
1010
0010
,
0100
0001
1001
1000
,
0001
0010
0001
0000
1000
0100
1000
0000
,
0001
0010
0001
0000
1000
0100
1000
0000
,
0001
0100
0001
0000
1000
0010
1000
0000
,
0010
0100
0010
0000
0100
0001
0100
0000
,
0001
1000
0001
0000
1000
0100
1000
0000
,
0001
1000
0001
0000
1000
0100
1000
0000
,
0001
1000
0001
0000
1000
0100
1000
0000
,
0001
1000
0001
0000
1000
0100
1000
0000
,
0010
0100
0010
0000
0100
0001
0100
0000
,
0010
1000
0010
0000
1000
0001
1000
0000
,
0010
0100
0010
0000
0100
0001
0100
0000
,
0010
1000
0010
0000
1000
0001
1000
0000
,
0100
0010
0100
0000
0010
0001
0010
0000
,
0001
1000
0001
0000
1000
0100
1000
0000
,
0001
0010
0001
0000
0001
0010
0001
0000
,
1000
0010
0010
0010
,
1000
0010
1000
0001
0010
0001
1000
0100
1000
0001
0010
0001
,
1000
0010
0100
0001
0100
0001
1000
0010
1000
0100
1000
0001
,
0010
0001
1000
0010
1000
0001
0100
0001
1000
0010
1000
0001
,
1000
0100
0010
0001
0010
0100
1000
0001
1000
0010
1000
0001
,
1000
0100
1000
0001
0100
0001
1000
0010
1000
0001
0100
0001
,
0010
0100
1000
0001
0010
0001
1000
0100
1000
0010
1000
0001
,
0100
0001
1000
0100
1000
0001
0010
0001
1000
0100
1000
0001
,
1000
0010
0100
0001
0100
0010
1000
0001
1000
0100
1000
0001
,
1000
0010
1000
0001
0010
0001
1000
0100
1000
0001
0010
0001
,
1000
0010
0100
0001
1000
0100
0010
0001
1000
0010
1000
0001
,
0100
0001
1000
0100
1000
0001
0010
0001
1000
0100
1000
0001
,
1000
0010
0100
0001
0100
0010
1000
0001
1000
0100
1000
0001
,
1000
0010
1000
0001
0010
0001
1000
0100
1000
0001
0010
0001
,
1000
0010
1000
0001
0100
0001
1000
0010
1000
0100
1000
0001
,
1000
0001
0001
0001
,
MMMM
0000
1001
0002
,
1003
0100
1000
0020
,
0130
0002
2003
3020
,
0130
0002
2003
3200
,
0310
0000
0002
0003
0002
0003
2000
0000
,
3010
0200
0302
2003
,
3010
0200
0302
0203
,
0310
2000
3002
0023
,
0130
1000
0002
0203
,
0301
1000
0001
0200
,
0310
2000
3002
0203
,
0310
2000
3002
0203
,
0310
0000
2000
3000
2000
3000
0002
0000
,
0013
0200
1300
0002
,
0013
0000
0200
0000
2300
0000
3002
0003
,
0002
0003
2000
0000
3020
0000
0230
0000
,
0301
0001
0001
0001
,
1000
0100
0010
0001
0100
0001
1000
0010
1000
0001
0100
0001
,
1000
0100
1000
0100
0010
0001
1000
0100
1000
0010
1000
0001
,
0100
0001
0100
0010
1000
0001
0010
0100
1000
0010
1000
0001
,
0100
0001
1000
0001
1000
0100
0010
0001
0010
0100
1000
0001
,
1000
0010
0100
0001
0010
0001
1000
0100
1000
0001
0010
0001
,
1000
0010
0100
0001
1000
0100
0010
0001
1000
0010
1000
0001
,
0100
0001
1000
0010
1000
0001
0010
0001
1000
0100
1000
0001
,
1000
0001
1001
0002
,
0003
0000
0000
1000
0010
1000
0001
0100
0001
1000
0100
0010
,
0001
0010
0100
1000
0001
1000
0001
0010
0001
1000
0010
1000
,
0001
0100
0001
0010
0001
1000
0100
1000
0001
0100
0001
0010
,
0200
0000
0300
0000
,
1000
0100
0010
0001
0100
0001
1000
0010
1000
0001
0100
0001
,
0010
0100
1000
0100
0010
0001
1000
0001
1000
0010
0100
0001
,
1000
0002
0023
0230
,
2300
3000
2000
3000
0002
0000
0203
0000
,
0320
0000
2030
3000
1001
0000
0001
0000
,
0010
0010
1100
1000
,
0001
0001
0110
1000
,
0010
0010
0100
0001
,
0010
0100
1100
1000
,
0001
0001
1010
0010
,
0100
0100
1001
1000
,
0200
0000
0000
0310
0001
0000
1000
0000
,
0010
0010
0101
0001
,
1000
1000
0110
0001
,
1000
1000
1100
1000
,
0001
0001
1010
0010
,
0100
0100
1001
1000
,
0100
0100
0011
0001
,
1000
1000
1010
0001
,
0200
0320
2030
3200
,
0320
0030
0000
0000
,
0022
0000
0000
0033
,
2002
0000
0000
0000
,
3003
1000
1000
0020
,
0000
0130
0001
2000
,
0000
3200
0000
0320
,
0000
0032
0000
0003
,
0000
1000
1000
0020
,
0000
1030
0100
0020
,
0000
0032
0000
0203
,
0000
0320
0000
0030
,
0000
1000
1000
0200
,
0000
0310
0001
2000
,
0000
3020
0000
0130
,
0000
0100
0000
0002
,
2003
3200
0320
0032
,
2003
3000
0000
0000
,
2020
0000
0000
3030
,
2002
0000
0000
0000
,
3003
0001
0001
0020
,
0000
0130
1000
0002
,
0000
0203
0000
0320
,
0000
2030
0000
3000
,
0000
0001
0001
0020
,
0000
0031
0100
0020
,
0000
2030
0000
3200
,
0000
0320
0000
0030
,
0000
0001
0001
0200
,
0000
0310
1000
0002
,
0000
0023
0000
0230
,
0300
0200
2300
3002
,
0203
0300
0200
0300
0020
0000
2030
0000
,
3001
0010
0100
0000
1000
0000
0001
0000
,
0100
0100
0010
1000
,
0100
0100
0010
0001
,
1000
1000
0010
0100
,
0002
0000
0013
0100
,
1000
1000
0001
0100
,
0010
0010
1000
0001
,
0020
0000
0000
0130
1000
0000
0001
0000
,
0100
0100
0010
1000
,
0001
0001
0010
0100
,
1000
1000
0001
0001
,
0100
0100
0010
1000
,
0100
0100
0010
0001
,
1000
1000
0010
0100
,
0001
0001
1000
1000
,
0001
0011
1000
1100
,
0001
0010
0001
1000
0100
1000
0001
0100
0001
0100
0010
1000
,
0001
0010
0001
1000
0100
1000
0001
0100
0001
0100
0010
1000
,
0001
0010
0001
1000
0100
1000
0001
0100
0001
1000
0000
0000
,
0001
1000
0001
1000
,
0001
0100
0001
1000
0010
1000
0001
0010
0001
0010
0100
1000
,
0001
0100
0001
1000
0010
1000
0001
0010
0001
0010
0100
1000
,
0001
0100
0001
1000
0010
1000
0001
0010
0001
1000
0000
0000
,
0001
1000
0001
1000
,
0001
0010
0001
1000
0100
1000
0001
0100
0001
0100
0010
1000
,
0001
0010
0001
1000
0100
1000
0001
0100
0001
0100
0010
1000
,
0001
0010
0001
1000
0100
1000
0001
0100
0001
1000
0000
0000
,
0001
1000
0001
1000
,
0001
0100
0001
1000
0010
1000
0001
0010
0001
0010
0100
1000
,
0001
0100
0001
1000
0010
1000
0001
0010
0001
0010
0100
1000
,
0001
0100
0001
1000
0010
1000
0001
0010
0001
1000
0000
0000
,
0001
1000
0001
1000
,
0001
0100
0001
0100
0010
0000
1000
0000
,
0001
0010
0001
0010
0100
0000
1000
0000
,
0001
0100
0001
0100
0010
0000
1000
0000
,
0100
0010
0100
0010
0001
0000
0001
0000
,
1000
0010
1000
0010
0100
0000
0001
0000
,
1000
0100
1000
0100
0010
0000
0001
0000
,
1000
0010
1000
0010
0100
0000
0001
0000
,
0010
0100
0010
0100
1000
0000
1000
0000
,
0001
0001
0101
0001
,
1000
1000
1100
0000
,
1000
0001
1000
0001
,
0100
0000
0100
0000
,
0010
1000
0010
1000
,
0100
0010
0010
0010
,
0001
1000
0001
1000
,
0010
0200
0302
0023
,
0130
0010
0011
0001
,
0200
0310
1010
1000
,
0002
0013
0110
0100
,
1000
0001
0101
0100
,
0010
1000
1001
0001
,
0010
0100
1100
1000
,
0010
0100
0101
0001
,
1000
0100
0110
0010
,
0001
1000
1010
0010
,
0100
0001
1001
1000
,
0100
0010
0011
0001
,
0100
0010
1010
1000
,
0100
0010
0011
0001
,
1000
0010
0110
0100
,
0001
1000
1100
0100
,
0010
0001
1001
1000
,
0010
0100
0101
0001
,
0020
0130
1100
1000
,
0002
0103
0110
0010
,
1000
0001
0011
0010
,
0100
1000
1001
0001
,
0100
0010
1010
1000
,
0100
0010
0011
0001
,
1000
0010
0110
0100
,
0001
1000
1100
0100
,
0010
0001
1001
1000
,
0010
0100
0101
0001
,
0010
0100
1100
1000
,
0010
0100
0101
0001
,
1000
0100
0110
0010
,
0001
1000
1010
0010
,
0100
0001
0011
0010
,
0200
0000
0000
0000
,
2300
0000
0000
0000
,
0002
0000
0000
0000
,
0000
3003
0000
0000
;

//---------------dance-single - Gazebo----------------
#NOTES:
     dance-single:
     Gazebo:
     Easy:
     12:
     0.862,0.902,0.093,0.552,0.000,1398.000,24.000,143.000,0.000,0.000:

0000
0000
0000
0000
,
0000
0000
0000
0000
,
0000
0000
0000
0000
,
0000
0000
0000
0000
,
0000
0000
0000
0000
,
0000
0000
0000
0000
,
0000
0000
0000
0000
,
0000
0000
0000
0000
,
0000
0000
0000
0000
,
0000
0000
0000
0000
,
0000
0000
0000
0000
,
0000
0000
0000
0000
,
0000
0000
0000
0000
,
0000
0000
0000
0000
,
0000
0000
0000
0000
,
0000
0000
0000
0000
,
0010
0000
0010
0000
,
0010
0000
0010
0000
,
1000
0000
1000
0000
,
0001
0000
0001
0000
,
1000
0000
1000
0000
,
1000
0000
1000
0000
,
1000
0000
1000
0000
,
1000
0000
1000
0000
,
0001
0000
0001
0000
,
0001
0000
0001
0000
,
0001
0000
0001
0000
,
0001
0000
0001
0000
,
0100
0000
0100
0000
,
0100
0000
0100
0000
,
0100
0000
0100
0000
,
0020
2030
3200
0320
,
0032
1003
0001
1000
,
0001
1000
0001
1000
,
0010
1000
0010
1000
,
0100
0000
0000
0000
0020
0030
0000
0000
0020
0030
0000
0000
0002
0000
0000
0000
,
1003
0020
0230
0302
,
1003
0200
0310
0002
,
0013
0200
1300
0001
,
1000
0000
0000
0000
0200
0300
0000
0000
0200
0300
0000
0000
0020
0000
0000
0000
,
0031
2000
3020
0230
,
0301
2000
3001
0020
,
0130
2000
3001
0010
,
0001
0000
0000
0000
2000
3000
0000
0000
2000
3000
0000
0000
0020
0000
0000
0000
,
0130
0002
2003
3200
,
0310
0002
1003
0020
,
1030
0020
1030
0200
,
0320
0032
0203
0320
,
2030
3001
1000
0001
,
1000
0001
1000
0001
,
0100
0001
0100
0001
,
0010
0000
0000
0000
0200
0300
0000
0000
0200
0300
0000
0000
2000
0000
0000
0000
,
3001
0200
0320
2030
,
3001
0020
0130
2000
,
3100
0020
0031
1000
,
0001
0000
0000
0000
0020
0030
0000
0000
0020
0030
0000
0000
0200
0000
0000
0000
,
1300
0002
0203
0320
,
1030
0002
1003
0200
,
0310
0002
1003
0100
,
1000
0000
0000
0000
0002
0003
0000
0000
0002
0003
0000
0000
0200
0000
0000
0000
,
0310
2000
3002
0023
,
0130
2000
3001
0200
,
0301
0200
0301
0020
,
0230
2300
3002
0203
,
0310
0100
0101
0001
,
0020
0130
1100
1000
,
0002
0103
0110
0010
,
1000
0001
0011
0010
,
0100
1000
1001
0001
,
0100
0010
1010
1000
,
0100
0010
0011
0001
,
1000
0010
0110
0100
,
0001
1000
1100
0100
,
0010
0001
1001
1000
,
0010
0100
0101
0001
,
0010
0100
1100
1000
,
0010
0100
0101
0001
,
1000
0100
0110
0010
,
0001
1000
1010
0010
,
0100
0001
1001
1000
,
0001
0010
0001
0000
1000
0100
1000
0000
,
0001
0010
0001
0000
1000
0100
1000
0000
,
0001
0100
0001
0000
1000
0010
1000
0000
,
0010
0100
0010
0000
0100
0001
0100
0000
,
0001
1000
0001
0000
1000
0100
1000
0000
,
0001
1000
0001
0000
1000
0100
1000
0000
,
0001
1000
0001
0000
1000
0100
1000
0000
,
0001
1000
0001
0000
1000
0100
1000
0000
,
0010
0100
0010
0000
0100
0001
0100
0000
,
0010
1000
0010
0000
1000
0001
1000
0000
,
0010
0100
0010
0000
0100
0001
0100
0000
,
0010
1000
0010
0000
1000
0001
1000
0000
,
0100
0010
0100
0000
0010
0001
0010
0000
,
0001
1000
0001
0000
1000
0100
1000
0000
,
0001
0010
0001
0000
0001
0010
0001
0000
,
1000
0010
0010
0010
,
1000
0010
0100
0001
0010
0001
0100
0001
,
1000
0100
0010
0001
1000
0100
0010
0001
,
1000
0010
1000
0100
1000
0010
1000
0100
,
0010
0001
1000
0100
0010
0001
0100
0001
,
1000
0010
0100
0001
0010
0001
0100
0001
,
1000
0100
1000
0010
1000
0001
0010
0001
,
1000
0010
1000
0100
1000
0010
1000
0100
,
0010
0001
1000
0100
0010
0001
0100
0010
,
1000
0100
0010
0001
0100
0001
0010
0001
,
1000
0010
0100
0010
1000
0100
0010
0001
,
1000
0010
1000
0100
1000
0010
1000
0100
,
0010
0001
1000
0100
0010
0001
0100
0001
,
1000
0010
0100
0001
0010
0001
0100
0001
,
1000
0010
1000
0100
1000
0001
0100
0001
,
1000
0001
0001
0001
,
0000
0000
1001
2000
,
3001
0010
0001
0010
0001
1000
0010
0100
,
0010
0100
0001
0010
0100
1000
0010
0100
,
0010
0100
0001
0010
0100
1000
0100
1000
,
0001
0100
0010
1000
0010
1000
0100
0010
,
0100
0010
0001
1000
0010
1000
0100
0010
,
0100
0010
0001
1000
0010
1000
0001
0100
,
0001
0100
0010
1000
0001
1000
0001
0010
,
0100
1000
0100
0010
0001
1000
0010
1000
,
0010
0100
0001
0010
0001
1000
0010
1000
,
0010
0100
0001
0010
0001
1000
0010
1000
,
0010
0100
0001
0010
0001
1000
0010
1000
,
0001
1000
0001
0010
0001
0010
0100
1000
,
0100
1000
0001
0100
0010
1000
0100
1000
,
0100
1000
0001
0100
0010
1000
0100
1000
,
0100
1000
0001
0100
0010
1000
0001
0000
,
0001
0001
0001
0001
,
1000
0100
0010
0001
0010
0001
0010
0001
,
1000
0010
0100
0010
1000
0010
0100
0001
,
1000
0100
0010
0001
0100
0001
0010
0001
,
1000
0010
0100
0001
0100
0010
1000
0001
,
1000
0100
0010
0001
0010
0001
0010
0001
,
1000
0010
1000
0100
0010
0001
1000
0010
,
1000
0001
0100
0010
0100
0010
0100
0001
,
1000
0001
1001
2000
,
3000
0000
0001
0010
0001
0010
0001
0010
,
0100
1000
0010
1000
0001
0100
0001
0010
,
0001
1000
0010
1000
0100
1000
0010
1000
,
0200
0000
0300
0000
,
1000
0100
0010
0001
0010
0001
0010
0100
,
1000
0010
0100
0001
1000
0010
0100
0001
,
1000
0002
0023
0230
,
1300
1000
0002
0203
,
0310
1000
0100
0010
0001
1000
0010
1000
,
0100
1000
0100
1000
0001
0010
0100
0010
,
0001
0100
0001
0100
0001
1000
0010
1000
,
0100
1000
0100
1000
0001
0100
0001
0010
,
0001
1000
0010
0100
0001
1000
0100
1000
,
0010
1000
0010
1000
0001
0100
0010
0100
,
0001
0010
0001
0010
0001
1000
0100
1000
,
0001
0100
0001
0010
0100
1000
0010
1000
,
0001
0100
0001
0100
0001
1000
0010
1000
,
0100
1000
0100
1000
0001
0010
0100
0010
,
0001
0100
0001
0100
0010
1000
0010
1000
,
0100
1000
0100
1000
0001
0010
0100
0010
,
0001
0100
0001
0100
0001
1000
0010
1000
,
0100
1000
0100
1000
0001
0010
0100
0010
,
0001
0100
0001
0100
0001
1000
0200
0000
,
2300
3020
0230
0302
,
2003
3000
0000
0000
,
0022
0000
0000
0033
,
2002
0000
0000
0000
,
3003
1000
1000
0020
,
0000
0130
0001
2000
,
0000
3200
0000
0320
,
0000
0032
0000
0003
,
0000
1000
1000
0020
,
0000
1030
0100
0020
,
0000
0032
0000
0203
,
0000
0320
0000
0030
,
0000
1000
1000
0200
,
0000
0310
0001
2000
,
0000
3020
0000
0130
,
0000
0100
0000
0002
,
2003
3200
0320
0032
,
2003
3000
0000
0000
,
2020
0000
0000
3030
,
2002
0000
0000
0000
,
3003
0001
0001
0020
,
0000
0130
1000
0002
,
0000
0203
0000
0320
,
0000
2030
0000
3000
,
0000
0001
0001
0020
,
0000
0031
0100
0020
,
0000
2030
0000
3200
,
0000
0320
0000
0030
,
0000
0001
0001
0200
,
0000
0310
1000
0002
,
0000
0023
0000
0230
,
0300
0200
2300
3002
,
0203
0300
0200
0300
0020
0000
2030
0000
,
3001
0010
0100
0000
1000
0000
0001
0000
,
0100
0100
0010
1000
,
0100
0100
0010
0001
,
1000
1000
0010
0100
,
0002
0000
0013
0100
,
1000
1000
0001
0100
,
0010
0010
1000
0001
,
0020
0000
0000
0130
1000
0000
0001
0000
,
0100
0100
0010
1000
,
0001
0001
0010
0100
,
1000
1000
0001
0001
,
0100
0100
0010
1000
,
0100
0100
0010
0001
,
1000
1000
0010
0100
,
0001
0001
1000
1000
,
0001
0011
1000
1100
,
0001
0100
0010
0100
0001
0010
0100
1000
,
0001
0100
0010
0100
0001
0010
0100
1000
,
0001
0100
0001
1000
0001
0010
0100
0000
,
0100
0100
0100
0100
,
1000
0100
0010
0100
1000
0010
0100
0001
,
1000
0100
0010
0100
1000
0010
0100
0001
,
1000
0100
1000
0001
1000
0010
0100
0000
,
0100
0100
0100
0100
,
0001
0100
0010
0100
0001
0010
0100
1000
,
0001
0100
0010
0100
0001
0010
0100
1000
,
0001
0100
0001
1000
0001
0010
0100
0000
,
0100
0100
0100
0100
,
1000
0100
0010
0100
1000
0010
0100
0001
,
1000
0100
0010
0100
1000
0010
0100
0001
,
1000
0100
1000
0001
1000
0010
0100
0000
,
0100
0100
0100
0100
,
0001
0010
0001
0010
0100
0000
1000
0000
,
0001
0100
0001
0100
0010
0000
1000
0000
,
0001
0010
0001
0010
0100
0000
1000
0000
,
0010
0100
0010
0100
0002
0000
2003
0000
,
3001
0010
0001
0010
0100
0000
1000
0000
,
0001
0100
0001
0100
0010
0000
1000
0000
,
0001
0010
0001
0010
0100
0000
1000
0000
,
0010
0100
0010
0100
0002
0000
2003
0000
,
3001
0010
0100
0010
0001
0010
0100
0010
,
0001
1000
0010
1000
0001
0000
0000
0000
,
0100
0010
0100
0001
0100
0010
1000
0001
,
1000
0100
0010
0001
1000
0100
0010
0001
,
0100
0010
0100
0001
0100
0010
1000
0001
,
1000
0001
0001
0001
,
0100
0010
0100
0001
0100
0010
1000
0001
,
0010
0100
0010
0001
1000
0001
0100
0010
,
1000
0100
0010
0001
1000
0100
0010
0001
,
0100
0010
0100
0001
0100
0010
0100
0001
,
1000
0100
0010
0100
1000
0100
0010
0100
,
1000
0001
0100
0001
0100
0001
0010
0100
,
0010
0100
1000
0001
0100
0001
1000
0010
,
1000
0010
0100
0001
0100
0001
1000
0100
,
1000
0100
0010
0001
0010
0100
1000
0001
,
1000
0001
0100
0001
0100
0001
0010
0100
,
0010
0100
1000
0001
0100
0001
1000
0010
,
1000
0010
0100
0001
0100
0001
0010
0100
,
0010
0100
1000
0001
0100
0010
1000
0001
,
1000
0001
0010
0001
0010
0001
0100
0010
,
0100
0010
1000
0001
0010
0001
1000
0100
,
1000
0100
0010
0001
0010
0001
0100
0010
,
0100
0010
1000
0010
1000
0010
0100
0001
,
1000
0100
0010
0001
1000
0010
1000
0001
,
1000
0100
0010
0001
1000
0100
0010
0001
,
0100
0010
0100
0001
0100
0010
0100
0001
,
1000
0100
0010
0100
1000
0100
0010
0100
,
1000
0001
0100
0001
0100
0001
0010
0100
,
0010
0100
1000
0001
0100
0001
1000
0010
,
1000
0010
0100
0001
0100
0001
1000
0100
,
1000
0100
0010
0001
0010
0100
1000
0001
,
1000
0001
0100
0001
0100
0001
0010
0100
,
0010
0100
1000
0001
0100
0001
1000
0010
,
1000
0010
0100
0001
0100
0001
0010
0100
,
0010
0100
1000
0001
0100
0010
1000
0001
,
1000
0001
0010
0001
0010
0001
0100
0010
,
0100
0010
1000
0001
0010
0001
1000
0100
,
1000
0100
0010
0001
0010
0001
0100
0010
,
0100
0010
1000
0010
1000
0010
0100
0001
,
1000
0100
0010
0001
1000
0010
1000
0001
,
2000
0000
0000
0000
,
3200
0000
0000
0000
,
0320
0000
0000
0000
,
0000
0030
0000
0000
;
