#TITLE:BATTLE BREAKS;
#SUBTITLE:;
#ARTIST:DJ TAKAWO;
#TITLETRANSLIT:;
#SUBTITLETRANSLIT:;
#ARTISTTRANSLIT:;
#CREDIT:;
#BANNER:BATTLE BREAKS.png;
#BACKGROUND:BATTLE BREAKS-bg.png;
#LYRICSPATH:BATTLE BREAKS.lrc;
#CDTITLE:./CDTITLES/BEATMANIA.PNG;
#MUSIC:BATTLE BREAKS.mp3;
#OFFSET:-2.667;
#SAMPLESTART:26.210;
#SAMPLELENGTH:12.000;
#SELECTABLE:YES;
#DISPLAYBPM:112.000;
#BPMS:0.000=112.000;
#STOPS:;
#BGCHANGES:;
// cache tags:
#FIRSTBEAT:0.000;
#LASTBEAT:191.000;
#SONGFILENAME:Songs/toune/freaks/BATTLE BREAKS.sm;
#HASMUSIC:1;
#HASBANNER:1;
#MUSICLENGTH:107.990;
// end cache tags

//---------------dance-single - ----------------
#NOTES:
     dance-single:
     :
     Easy:
     3:
     0.273,0.332,0.065,0.352,0.000,161.000,7.000,38.000,0.000,0.000:
1000
0001
1000
0000
,
0001
1000
0001
0000
,
1000
0020
0000
0030
,
2000
3002
0003
2000
,
3001
0200
0000
0301
,
0100
0001
0002
1003
,
0010
0000
2000
0000
0000
0001
3000
0001
,
0200
0000
0010
0310
,
1000
0000
0002
0000
0000
1000
0003
1000
,
0010
0100
0010
0100
,
0001
1000
0002
0000
0000
1000
0003
1000
,
2000
0001
0001
3001
,
0100
0001
0100
0001
,
1000
0100
1000
0100
,
1001
0010
1001
0100
,
0002
1000
1000
1003
,
0100
0001
0100
0001
,
1000
0100
1000
0100
,
1001
0100
1001
0010
,
2000
3002
0203
0320
,
1030
0010
1000
0001
,
2000
0000
0000
3000
,
0001
1000
0000
0001
1000
0000
0000
0000
,
0002
0000
0100
0103
,
2000
3001
0200
0300
,
0001
0000
0001
0000
0010
0000
0010
0001
,
2000
0000
3001
0100
,
0010
0000
0100
0000
0001
0000
1000
0001
,
1000
0000
0010
0100
,
2002
0000
0000
3003
,
0001
0010
0001
0100
,
0010
0100
0001
0100
,
0001
1000
0100
1000
,
2002
0000
0000
0000
3003
0000
0010
0001
,
2000
0000
0000
0000
3000
0001
1000
0000
,
0001
0100
1000
0010
,
1000
0001
0010
0100
,
0002
0000
0003
0000
0000
1000
0000
1000
,
2000
0000
0000
0000
0000
3000
0000
0001
,
0100
0000
0001
0000
0000
1000
0000
1000
,
2000
0000
0000
0000
0000
3000
0000
1000
,
0001
0000
0100
0000
0000
0001
0000
0000
,
2000
0000
0000
0020
3000
0000
0030
0000
,
2000
3001
0002
1003
,
0200
0000
0301
0000
1000
0001
0100
0000
,
0002
1000
0203
0300
,
2002
0000
0000
0000
,
0000
0000
0000
3003
;

//---------------dance-single - ----------------
#NOTES:
     dance-single:
     :
     Medium:
     5:
     0.348,0.332,0.065,0.648,0.028,186.000,7.000,70.000,0.000,0.000:
1000
0001
2000
0000
0001
0000
3100
0000
,
0001
1000
0002
0000
1000
0000
2003
0000
,
3001
0020
0000
0030
,
2000
3002
0003
2000
,
3001
0000
0000
0000
0020
0000
0000
0000
0000
0000
0100
0000
0030
0100
0000
0000
,
0001
0000
1000
0000
0010
1000
1010
0000
,
0010
0000
1000
0000
0002
0000
0000
0000
0000
0000
0010
0000
0003
0010
0000
0000
,
0200
0000
1300
0001
,
1000
0000
0001
0000
0200
0000
0000
0000
0000
0000
0010
0000
0300
0010
0000
0000
,
1000
0010
0100
0000
0010
1000
0001
0000
,
1000
0001
2000
0000
3000
0002
0000
0003
,
2002
0000
0000
3003
,
1000
0001
1000
0000
0100
0010
0100
0000
,
1000
0001
1000
0000
0100
0010
0100
0000
,
1001
0000
1000
0000
0001
0100
0010
0000
,
2000
3001
0002
0003
,
1000
0100
1000
0000
0001
0010
0001
0000
,
1000
0001
1000
0000
0100
0010
0100
0000
,
1000
0001
1000
0000
1000
0010
0100
0001
,
2000
3002
0203
0301
,
1000
0010
0100
0001
,
2002
0000
0000
3003
,
1000
0002
0000
0100
0200
0000
0303
0000
,
1000
0000
0001
2000
0000
0000
3002
0000
,
1000
0000
1003
0000
0200
0000
1300
0010
,
0200
0000
0302
0000
1003
0001
0200
0000
,
0320
0000
0000
0000
1030
0000
0010
1000
,
0002
0000
0203
0000
0302
0000
1003
0001
,
2000
0010
3010
0100
,
2002
3000
1000
1003
,
0001
0000
0010
0000
0001
1000
0001
0000
,
0010
0200
2300
3002
,
0203
0302
2003
3001
,
2002
0000
0000
0003
3000
0000
0020
0000
,
0200
0000
0030
0000
0300
0001
2000
0000
,
0002
0000
0000
0000
3000
0000
0000
0000
0000
0000
1003
0000
0000
0020
0000
0000
,
2000
0030
3010
0100
,
0002
0000
0000
0000
2000
0000
0000
0000
0003
0000
0001
0000
3000
0010
0000
0000
,
0200
0000
0000
0000
0000
0300
0000
0001
,
0100
0000
0000
0000
0002
0000
0000
0000
0000
0000
1003
0000
0000
0020
0000
0000
,
2000
0000
0000
0000
0030
3000
0000
1000
,
0002
0000
0203
0000
0000
0002
0300
0000
,
2003
0000
0000
0020
3000
0000
0030
0000
,
1000
0001
2000
0000
3001
0100
0020
0000
,
2030
0000
3001
0000
0100
0001
2000
0000
,
3002
1000
0203
0300
,
2002
0000
0000
0000
,
0000
0000
0000
3003
;

//---------------dance-single - ----------------
#NOTES:
     dance-single:
     :
     Hard:
     7:
     0.439,0.398,0.167,0.695,0.042,239.000,18.000,75.000,0.000,0.000:
1000
0100
2100
0000
0001
0000
3100
0000
,
0010
0001
0012
0000
0100
0000
0103
0000
,
0101
0100
0002
0000
0000
0000
0003
0100
,
0200
0000
0000
0000
0301
0000
1000
0002
0000
0000
0000
0000
0003
0000
0000
0000
,
0001
0000
1000
0000
0020
0000
0000
0000
0000
0000
1030
0000
0001
0100
0000
0000
,
0002
0000
2003
0000
3010
0100
0110
0000
,
0010
0000
0100
0000
0002
0000
0000
0000
0000
0000
0013
0000
0100
0010
0000
0000
,
0200
1000
1300
0002
,
1003
0000
0001
0000
0200
0000
0000
0000
0000
0000
0310
0000
1000
0010
0000
0000
,
2000
0000
0000
0000
3001
0000
1000
0001
0000
0000
0100
0000
0002
0000
0000
0000
,
1003
0000
0001
0000
0200
0000
0000
0000
0000
0000
0302
0000
0000
1003
0000
0000
,
2002
0000
0000
3003
,
0001
1000
0001
1000
0010
0100
0010
0100
,
1000
0001
1000
0001
0100
0010
1000
0001
,
1001
1000
0001
1000
0100
0010
0100
0010
,
0002
0000
0013
0100
2000
0000
3000
0000
,
1001
0010
0001
0010
0001
0010
0100
1000
,
0010
1000
0010
1000
0001
0100
0002
0000
,
1003
0010
1000
0001
1000
0010
0100
0001
,
2000
3002
0203
0300
,
0001
0010
0001
0100
0010
2000
3000
0000
,
2002
0000
0000
0000
0003
0001
3001
0100
,
0020
0000
0000
0100
0200
0000
0330
0000
,
1000
0001
2000
0002
0000
0000
3003
0000
,
2001
0000
3020
0000
0230
0000
0301
0010
,
0100
0000
2100
0000
3001
0100
0010
1000
,
0002
0000
1000
0000
1003
0000
0100
2000
,
0001
0000
3100
0000
1001
0000
1000
0002
,
2000
0000
3003
0000
0010
1000
0100
0000
,
2002
0000
3000
0000
0010
0000
0103
0100
,
0001
0000
0020
0000
0001
0031
0100
0000
,
0020
0000
0230
0000
0302
0000
0203
0001
,
0302
0000
1000
0000
1003
0100
0020
0000
,
0002
0030
1000
0000
1003
0001
1000
0100
,
2000
3200
0320
0032
,
1000
0000
0000
0000
2003
0000
0000
0000
3000
0000
0001
0000
0010
0100
0000
0000
,
2000
0000
3010
1000
0010
0100
0001
0101
,
0002
0000
0000
0000
2003
0000
0000
0000
3000
0000
0100
0000
0010
0002
0000
0000
,
2000
0003
3010
1000
0001
0100
0001
0101
,
0200
0000
0000
0000
0002
0000
0000
0300
0000
0000
1003
0000
0010
0000
0200
0000
,
0002
0000
0300
0000
1000
0000
0000
0000
1003
0000
0000
0000
1000
0001
0100
0000
,
0002
0000
0203
0000
0000
0001
0300
0000
,
2002
0000
0003
0002
3000
0000
0003
0000
,
0100
0010
0210
0000
0301
1000
1002
0000
,
0203
0000
0301
0000
1000
0002
0200
0000
,
0003
0310
0000
0100
0010
1000
0001
0000
,
2002
0000
0000
0000
,
0000
0000
0000
3003
;

//---------------dance-double - ----------------
#NOTES:
     dance-double:
     :
     Easy:
     3:
     0.254,0.287,0.037,0.343,0.019,151.000,4.000,37.000,0.000,0.000:
10000000
00010000
01000000
00000000
,
00001000
00010000
00000100
00000000
,
00001000
00000020
00000000
00000030
,
00002000
00003002
00000003
00002000
,
00003000
00000200
00000000
00010300
,
00001000
01000000
00200000
10300000
,
00100000
00000000
00000000
00000000
20000000
00000000
00000000
00000000
00000000
00000000
00010000
00000000
30000000
00010000
00000000
00000000
,
02000000
00020000
03000000
00030000
,
00100000
00001000
00010000
00000000
,
00000010
00000100
00000010
00000100
,
00000001
00000000
00001000
00000000
00000001
00000000
00000000
00000000
00000000
00000000
00001000
00000000
00000000
00001000
00000000
00000000
,
00000200
00000000
00000000
00000300
,
00010000
00001000
01000000
00010000
,
10000000
01000000
10000000
01000000
,
10010000
00010000
00010000
01000000
,
00002000
00010000
00010000
00013000
,
00000100
00001000
00000100
00001000
,
00000001
00000100
00000001
00000100
,
00000010
00010000
00001000
00100000
,
02000000
23000000
30020000
00030000
,
00100000
00010000
10000000
00010000
,
02000000
00000000
00000000
03000000
,
00001000
00000000
00000000
00010000
00001000
00000000
00000000
00000000
,
00022000
00000000
00000000
00033000
,
00000020
00001030
00000200
00000300
,
00010000
00000000
00001000
00000000
00100000
00000000
00100000
00010000
,
20000000
00000000
30010000
01000000
,
00100000
00000000
01000000
00000000
00001000
00000000
00010000
00010000
,
00000100
00000000
00000010
00000100
,
00002002
00000000
00000000
00003003
,
00000001
00000010
00000100
00010000
,
00001000
01000000
00010000
01000000
,
00010000
00100000
00010000
01000000
,
00002000
00023000
00030000
00000010
,
00000200
00000000
00000000
00000000
00000300
00000001
00001000
00000000
,
00000001
00000100
00001000
00000001
,
00001000
00000100
00010000
00001000
,
00200000
00000000
00000000
00000000
00300000
00000000
00000000
00000000
00000000
00000000
00010000
00000000
00000000
00010000
00000000
00000000
,
20000000
00000000
00000000
00000000
00000000
30000000
00000000
00010000
,
00100000
00000000
00000000
00000000
00001000
00000000
00000000
00000000
00000000
00000000
00001000
00000000
00000000
00010000
00000000
00000000
,
00000200
00000000
00000000
00000000
00000000
00000300
00000000
00001000
,
00000001
00000000
00000100
00000000
00000000
00000010
00000000
00000000
,
00020000
00000000
00000000
00002000
00030000
00000000
00003000
00000000
,
00020000
00031000
00200000
00310000
,
02000000
00000000
03010000
00000000
10000000
00010000
01000000
00000000
,
00020000
10000000
02030000
03000000
,
20020000
00000000
00000000
00000000
,
00000000
00000000
00000000
30030000
;

//---------------dance-double - ----------------
#NOTES:
     dance-double:
     :
     Medium:
     5:
     0.325,0.310,0.065,0.509,0.028,184.000,7.000,55.000,0.000,0.000:
00010000
10000000
00020000
00000000
10000000
00000000
01030000
00000000
,
10000000
00010000
01000000
00000000
00001000
00000000
00020000
00000000
,
00030010
00002000
00000000
00003000
,
00000020
00000230
00000300
00002000
,
00003001
00000000
00000000
00000000
00000200
00000000
00000000
00000000
00000000
00000000
00000010
00000000
00000300
00000010
00000000
00000000
,
00010000
00000000
00001000
00000000
00010000
00001000
00011000
00000000
,
00100000
00000000
00010000
00000000
02000000
00000000
00000000
00000000
00000000
00000000
00100000
00000000
03000000
00100000
00000000
00000000
,
20000000
00000000
00000000
00000000
00000000
30000000
00010000
00000000
,
01000000
00000000
00001000
00000000
00020000
00000000
00000000
00000000
00000000
00000000
00001000
00000000
00030000
00001000
00000000
00000000
,
00010000
00000010
00000100
00000000
00000010
00010000
00001000
00000000
,
00100000
00010000
02000000
00000000
03000000
00010000
00000000
00010000
,
20020000
00000000
00000000
30030000
,
10000000
00010000
10000000
00000000
01000000
00100000
01000000
00000000
,
10000000
00010000
10000000
00000000
01000000
00100000
01000000
00000000
,
10010000
00000000
01000000
00000000
00001000
00010000
00000010
00000000
,
00002000
00003001
00000002
00000003
,
00001000
00000001
00001000
00000000
00000100
00000010
00000100
00000000
,
00001000
00000001
00001000
00000000
00000010
00001000
00000010
00000000
,
00010000
00001000
01000000
00000000
00010000
10000000
00100000
00000000
,
20000000
30020000
02030000
03010000
,
01000000
00001000
00010000
00001000
,
00022000
00000000
00000000
00033000
,
00000010
00002000
00000000
00000010
00000010
00000000
00003000
00000000
,
00000001
00000000
00001000
00000002
00000000
00000000
00001003
00000000
,
00000001
00000000
00001000
00000000
00000100
00000000
00010000
00001000
,
00100000
00000000
01000000
00000000
10000000
00010000
01000000
00000000
,
00020000
00000000
00030000
20000000
,
30020000
00000000
02030000
00000000
03020000
00000000
10030000
00010000
,
10000000
00100000
00100000
01000000
,
20020000
30000000
01000000
01030000
,
00001000
00000000
00010000
00000000
00000010
00001000
00000001
00000000
,
00000010
00000100
00000002
00000203
,
00000302
00002003
00003200
00001300
,
00002200
00000000
00000000
00000000
00003300
00000000
00010000
00001000
,
02000000
00000000
00000000
00000000
03000000
00010000
20000000
00000000
,
00020000
00000000
00000000
00000000
30000000
00000000
00000000
00000000
00000000
00000000
10030000
00000000
00000000
00010000
00000000
00000000
,
00200000
00000000
00301000
00010000
,
00000100
00000000
00000000
00000000
00000020
00000000
00000000
00000000
00000000
00000000
00000001
00000000
00000030
00000100
00000000
00000000
,
00002000
00000000
00000000
00000000
00000000
00003000
00000000
00000001
,
00000200
00000000
00000000
00000000
00000302
00000000
00000000
00000000
00000000
00000000
00001003
00000000
00000000
00000100
00000000
00000000
,
00020000
00000000
00000000
00000000
00000000
00030000
00000000
00001000
,
02000000
00000000
03020000
00000000
00000000
01000000
00030000
00000000
,
00200000
00000000
00000000
02000000
00300000
00000000
03000000
00000000
,
00010000
10000000
00020000
00000000
10030000
00100000
02000000
00000000
,
03010000
00000000
01000000
00000000
00001000
00010000
00001000
00000000
,
00002000
00010000
00023000
00030000
,
00022000
00000000
00000000
00000000
,
00000000
00000000
00000000
00033000
;

//---------------dance-double - ----------------
#NOTES:
     dance-double:
     :
     Hard:
     7:
     0.414,0.398,0.148,0.583,0.037,234.000,16.000,63.000,0.000,0.000:
10000000
01000000
21000000
00000000
30010000
00000000
01000000
00000000
,
00001000
00010000
00011000
00000000
00000010
00001000
00000200
00000000
,
00000300
00002000
00000020
00000000
00000000
00000000
00000030
00003000
,
00002000
00000020
00000000
00003030
,
00010000
00000000
00001000
00000000
02000000
00000000
00000000
00000000
00000000
00000000
00010000
00000000
03000000
00010000
00000000
00000000
,
01000000
00010000
10000000
00000000
00100000
01000000
01100000
00000000
,
00100000
00000000
01000000
00000000
00002000
00000000
00000000
00000000
00000000
00000000
00013000
00000000
00000100
00001000
00000000
00000000
,
00000020
00000100
00000130
00000001
,
00001000
00000000
00000001
00000000
00000200
00000000
00000000
00000000
00000000
00000000
00000001
00000000
00000300
00000001
00000000
00000000
,
00000010
00000001
00000100
00000010
00001000
00000100
00010000
00000000
,
00001000
00000000
01000000
00000000
00020000
00000000
00000000
00000000
00000000
00000000
20030000
00000000
00000000
30010000
00000000
00000000
,
20020000
00000000
00000000
30030000
,
10000000
00010000
10000000
00010000
01000000
00100000
01000000
00010000
,
10000000
00010000
10000000
00010000
00100000
01000000
10000000
00010000
,
10010000
00010000
10000000
00010000
01000000
00001000
00010000
00000010
,
00002000
00000000
00003010
00000100
00000002
00000000
00000003
00000000
,
00001001
00000100
00001000
00000100
00001000
00000100
00000010
00000001
,
00000010
00000001
00000010
00000001
00001000
00000010
00000100
00000001
,
00001000
00000010
00010000
00001000
00100000
00010000
01000000
00100000
,
20000000
30200000
02300000
03000000
,
00010000
00100000
00010000
01000000
00100000
20000000
30000000
00000000
,
20020000
00000000
00000000
00000000
00030000
00010000
30010000
01000000
,
00002000
00000000
00003000
00010000
00020000
00000000
00030000
00000000
,
00000010
00001000
00000020
00000200
00000000
00000000
00000330
00000000
,
00002001
00000000
00003002
00000000
00000203
00000000
00000301
00001000
,
00000010
00000000
00000010
00000000
00010000
00001000
00010000
00001000
,
00200000
00000000
00000000
00000000
00310000
00000000
01000000
00020000
,
10000000
00000000
01030000
00000000
10010000
00000000
10000000
00020000
,
10000000
00000000
00030000
00000000
00100000
00010000
01000000
00000000
,
00022000
00000000
00003000
00000000
00030010
00000000
00001000
00001000
,
00000000
00000000
00002000
00000000
00000001
00003001
00000100
00000010
,
00002000
00000000
00003100
00000000
00000002
00000000
00000203
00000001
,
00000301
00000000
00001000
00000000
00000100
00010000
00001000
00000000
,
02000000
00000000
00000000
00000000
03010000
00100000
01000000
10000000
,
20000000
32000000
03200000
00302000
,
00010000
00000000
00000000
00000000
00023000
00000000
00000000
00000000
00030000
00000000
00000010
00000000
00001000
00000001
00000000
00000000
,
00002000
00000000
00003010
00001000
00000010
00000100
00000001
00000101
,
00000002
00000000
00000000
00000000
00002003
00000000
00000000
00000000
00003000
00000000
00000010
00000000
00001000
00000010
00000000
00000000
,
00020000
00000000
00031000
01000000
00010000
01000000
00010000
01010000
,
02000000
00000000
00000000
00000000
00020000
00000000
03000000
00000000
00000000
00000000
10030000
00000000
00100000
02000000
00000000
00000000
,
00000000
00000000
03000000
00000000
00001000
00000000
00000000
00000000
00010000
00000000
00000000
00000000
00000100
00001000
00000001
00000000
,
00000020
00000000
00000230
00000000
00000000
00000010
00000300
00000000
,
00002002
00000000
00000003
00000020
00000000
00000000
00003030
00000000
,
00001000
00000100
00001200
00000000
00010300
00001000
00012000
00000000
,
02003000
00000000
03010000
00000000
10000000
00020000
02000000
00000000
,
00030000
03100000
00000000
01000000
00100000
10000000
00010000
00000000
,
20020000
00000000
00000000
00000000
,
00000000
00000000
00000000
30030000
;

//---------------dance-single - Waldo's EdiT!----------------
#NOTES:
     dance-single:
     Waldo's EdiT!:
     Edit:
     8:
     0.511,0.641,0.232,0.676,0.449,286.000,25.000,73.000,110.000,49.000:
1000
0000
0100
0000
2100
0000
0000
0001
0000
0000
0000
0000
3100
0000
0000
0000
,
0010
0000
0001
0000
0012
0000
0000
1000
0000
0000
0000
0000
0103
0000
0000
0000
,
0101
0000
0100
0000
0002
0000
1000
0000
0000
1000
0000
0000
0003
0000
0100
0000
,
0200
0000
0000
0000
0301
0000
1000
0002
0000
0000
0000
0000
0003
0000
0000
0000
,
0001
0000
1000
0000
0020
0000
0000
1000
0000
0000
1030
0000
0001
0100
0000
0000
,
0002
0000
2003
0000
3010
0100
0110
0000
,
0010
0000
0100
0000
0002
0000
0000
1000
0000
0000
0013
0000
0100
0010
0000
0000
,
0200
1000
1300
0002
,
1003
0000
0001
0000
0200
0000
0000
0000
0000
0000
0310
0000
1000
0010
0000
0000
,
2000
0000
0000
0000
3001
0000
1000
0001
0000
0000
0100
0000
0002
0000
0000
0000
,
1003
0000
0001
0000
0200
0000
0000
0000
0000
0000
0302
0000
0000
1003
0000
0000
,
2002
0000
0000
3003
,
1000
0100
0010
0001
0010
0100
1000
0100
0010
0001
0100
0010
1000
0001
0010
0100
,
1000
0001
1000
0001
0100
0010
1000
0001
,
1000
0100
1000
0100
0001
0100
1000
0010
0100
0001
1000
0010
0100
0001
0010
0000
,
0002
0000
0013
0100
2000
0000
3000
0000
,
0001
0010
0001
0010
0001
0010
0001
0010
0001
0100
0001
0100
0001
0100
0001
0100
,
0001
0100
1000
0100
0001
0100
1000
0100
0001
0000
0100
0000
0002
0000
0000
0000
,
1003
0010
1000
0010
1000
0010
1000
0010
1000
0010
0001
0010
1000
0010
0001
0000
,
2000
3002
0203
0300
,
0001
0010
0001
0100
0010
2000
3000
0000
,
2002
0000
0000
0000
0003
0001
3001
0100
,
0020
0000
0000
0100
0200
0000
0330
0000
,
1000
0001
2000
0002
0100
0100
3013
0000
,
2001
0000
3020
0000
0230
0000
0301
0010
,
0100
0000
2100
0000
3001
0100
0010
1000
,
0002
0000
1000
0000
1003
0000
0220
1000
,
0001
0000
0000
0000
0330
0000
0000
0000
0000
0000
0100
0010
0001
1000
0100
0000
,
2000
0000
0000
0000
3000
0000
0010
0000
0010
0000
1000
0100
0000
0000
0000
0000
,
2002
0000
0000
0000
0000
0000
0000
0000
0010
0000
0000
0100
0000
0000
0100
0000
,
3013
0000
0020
0000
0001
0031
0220
1000
,
0001
0000
0000
0000
0330
0000
0000
0000
0002
0000
0000
0100
0003
0000
0001
0000
,
0002
0000
1000
0000
1003
0100
0020
0000
,
0002
0030
1000
0000
1003
0001
1000
0100
,
2000
0222
0000
3333
,
1000
0000
0000
0000
M2M2
M0M0
M0M0
M0M0
M0M0
M0M0
M0M0
M0M0
M0M0
M0M0
M0M0
0000
,
1000
0010
1000
0000
1000
0000
1000
0000
1000
0010
0000
0010
0000
0010
1010
0000
,
0303
0000
0000
0000
22MM
00MM
00MM
00MM
00MM
00MM
00MM
00MM
00MM
00MM
00MM
0000
,
0010
0001
0010
0001
0001
0010
0001
0010
0001
0010
0001
0010
0001
0000
0011
0000
,
3300
0000
0000
0000
2MM2
0MM0
0MM0
0MM0
0MM0
0MM0
0MM0
0MM0
0MM0
0MM0
0MM0
0000
,
0100
0000
0010
0000
0000
0000
0110
0000
0000
0MM0
0000
0000
0110
0000
0000
0MM0
0000
0000
0110
0000
0000
0MM0
0000
0000
0110
0000
0000
0000
01M0
0000
0000
0000
,
3113
0000
0200
0000
0000
0001
0300
100M
,
200M
010M
020M
001M
002M
000M
333M
0000
,
0100
0010
0010
0000
0210
0000
0000
0000
0301
0001
1000
0000
1002
0000
0000
0000
,
0203
0000
0301
0000
1000
0002
0000
0100
,
0003
0010
0000
0200
0020
2000
0002
3333
,
2M22
0M00
0M00
0M00
0M00
0M00
0M00
0M00
0M00
0M00
0M00
0M00
0M00
0M00
0M00
0M00
,
0M00
0M00
0M00
0M00
0M00
0M00
0M00
0M00
0M00
0M00
0M00
0M00
3M33
0000
0000
0000
;
