#TITLE:Intersect Thunderbolt;
#SUBTITLE:;
#ARTIST:Saitama Saishuu Heiki;
#TITLETRANSLIT:;
#SUBTITLETRANSLIT:;
#ARTISTTRANSLIT:;
#CREDIT:;
#BANNER:../fallback-bn.png;
#BACKGROUND:../fallback-bg.png;
#LYRICSPATH:;
#CDTITLE:;
#MUSIC:Intersect Thunderbolt.ogg;
#OFFSET:-0.260;
#SAMPLESTART:34.860;
#SAMPLELENGTH:12.000;
#SELECTABLE:YES;
#BPMS:0.000=250.001;
#STOPS:;
#BGCHANGES:;
// cache tags:
#FIRSTBEAT:8.000;
#LASTBEAT:520.000;
#SONGFILENAME:Songs/SSSC PACK/[Revolver] - Intersect Thunderbolt/ssh.sm;
#HASMUSIC:1;
#HASBANNER:1;
#MUSICLENGTH:105.000;
// end cache tags

//---------------dance-single - D. D'Agostino----------------
#NOTES:
     dance-single:
     D. D'Agostino:
     Challenge:
     14:
     1.000,1.000,0.000,0.200,0.929,1137.000,0.000,21.000,14.000,0.000:

0000
0000
0000
0000
,
0000
0000
0000
0000
,
MM01
0010
0100
0010
0001
0100
0010
1000
,
0001
0000
0010
0000
0100
0000
1000
0000
0000
0001
0000
0000
0100
0000
0000
0010
0000
0000
1M0M
0000
0000
0100
0000
0000
,
M01M
0001
1000
0010
1000
0100
0010
0001
,
1000
0010
1000
0000
0001
0000
0001
0000
0100
0010
0100
0000
0001
0000
1000
0000
,
01MM
0010
0001
1000
0010
0100
0001
0010
,
0100
0000
1000
0000
0001
0000
0100
0000
0000
0010
0000
0000
1000
0000
0000
0001
0000
0000
MM10
0000
0000
0100
0000
0000
,
10MM
0010
0100
0001
1000
0001
0010
0100
,
1000
0100
0010
0001
0010
0001
1000
0100
0010
0001
0010
0001
1000
0001
1000
0001
,
0100
0010
1000
0001
0010
0100
1000
0100
,
0010
0001
0010
1000
0010
0001
0010
1000
,
0010
0100
1000
0010
0100
0001
0010
0100
,
1000
0010
1000
0100
1000
0010
1000
0100
,
0010
0100
1000
0001
0100
0010
1000
0001
,
0100
1000
0100
0001
0100
1000
0100
0001
,
0010
0100
1000
0100
0010
0001
1000
0010
,
0100
0001
0100
1000
0100
0001
0100
1000
,
0100
0001
0010
0001
1000
0100
0010
0001
,
0010
1000
0010
0001
0010
1000
0010
0001
,
1000
0010
0100
0001
0010
0001
0100
0010
,
1000
0100
1000
0010
1000
0100
1000
0010
,
0100
0001
0010
0100
0010
0001
1000
0100
,
0010
0001
0100
0010
1000
0001
0010
0001
,
0100
0010
1000
0100
0010
0001
0100
0010
,
1000
0001
1000
0000
0100
0000
0100
0000
0010
0001
0010
0000
0001
0000
1000
0000
,
0010
0100
0001
0010
0001
0100
0010
1000
,
0100
0001
0100
1000
0100
0001
0100
1000
,
0001
0010
0100
0010
0001
1000
0010
0100
,
0001
0010
0001
0100
0001
0010
0001
0100
,
0010
1000
0001
0100
0010
1000
0100
0010
,
0100
1000
0100
0001
0100
1000
0100
0001
,
0100
1000
0010
0100
0010
1000
0100
1000
,
0010
0001
0010
1000
0010
0001
0010
1000
,
0001
0010
0100
0010
0001
0100
0010
1000
,
0001
0100
0001
0010
0001
0100
0001
0010
,
0100
1000
0001
0010
0100
1000
0001
0100
,
0010
0001
0010
1000
0010
0001
0010
1000
,
0001
0010
0100
1000
0001
0100
0001
0010
,
0100
1000
0010
0100
0001
1000
0100
0010
,
0001
0010
0100
1000
0010
0100
0001
1000
,
0100
0010
0100
0000
1000
0000
1000
0000
0010
0100
0010
0000
1000
0001
1000
0001
,
1000
0010
0100
0001
1000
0100
0010
0100
,
2000
0001
3001
0200
0010
0310
1000
0001
,
0100
0001
0010
0100
1000
0001
0100
0010
,
2000
0001
3001
0020
0100
0130
1000
0001
,
0100
0001
0010
0100
1000
0001
0100
0010
,
2000
0001
3001
2000
0100
3100
0010
0001
,
0100
0001
1000
0010
0100
0010
1000
0001
,
0010
0100
1000
0010
1000
0001
0100
0010
,
1000
0000
0000
0100
0000
0000
0010
0000
0000
0001
0000
0000
1000
0000
0010
0000
0100
0000
0001
0000
0010
0000
0100
0000
,
2000
0001
3001
0020
0001
0031
0100
0010
,
1000
0010
0100
0001
1000
0001
0010
0100
,
2000
0010
3010
0200
0001
0301
0010
0001
,
0100
0010
0100
0001
1000
0001
0010
0100
,
1000
0001
0100
0010
1000
0010
0100
0001
,
0010
0000
0000
0100
0000
0000
0010
0000
0001
0000
1000
0000
0010
0000
0000
0100
0000
0000
0001
0000
0000
1000
0000
0000
,
0100
1000
0001
0010
0001
1000
0100
0010
,
0001
0100
0001
0010
0100
1000
0001
0010
,
0100
1000
0100
0000
0010
0000
0001
1000
0001
0000
0100
0000
0010
1000
0010
0000
,
0100
0001
0010
0100
0010
0001
1000
0100
,
0020
0001
0001
0001
0001
0031
1000
0010
,
0100
0001
1000
0010
1000
0100
0010
0001
,
2000
0010
0010
0010
0010
3010
0100
0001
,
0010
0001
0100
0010
1000
0100
0010
0001
,
0200
0001
0001
0001
0001
0301
1000
0010
,
0100
0010
1000
0001
0010
0100
1000
0001
,
0010
0100
1000
0010
0100
0001
0100
0010
,
1000
0001
0010
0001
0100
0010
1000
0100
,
0010
0001
0100
0010
0100
0001
1000
0010
,
0100
0001
1000
0100
0010
0100
1000
0001
,
0010
0100
1000
0010
0100
0001
0010
0001
,
1000
0001
0100
0010
1000
0001
0100
0010
,
1000
0100
1000
0001
0010
0100
1000
0100
,
0020
0001
0001
0001
0001
0001
0001
0031
,
1000
0001
1000
0000
0010
0000
0010
0000
0100
0001
0100
0001
1000
0100
1000
0100
,
0020
0001
0001
0001
,
0031
0100
0010
1000
0010
1000
0001
0100
0010
1000
0010
1000
0001
1000
0001
1000
,
0100
0000
0010
0000
0001
0000
0200
0000
0000
0000
0000
0000
0000
0000
0000
0000
0000
0000
0310
0000
0000
1000
0000
0000
,
0001
0000
0010
0000
0100
0000
0010
0000
0001
1000
0010
0000
0100
0000
0001
0000
,
0010
0000
0000
0000
0100
0000
0000
0000
1000
0000
0000
0000
0001
0000
0000
0100
0000
0000
0010
0000
0000
1000
0000
0000
0001
0000
0000
0000
0100
0000
0000
0000
0001
0000
0000
0000
0010
0000
0000
0000
0000
0000
0100
0000
0000
0000
0000
0000
,
1000
0000
0000
0000
0000
0000
0010
0000
0000
0100
0000
0000
0001
0000
0000
0000
1000
0000
0000
0000
0010
0000
0000
0000
0100
0000
0000
0000
0010
0000
0000
0000
1000
0000
0000
0000
0100
0000
0000
0000
0010
0000
0000
0000
0001
0000
0000
0000
,
0100
0000
0001
0000
1000
0000
0010
0000
0100
0000
0001
0000
0010
0000
0000
0100
0000
0000
1000
0000
0000
0010
0000
0000
,
0100
0001
1000
0000
0100
0000
0010
0001
1000
0000
0010
0000
0100
0001
1000
0100
,
0010
0000
0000
0001
0000
0000
1000
0000
0000
0000
0000
0000
0010
0000
0000
0000
0100
0000
0000
0000
0001
0000
0000
0000
1000
0000
0000
0000
0100
0000
0000
0000
0010
0000
0000
0000
0001
0000
0000
1000
0000
0000
0010
0000
0000
0100
0000
0000
,
0001
0020
0000
0130
2000
0000
3010
0100
,
0002
0000
0000
0000
0000
0000
0103
0010
,
1000
0000
0100
0000
1000
0000
0010
0000
0100
0000
0001
0010
0100
0000
1000
0000
,
0001
0000
0100
0000
0010
0000
1000
0000
0100
0000
1000
0000
0010
0100
0001
0000
,
1000
0010
1000
0100
0010
0100
1000
0010
0100
0001
1000
0010
,
0100
0001
0010
0001
0100
0010
1000
0100
0010
0001
0100
0010
,
0100
0001
1000
0010
0100
0001
0010
0001
0100
0010
1000
0100
,
1000
0001
0010
0100
1000
0010
1000
0001
0100
0010
1000
0001
,
1000
0100
0010
0001
0010
0001
1000
0100
0010
0001
0010
0001
1000
0010
1000
0010
,
0100
0001
1000
0100
0010
0001
0100
0001
,
0010
0001
0100
0001
0010
0001
0100
0001
,
0010
0100
1000
0001
0100
0010
0001
0010
,
1000
0010
0001
0010
1000
0010
0001
0010
,
1000
0100
0010
0001
1000
0100
0001
0100
,
1000
0100
0001
0100
1000
0100
0001
0100
,
1000
0100
0010
0001
0100
0010
0100
0001
1000
0100
0010
0100
,
1000
0000
0000
0000
0001
0000
0000
0000
0010
0000
0000
0000
0100
0000
0000
0000
1000
0000
0000
0000
0001
0000
0000
0000
0100
0000
0000
0000
0010
0000
0000
0000
1000
0000
0000
0000
0001
0000
0000
0010
0000
0000
0001
0000
0000
0010
0000
0000
,
0001
1000
0100
1000
0010
0100
0001
0010
,
0100
0000
0010
0001
1000
0000
0010
0000
1000
0100
0010
0000
0001
0000
0100
0000
,
0010
1000
0100
0010
0001
0100
0010
1000
,
0100
0010
0001
1000
0100
0010
0001
0100
,
0010
1000
0001
0010
0100
1000
0010
1000
0001
0100
0010
1000
,
0100
0010
0001
1000
0100
0010
0001
1000
0010
1000
0001
0100
,
0010
1000
0001
0010
0001
0100
0010
1000
0001
0010
0100
1000
,
0001
0000
0000
0000
0100
0000
0000
0000
0010
0000
0000
0000
1000
0000
0000
0000
0100
0000
0000
0000
0010
0000
0000
0000
0001
0000
0000
0000
1000
0000
0000
0000
0010
0000
0000
0000
0100
0000
0000
0001
0000
0000
0100
0000
0000
0001
0000
0000
,
0100
0010
1000
0100
1000
0010
0100
0001
,
0010
0100
1000
0010
0100
0001
0010
0001
,
0100
0010
1000
0001
1000
0100
0010
0001
,
1000
0010
0100
0010
1000
0100
0010
0100
,
1000
0001
0100
0010
1000
0100
0010
0001
,
0010
0100
1000
0010
0100
0001
0010
0100
,
1000
0000
0010
0000
0100
0000
0001
0000
1000
0000
0100
0000
0010
0000
0100
0000
1000
0000
0010
0000
0000
0100
0000
0000
,
0002
0000
0000
0000
0000
0000
1000
0000
0000
0000
0000
0000
1003
0100
1000
0100
,
1000
0010
0100
0001
0010
0100
1000
0100
,
0010
0001
1000
0010
0100
0001
0010
0100
,
0010
0001
0100
0010
1000
0100
0010
0100
,
1000
0001
0010
0100
1000
0001
0100
0010
,
1000
0100
0010
0100
1000
0001
0010
0100
,
1000
0010
0100
0001
1000
0010
1000
0100
,
0010
0001
0100
0010
0100
0001
1000
0010
,
1000
0000
0100
0000
0010
0000
0001
0000
0100
0000
0010
0000
1000
0001
1000
0001
,
0100
0001
1000
0010
1000
0010
0100
0001
1000
0010
1000
0010
0100
0001
1000
0010
,
1000
0010
0100
0001
1000
0010
1000
0010
1000
0001
1000
0000
0100
0000
0010
0000
,
0002
0000
1000
0000
0000
1000
0000
0000
,
1003
0000
0010
0000
0100
0000
0001
0000
0010
0000
0100
0000
1000
0000
0001
0000
0100
0001
0100
0000
0000
0000
0000
0000
,
M01M
0000
0000
0000
;
