#TITLE:Soular Flares;
#SUBTITLE:(Full Version);
#ARTIST:The Ready Set;
#TITLETRANSLIT:;
#SUBTITLETRANSLIT:;
#ARTISTTRANSLIT:;
#CREDIT:Nicole aka DUUUUUUUUUUH for having it on her MySpace page and helping me discover this song ^_^;
#BANNER:flares.png;
#BACKGROUND:flaresBG.png;
#LYRICSPATH:;
#CDTITLE:;
#MUSIC:Soular Flares.ogg;
#OFFSET:-0.100;
#SAMPLESTART:45.751;
#SAMPLELENGTH:15.000;
#SELECTABLE:YES;
#BPMS:0.000=170.000,219.000=84.960,221.000=169.920;
#STOPS:206.500=0.160
;
#BGCHANGES:;
// cache tags:
#FIRSTBEAT:33.000;
#LASTBEAT:524.500;
#SONGFILENAME:Songs/Rodd's Revival/Soular Flares (Rodd Steps)/Soular Flares (Rodd Steps).sm;
#HASMUSIC:1;
#HASBANNER:1;
#MUSICLENGTH:191.658;
// end cache tags

//---------------dance-single - R. Farias----------------
#NOTES:
     dance-single:
     R. Farias:
     Challenge:
     9:
     0.728,0.855,0.037,1.000,0.417,727.000,7.000,243.000,67.000,0.000:



0000
0000
0000
0000
,
0000
0000
0000
0000
,
0000
0000
0000
0000
,
0000
0000
0000
0000
,
0000
0000
0000
0000
,
0000
0000
0000
0000
,
0000
0000
0000
0000
,
0000
0000
0000
0000
,
0000
0000
0001
0200
0000
0320
0000
2030
,
0000
3200
0000
0320
0000
0032
0000
0203
,
0000
0320
0000
2030
3002
0000
0203
0000
,
0000
0010
0000
1000
0000
0310
2000
0000
,
3200
0302
0203
0320
,
0031
0000
0100
0000
0010
0000
1000
0000
0100
0000
0020
0000
0000
0000
0200
0030
,
0000
0000
0000
0300
0000
0000
0000
0000
1000
0000
0001
0000
0200
0000
0300
0000
,
1000
0000
0001
0000
0100
0000
0010
0000
0100
0000
0010
0000
0100
0000
0010
0100
,
0010
1000
0100
0010
0100
1000
0001
0200
,
0000
0320
0000
2030
3001
0100
0020
0000
,
2030
0000
3100
0010
0001
0010
0100
2000
,
3000
0002
0000
0103
0000
0000
2000
0000
3000
0002
0000
0103
0000
0000
0010
0000
,
2000
0000
3010
2000
0000
3100
0001
0100
,
0010
0001
0100
0020
0000
2030
0000
3100
,
0001
0100
0010
0002
0000
0203
0000
0310
,
1M1M
0000
1000
11MM
0000
M11M
0000
MM11
,
0001
0100
0010
0100
0001
1000
0001
1000
,
0100
0010
0001
0200
0000
0010
0000
0310
,
0100
0001
1000
0100
0010
0100
1000
0002
,
0000
0203
0000
0000
0320
0000
2030
0000
0000
0000
0100
0000
0000
0000
3001
0000
,
0100
0010
1000
0100
0010
0100
1000
0002
,
0000
0203
0000
0000
0320
0000
2030
0000
0000
0000
3100
0000
0010
0000
0001
0000
,
0010
0000
0100
0000
1000
0000
0001
0000
0100
0000
0010
1000
0010
1000
0020
0000
,
0000
2030
0000
0000
3100
0000
0010
0000
0001
0010
0001
0000
0100
0000
0101
0000
,
0100
0010
0100
0002
0000
2003
0000
3200
,
0000
0302
0000
0203
0000
0320
0000
0032
,
0000
0203
0000
0310
2000
0000
3200
0000
,
0000
0010
0000
0001
0000
0310
0002
0000
,
0203
0320
2030
3200
,
0310
0100
1000
0001
0100
0020
0000
2030
,
0000
3100
0010
0001
0000
0001
1000
0001
,
0100
0001
0100
0000
0010
0000
0100
0000
0001
0000
1000
0000
0001
0000
0200
0000
,
0000
0300
0000
0020
0000
2030
0000
3200
,
0000
0320
0000
0230
0000
2300
0000
3002
,
0000
0203
0000
0310
2000
0000
3200
0000
,
0000
0000
0000
0000
0000
0310
0002
0000
,
2003
3002
0203
0320
,
1030
0100
0010
0100
1000
0002
0000
0203
,
0000
0000
0320
0000
0000
2030
0000
3100
,
0010
0001
0010
0100
1000
0001
0100
0020
,
0000
2030
0000
3200
0300
0010
0001
0200
,
0300
0010
1000
0200
0300
0010
0100
0010
,
0001
0000
0000
0200
0000
0000
0000
0000
0000
0320
0000
0000
0000
0000
0000
2030
0000
0000
0000
0000
0000
3100
0000
0010
,
0000
0000
0001
0000
0000
0000
0010
0000
0000
0000
0100
0000
0000
0000
1000
0000
0000
0000
0001
0000
0000
0000
0100
0000
0000
0000
0010
0000
0000
0000
2M0M
0000
0000
3000
0000
0000
0100
0000
0000
0000
0000
0000
0010
0000
0000
0000
0000
0000
,
0001
0010
0100
1000
0001
0100
0020
0000
,
0000
0000
1030
0100
0001
0100
0020
0000
,
0031
0000
0100
0000
0020
0000
0000
0000
1030
0000
00M1
0000
M200
000M
0320
M00M
,
0230
M000
0302
00M0
1003
0000
0100
0000
0010
0000
0100
0000
2000
0000
0000
0000
,
3002
0203
0320
2030
,
3200
0000
0000
0310
0200
0000
0320
0000
,
0031
0000
0100
0000
0020
0000
0000
0000
2030
0000
0000
0000
3100
0010
0001
0010
,
0100
1000
0001
0100
0010
0000
0100
0000
0001
0000
1000
0000
0100
0000
0001
0000
,
0100
0010
0002
0000
0103
0020
0000
0000
,
0000
1030
0100
0010
0100
1000
0002
0000
,
0203
0000
0310
1000
0100
0001
0200
0000
,
0310
0000
0011
0001
0100
0010
1000
0001
,
0100
0010
0100
0001
1000
0100
0010
0100
,
1000
0000
0001
1000
0001
0100
0010
0000
1000
0000
0100
0010
0001
0000
0001
0010
,
0100
0000
1000
0001
1000
0001
1000
0000
0001
0000
0100
0010
0100
0000
0010
0000
,
1000
0100
0200
0000
0000
0000
0320
0000
,
0032
0203
0320
0230
,
0302
0000
2003
0000
3200
0000
0310
0002
,
0000
2003
0000
0000
0100
0000
0100
0000
,
3010
0200
0000
0302
0000
2003
0000
3200
,
0000
0302
0000
0103
0010
0001
0100
1000
,
0200
0000
0320
0000
0000
2030
0000
0000
,
3200
0000
0000
0000
0310
0000
0001
0100
0010
0000
0100
0000
0001
0000
1000
0000
,
0100
0010
0002
0000
0203
0000
2300
0000
,
3200
0320
2030
3200
,
0320
0000
0230
0000
2300
0000
3001
0200
,
0000
0000
0320
0000
0000
0000
0000
0000
1000
0000
0000
0000
1030
0000
0100
0010
,
0100
0010
0200
0000
0000
0000
0320
0000
0000
0000
0032
0000
0000
0000
0203
0000
,
0000
0320
0000
1030
0100
0001
0100
0010
,
0002
0000
2003
0000
0000
3002
0000
0103
,
0020
0000
1030
0100
0010
0001
0010
0100
,
1000
0000
0000
0001
0000
0000
0100
0000
0010
0000
1000
0000
0001
0000
0100
0000
0010
0000
1000
0000
0001
0000
0100
0000
,
0010
0100
0001
1000
0100
0010
0001
0010
0100
1000
0001
0100
,
0010
0100
0001
1000
0100
0010
0100
1000
0100
0010
0001
0010
,
0100
0010
0001
0100
0010
1000
0100
0010
0100
1000
0001
0100
,
0010
0100
0001
2000
0000
0000
3200
0000
0000
0310
0001
0010
,
0100
1000
0001
0200
0000
0000
0320
0000
0000
1030
0100
0010
,
0100
0000
1000
0000
0001
0000
0100
0000
0000
0020
0000
0000
0030
0000
0000
0100
0000
0000
0002
0000
0000
0000
0000
0000
,
2003
0000
3100
0020
0000
0031
0100
0001
,
0100
0000
0000
0001
0000
0000
0100
0000
0010
0000
1000
0000
0100
0000
0010
0000
0100
0000
1000
0000
0001
0000
0100
0000
,
0010
1000
0001
0100
0010
0100
0001
1000
0100
0010
0100
1000
,
0001
1000
0001
0100
0001
0100
0010
0100
0010
1000
0100
0010
,
0100
0010
0001
0100
0010
0100
0001
1000
0001
0100
0010
0100
,
0010
1000
0010
2000
0000
0000
3002
0000
0000
0103
0010
0100
,
0001
1000
0100
0020
0000
0000
0230
0000
0000
1300
0001
0100
,
0010
0000
1000
0000
0001
0000
0100
0000
0000
0020
0000
0000
0030
0000
0000
1000
0000
0000
0100
0000
0000
0000
0000
0000
,
0110
0000
0000
0000
0010
0000
0001
0000
0010
0000
0001
0000
0100
0010
1000
0001
,
0100
0010
1000
0001
0100
0000
0000
0000
0010
0000
1000
0000
0200
0000
0000
0000
,
0320
0000
0031
0200
0000
0320
0000
2030
,
0000
3002
0000
0203
0000
0320
2000
0000
,
0000
0000
0000
0000
,
3000
0000
0030
0000
0000
MMMM
0000
0000
1000
0000
0100
0000
0020
0000
0000
0000
,
0032
0000
0103
0020
0000
0230
0000
0302
,
0000
0000
2003
0000
0000
0000
3200
0000
0000
0000
0310
0000
0002
0M00
M000
00M0
,
0M00
0000
M000
00M0
0M00
0M00
M000
0000
0M00
00M0
0000
0M00
M000
00M0
0M00
0000
,
0M00
0M00
0003
0000
0200
0000
0000
0000
0000
0320
0030
2000
3000
0000
0200
0300
,
0000
0020
0030
0000
0002
M000
0M00
M000
0M00
0MM0
00M0
MM00
00M0
0M00
M000
0M00
,
0003
0000
0000
0000
M0M0
0M0M
0000
M0M0
0M0M
0000
0000
0002
0003
0000
0200
0300
,
0000
0020
0030
0000
2000
0000
0000
0200
0000
0000
0000
0000
0000
0000
0000
0000
,
0000
0000
0000
0000
3300
0000
0M0M
M0M0
0000
0MMM
M000
0020
0030
0000
0200
0300
,
0002
0003
0000
2000
0000
0000
3000
0200
0000
0000
0300
0020
0000
0000
0030
0002
,
0000
0000
0000
0203
0000
0300
0000
0020
0000
0000
0030
2000
0000
0000
0000
0000
,
0000
0000
0000
3000
0100
0000
0010
0000
0001
0000
0010
0000
0100
0000
1000
0000
,
0001
0100
0020
0000
0000
0000
2030
0000
,
3200
0320
0230
2300
,
3002
0000
0203
0000
2300
0000
3100
0020
,
0000
2030
0000
0000
0000
0000
0000
3000
,
0100
0020
0000
0032
0000
0203
0000
0320
,
0000
0230
0000
0301
1000
0100
0010
0001
,
2000
0000
3002
0000
0000
0203
0000
0000
,
0310
0000
1000
0010
1000
0000
0100
1000
0100
0000
0010
0100
0010
0000
0001
0010
,
0001
0010
0001
0010
0002
0000
0000
0000
0000
0000
0000
0000
0203
0000
0000
0000
,
0320
0000
0230
0000
0302
0003
2000
0000
,
3200
0000
0302
0003
0200
0000
0310
0002
,
0000
0000
0103
0000
0020
0000
0000
0000
0000
0000
0000
0000
0000
0030
1000
0010
,
1000
0200
0000
0320
0000
0032
0000
2003
,
0000
3002
0000
0103
0010
0100
0001
1000
,
0200
0020
0000
0000
0000
0000
0000
0000
,
0000
0000
0000
0000
0000
0000
0000
0300
0000
0030
0000
0000
0000
0000
0000
0001
0000
0000
0100
0000
0000
0010
0000
0000
,
2000
3000
0000
0000
0000
0000
0000
0000
;
