#TITLE:Love Wars;
#SUBTITLE:;
#ARTIST:Prim;
#TITLETRANSLIT:;
#SUBTITLETRANSLIT:;
#ARTISTTRANSLIT:;
#CREDIT:;
#BANNER:../banner.png;
#BACKGROUND:../bg.png;
#LYRICSPATH:;
#CDTITLE:;
#MUSIC:Love Wars.ogg;
#OFFSET:-0.039;
#SAMPLESTART:50.442;
#SAMPLELENGTH:19.400;
#SELECTABLE:YES;
#BPMS:0.000=199.999;
#STOPS:;
#BGCHANGES:;
// cache tags:
#FIRSTBEAT:4.000;
#LASTBEAT:414.000;
#SONGFILENAME:Songs/Cirque du Lykan/Love Wars - [Zaia]/Love Wars.sm;
#HASMUSIC:1;
#HASBANNER:1;
#MUSICLENGTH:126.667;
// end cache tags

//---------------dance-single - Zaia - 15(mid)----------------
#NOTES:
     dance-single:
     Zaia - 15(mid):
     Challenge:
     15:
     1.000,1.000,0.126,0.458,1.000,1214.000,16.000,58.000,0.000,1.000:
0000
0000
0000
0000
,
1000
0100
0010
0001
1000
0001
0100
0010
1000
0001
0100
0001
1000
0001
0010
0100
,
1000
0010
0100
0001
1000
0100
0010
0001
1000
0010
0100
0001
1000
0100
1000
0001
,
0100
0010
0100
0001
1000
0100
0010
0001
0100
0010
1000
0001
1000
0100
0010
0001
,
2000
0000
0000
0000
0000
0000
0000
0000
3001
0100
0010
1000
0001
0010
0100
1000
,
0020
0000
0000
0000
0000
0000
0000
0000
0130
0000
0001
1000
0010
0000
0100
0000
,
0110
0010
1000
0001
1000
0100
0010
0100
,
1000
0001
0100
0010
1000
0100
0010
0001
,
1000
0000
0001
0100
0001
0000
2000
0000
0000
0000
3010
0000
0100
0000
0001
0000
,
1000
0000
0001
0010
0001
0000
0100
0000
0000
0000
0010
1000
0001
0100
0040
0000
,
1030
0001
1000
0010
0100
0001
1000
0001
0010
0100
1000
0010
0100
0001
1000
0100
,
1000
0001
0010
0001
1000
0010
0100
0001
1000
0001
0010
0100
1000
0001
0100
0010
,
1000
0001
0010
0100
0010
0001
1000
0010
0100
0001
0010
0100
1000
0010
1000
0001
,
0010
0001
0100
0010
1000
0001
0010
0100
2000
0000
0000
3001
0100
0000
0010
0000
,
1010
1000
0001
0010
0000
0100
0000
0010
,
0000
0001
0100
0000
0010
0000
1000
0000
,
0001
0000
1000
0000
0001
0100
0001
0000
0010
0000
0100
1000
0100
0000
1000
0000
,
0001
0010
0001
0000
0100
0000
0001
1000
0001
0000
1000
0100
1000
0000
0001
0100
,
0010
1000
0001
0010
0001
0000
1000
0100
1000
0001
0100
0010
0100
0001
1000
0100
,
1000
0001
0100
0001
1000
0000
0001
0010
0100
1000
0001
1000
0010
1000
0001
0100
,
0010
1000
0001
0010
0001
0000
1000
0100
0010
0001
1000
0010
1000
0001
0010
0001
,
1000
0001
0100
0001
1000
0000
0001
0100
0010
1000
0010
0100
0001
1000
0100
1000
,
0001
0010
0100
0010
0001
0000
1000
0100
1000
0001
0100
0010
0100
0001
1000
0100
,
0010
0001
1000
0001
0100
0010
1000
0001
0010
0001
1000
0010
1000
0001
0100
0010
,
1000
0001
0010
0001
1000
0000
0001
0010
0100
0010
0001
1000
0010
0100
0001
1000
,
0001
0010
0100
1000
0001
0100
0010
1000
0001
0010
0100
1000
0001
0100
0010
1000
,
0001
1000
0100
1000
0001
0000
1000
0010
0100
0010
1000
0001
0010
0001
1000
0010
,
0100
0001
1000
0100
1000
0000
0001
0010
0001
1000
0010
0100
0001
1000
0100
1000
,
0001
0100
0010
0100
0001
0000
1000
0010
1000
0001
0010
0001
1000
0100
0010
0001
,
1000
0001
0100
0001
1000
0000
0010
0100
0010
1000
0001
0010
0100
0010
0001
1000
,
0001
0100
0010
0100
0001
0000
1000
0100
0010
0001
1000
0010
1000
0001
0010
0100
,
1000
0001
0100
0001
1000
0010
1000
0001
0010
0100
0010
0001
1000
0010
0100
0010
,
1000
0001
0010
0001
1000
0000
0010
0100
0001
1000
0100
1000
0001
1000
0010
1000
,
0001
0010
0100
1000
0001
0100
0010
1000
0001
0010
0100
1000
0001
0100
0010
1000
,
0001
0000
0100
0000
0010
1000
0001
0000
,
0010
0100
1000
0010
,
0100
0000
0001
0000
0100
0010
0000
1000
,
0000
0001
0000
0010
0100
0000
1100
0000
,
0011
0000
0001
0000
0100
0010
1000
0100
,
0000
0010
0001
1000
0000
0000
0001
0000
,
0110
1000
0110
0001
,
1001
0000
0001
0000
1000
0000
0001
0000
1000
0100
0010
0001
1000
0010
0100
0001
,
1000
0001
0100
0001
1000
0001
0010
0100
0010
0001
1000
0010
0100
0001
1000
0100
,
1000
0001
0100
0010
1000
0001
1000
0100
1000
0001
0100
0001
1000
0100
0010
0100
,
1000
0001
0100
0010
1000
0001
0010
0100
1000
0001
0010
0001
1000
0010
0100
0001
,
1000
0010
1000
0100
1000
0001
0010
0001
0100
0001
1000
0010
1000
0001
0010
0001
,
1000
0010
0100
0001
1000
0100
0010
0100
1000
0001
0100
0010
1000
0001
0010
0100
,
1000
0001
0100
0001
1000
0001
0010
0100
0010
0001
1000
0010
0100
0010
1000
0001
,
0010
0001
1000
0100
1000
0001
1000
0010
0100
0001
1000
0001
0100
0001
1000
0100
,
1000
0001
0010
0100
0010
0001
0100
0001
1000
0010
0100
0001
1000
0001
0010
0100
,
1000
0001
0010
0001
1000
0001
0100
0010
0100
0001
1000
0100
0010
0001
1000
0010
,
1000
0001
0010
0100
1000
0001
1000
0010
1000
0001
0010
0001
1000
0010
0100
0010
,
1000
0001
0010
0100
1000
0001
0100
0010
1000
0001
0100
0001
1000
0100
0010
0001
,
1000
0100
1000
0010
1000
0001
0100
0001
0010
0001
1000
0100
1000
0001
0100
0001
,
1000
0100
0010
0001
1000
0010
0100
0010
1000
0001
0010
0100
1000
0001
0100
0010
,
1000
0001
0010
0001
1000
0001
0100
0010
0100
0001
1000
0100
0010
0100
1000
0001
,
0100
0001
1000
0010
1000
0001
1000
0100
0010
0001
1000
0001
0010
0001
1000
0010
,
1000
0001
0100
0010
0100
0001
0010
0001
1000
0100
0010
0001
1000
0001
0100
0010
,
1000
0000
1001
0000
0002
0023
0230
2300
,
3020
0230
0302
2003
3002
0203
0302
0023
,
0230
0000
0000
2300
0000
0000
3002
0000
,
0203
0000
0000
0320
0000
0000
2030
0000
,
3002
0000
0000
0000
,
0203
0320
2030
3002
2003
3200
0320
0032
,
1003
0000
0000
0000
0001
0100
0001
0000
0000
0000
1000
0100
1000
0000
0000
0000
,
0001
0010
0001
0000
0000
0000
1000
0010
1000
0000
0001
1000
0100
0000
0010
0001
,
2000
0000
3020
0000
0230
0000
0301
1000
,
0000
1000
0000
0001
0000
0100
0001
0010
,
0200
0000
2300
0000
3002
0000
0103
0010
,
0000
0010
0000
1000
0000
0001
0010
0001
,
0200
0000
0320
0000
2030
0000
3001
0100
,
0000
0100
0000
0010
0000
1000
0001
0010
,
0001
0011
0010
0110
,
0100
0000
1100
0000
1001
0000
1010
1000
,
0002
0203
0320
2030
3002
0023
0230
2300
,
3002
0203
0320
2030
3002
0023
0230
2300
,
3001
0100
0001
0100
0010
1000
0010
1000
0001
0010
0001
0010
0100
1000
0100
1000
,
0001
0100
0010
1000
0001
1000
0100
0010
0001
1000
0010
0100
0001
0010
0100
1000
,
0001
1000
0100
1000
0001
1000
0010
0100
0010
1000
0001
0010
0100
1000
0001
0100
,
0001
1000
0100
0010
0001
1000
0001
0100
0001
1000
0100
1000
0001
0100
0010
0100
,
0001
1000
0100
0010
0001
1000
0010
0100
0001
1000
0010
1000
0001
0010
0100
1000
,
0001
0010
0001
0100
0001
1000
0010
1000
0100
1000
0001
0010
0001
1000
0010
1000
,
0001
0010
0100
1000
0001
0100
0010
0100
0001
1000
0100
0010
0001
1000
0010
0100
,
0001
1000
0100
1000
0001
1000
0010
0100
0010
1000
0001
0010
0100
0010
0001
1000
,
0010
1000
0001
0100
0001
1000
0001
0010
0100
1000
0001
1000
0100
1000
0001
0100
,
0001
1000
0010
0100
0010
1000
0100
1000
0001
0010
0100
1000
0001
1000
0010
0100
,
0001
1000
0010
1000
0001
1000
0100
0010
0100
1000
0001
0100
0010
1000
0001
0010
,
0001
1000
0010
0100
0001
1000
0001
0010
0001
1000
0010
1000
0001
0010
0100
0010
,
0001
1000
0010
0100
0001
1000
0100
0010
0001
1000
0100
1000
0001
0100
0010
1000
,
0001
0100
0001
0010
0001
1000
0100
1000
0010
1000
0001
0100
0001
1000
0100
1000
,
0001
0100
0010
1000
0001
0010
0100
0010
0001
1000
0010
0100
0001
1000
0100
0010
,
0001
1000
0010
1000
0001
1000
0100
0010
0100
1000
0001
0100
0010
0100
0001
1000
,
0100
1000
0001
0010
0001
1000
0001
0100
0010
1000
0001
1000
0010
1000
0001
0010
,
0001
1000
0100
0010
0100
1000
0010
1000
0001
0100
0010
1000
0001
1000
0100
0010
,
0001
0100
0010
1000
0001
0010
0100
1000
0001
0100
0010
1000
0001
0010
0001
1000
,
0010
0100
0010
1000
0001
0010
0100
1000
0010
0100
0001
1000
0001
0010
0100
1000
,
0001
0100
0010
1000
0010
0100
0001
0010
0100
1000
0010
0100
0001
1000
0100
0010
,
0001
0010
0100
1000
0010
0100
0001
0010
0200
0000
0000
0000
0000
0000
0000
0000
,
1301
0001
1000
0010
1000
0001
0100
0010
,
1000
0001
0010
0100
1000
0010
0100
0001
,
0101
0000
0000
0000
1000
0010
1000
0000
0000
0000
0001
0010
0001
0000
0000
0000
,
1000
0100
1000
0000
0000
0000
0001
0100
0010
0000
1000
0001
0010
0000
0100
1000
,
0002
0000
0000
0000
,
0000
0000
0003
0000
;

//---------------dance-single - Zaia - 12(high)----------------
#NOTES:
     dance-single:
     Zaia - 12(high):
     Hard:
     12:
     1.000,1.000,0.150,0.592,0.805,873.000,19.000,75.000,0.000,1.000:
0000
0000
0000
0000
,
1000
0100
0010
0001
1000
0010
0100
0001
,
0010
0100
0010
0001
1000
0010
0100
0010
,
1000
0001
1000
0100
1000
0010
0100
0001
,
2000
0000
0000
0000
3001
0100
0001
1000
,
0020
0000
0000
0000
0000
0000
0000
0000
0130
0000
0001
1000
0010
0000
0100
0000
,
0110
0010
1000
0001
1000
0100
0010
0100
,
1000
0001
0100
0010
1000
0100
0010
0001
,
1000
0000
0001
0100
0001
0000
2000
0000
0000
0000
3010
0000
0100
0000
0001
0000
,
1000
0000
0001
0010
0001
0000
0100
0000
0000
0000
0010
1000
0001
0100
0040
0000
,
1030
0001
1000
0010
0100
0001
1000
0001
0010
0100
1000
0010
0100
0001
1000
0100
,
1000
0001
0010
0001
1000
0010
0100
0001
1000
0001
0010
0100
1000
0001
0100
0010
,
1000
0001
0010
0100
0010
0001
1000
0010
0100
0001
0010
0100
1000
0010
1000
0001
,
0010
0001
0100
0010
1000
0001
0010
0100
2000
0000
0000
3001
0100
0000
0010
0000
,
1010
1000
0001
0010
0000
0100
0000
0010
,
0000
0001
0100
0000
0010
0000
1000
0000
,
0001
0000
1000
0000
0001
0100
0001
0000
0010
0000
0100
1000
0100
0000
1000
0000
,
0001
0010
0001
0000
0100
0000
0001
1000
0001
0000
1000
0100
1000
0000
0001
0100
,
0010
1000
0001
0010
0001
0000
1000
0000
0100
0000
1000
0000
0001
0000
0100
0000
,
0001
1000
0100
1000
0001
0000
0100
0000
0010
0000
0100
0000
0001
0000
1000
0000
,
0001
1000
0001
0010
0001
0000
1000
0000
0010
0000
1000
0000
0001
0000
0010
0000
,
0001
1000
0100
1000
0001
0000
0100
0000
0010
0000
0100
0000
0001
0000
1000
0000
,
0001
0010
0100
0010
0001
0000
1000
0000
0010
0000
0100
0000
0001
0000
1000
0000
,
0100
1000
0001
0100
0001
1000
0100
0010
,
0001
1000
0010
1000
0001
0000
1000
0000
0010
0000
0100
0000
0001
0000
1000
0000
,
0001
0010
0100
1000
0001
0100
0010
1000
0001
0010
0100
1000
0001
0100
0010
1000
,
0001
1000
0100
1000
0001
0000
1000
0000
0010
0000
1000
0000
0001
0000
0010
0000
,
0100
1000
0001
0100
0001
0000
1000
0000
0010
0000
1000
0000
0001
0000
0010
0000
,
0001
0100
0010
0100
0001
0000
1000
0000
0001
0000
0010
0000
0001
0000
0100
0000
,
0001
1000
0100
1000
0001
0000
0010
0000
0100
0000
0010
0000
0001
0000
1000
0000
,
0001
0100
0010
0100
0001
0000
1000
0000
0010
0000
0100
0000
0010
0000
1000
0000
,
0001
1000
0010
1000
0001
0100
0001
1000
0100
0010
0100
1000
0001
0000
0010
0000
,
0001
1000
0100
1000
0001
0000
0100
0000
0001
0000
0010
0000
0001
0000
0100
0000
,
0001
0100
0010
1000
0001
0010
0100
1000
0001
0100
0010
1000
0001
0010
0100
1000
,
0001
0000
0100
0000
0010
1000
0001
0000
,
0010
0100
1000
0010
,
0100
0000
0001
0000
0100
0010
0000
1000
,
0000
0001
0000
0010
0100
0000
1100
0000
,
0011
0000
0001
0000
0100
0010
1000
0100
,
0000
0010
0001
1000
0000
0000
0001
0000
,
0110
1000
0110
0001
,
1001
0000
0001
0000
1000
0000
0001
0000
1000
0100
0010
0001
1000
0010
0100
0001
,
2000
0000
3100
0010
0000
0001
0100
0020
,
0000
1030
0001
0010
0000
0100
1000
0002
,
0000
0203
0000
0320
0000
2030
0000
3100
,
0010
0001
0100
0010
0000
1000
0100
0010
,
0002
0000
1003
0010
0000
0100
0001
1000
,
0000
0100
0010
0002
0000
0000
0003
0000
,
1000
0010
0100
0010
1000
0001
0100
0001
,
1000
0001
0010
0100
0010
0001
0100
0001
1000
0010
0100
0001
1000
0001
0010
0100
,
1000
0001
0010
0001
1000
0001
0100
0010
0100
0001
1000
0100
0010
0001
1000
0010
,
1000
0001
0010
0100
1000
0001
1000
0010
1000
0001
0010
0001
1000
0010
0100
0010
,
1000
0001
0010
0100
1000
0001
0100
0010
1000
0001
0100
0001
1000
0100
0010
0001
,
1000
0100
1000
0010
1000
0001
0100
0001
0010
0001
1000
0100
1000
0001
0100
0001
,
1000
0000
0100
0010
0000
0100
1000
0001
,
0000
0100
0010
2000
0000
0000
0000
3000
,
0011
0001
1010
1000
,
0011
0000
0001
0000
1000
0000
0001
0000
1000
0100
0010
0001
1000
0001
0100
0010
,
1000
0000
1001
0000
0002
0023
0230
2300
,
3020
0230
0302
2003
3002
0203
0302
0023
,
0230
0000
0000
2300
0000
0000
3002
0000
,
0203
0000
0000
0320
0000
0000
2030
0000
,
3002
0000
0000
0000
,
0203
0320
2030
3002
2003
3200
0320
0032
,
1003
0000
0000
0000
0001
0100
0001
0000
0000
0000
1000
0100
1000
0000
0000
0000
,
0001
0010
0001
0000
0000
0000
1000
0010
1000
0000
0001
1000
0100
0000
0010
0001
,
2000
0000
3020
0000
0230
0000
0301
1000
,
0000
1000
0000
0001
0000
0100
0001
0010
,
0200
0000
2300
0000
3002
0000
0103
0010
,
0000
0010
0000
1000
0000
0001
0010
0001
,
0200
0000
0320
0000
2030
0000
3001
0100
,
0000
0100
0000
0010
0000
1000
0001
0010
,
0001
0011
0010
0110
,
0100
0000
1100
0000
1001
0000
1010
1000
,
0002
0203
0320
2030
3002
0023
0230
2300
,
3002
0203
0320
2030
3002
0023
0230
2300
,
3001
0100
0001
0100
0010
1000
0010
1000
0001
0010
0001
0010
0100
1000
0100
1000
,
0001
0100
0010
1000
0001
1000
0100
0010
0001
1000
0010
0100
0001
0010
0100
1000
,
0001
0100
0001
0010
0100
1000
0001
0100
,
0010
1000
0010
0100
0001
0010
0001
0200
,
0000
0320
0000
2030
0000
3002
0000
0013
,
0100
1000
0010
0100
0000
0001
1000
0010
,
0100
0000
0001
1000
0000
0100
0010
0001
,
0000
0010
0100
1000
0001
1000
0001
1000
,
0001
0001
0100
0100
0010
0010
1000
0001
,
1000
0001
0010
0100
0010
0001
0100
0001
1000
0010
0100
0001
1000
0001
0010
0100
,
1000
0010
1000
0100
0010
0001
1000
0010
,
0100
0001
0100
0010
1000
0100
1000
0020
,
0000
0230
0000
0302
0000
2003
0000
3100
,
0010
0000
0001
0000
0100
0000
0010
0000
1000
0010
1000
0000
0001
0010
0001
0000
,
0100
0000
0001
1000
0000
0100
0010
0001
,
0000
0010
0100
1000
0001
1000
0001
1000
,
0010
0000
0100
0000
0001
1000
0000
0001
,
0100
0000
0010
0000
0100
0000
0010
0000
1000
0010
0100
0001
1000
0001
0010
0100
,
1000
0010
0100
0001
1000
0100
0010
0001
1000
0010
0100
0001
1000
0100
1000
0001
,
0100
0010
0100
0001
1000
0100
0010
0001
0100
0010
1000
0001
1000
0100
0010
0001
,
1000
0010
0100
0001
0100
0010
1000
0100
0010
0001
0100
0010
1000
0001
0010
0100
,
1000
0100
0010
0001
0100
0010
1000
0100
0020
0000
0000
0000
0000
0000
0000
0000
,
1031
1000
0001
0100
0001
1000
0010
0100
,
0001
1000
0100
0010
0001
0100
0010
1000
,
1010
0000
0000
0000
0001
0100
0001
0000
0000
0000
1000
0100
1000
0000
0000
0000
,
0001
0010
0001
0000
0000
0000
1000
0010
0100
0000
0001
1000
0100
0000
0010
0001
,
2000
0000
0000
0000
,
0000
0000
3000
0000
;

//---------------dance-single - Zaia - 11(mid-high)----------------
#NOTES:
     dance-single:
     Zaia - 11(mid-high):
     Medium:
     11:
     0.929,1.000,0.150,0.632,0.257,725.000,19.000,80.000,0.000,1.000:
0000
0000
0000
0000
,
1000
0100
0010
0001
1000
0010
0100
0001
,
0010
0100
0010
0001
1000
0010
0100
0010
,
1000
0001
1000
0100
1000
0010
0100
0001
,
2000
0000
0000
0000
3001
0100
0001
1000
,
0020
0000
0000
0000
0000
0000
0000
0000
0130
0000
0001
1000
0010
0000
0100
0000
,
0110
0010
1000
0001
1000
0100
0010
0100
,
1000
0001
0100
0010
1000
0100
0010
0001
,
1000
0000
0001
0100
0001
0000
2000
0000
0000
0000
3010
0000
0100
0000
0001
0000
,
1000
0000
0001
0010
0001
0000
0100
0000
0000
0000
0010
1000
0001
0100
0040
0000
,
1030
0010
0100
0001
1000
0100
0010
0100
,
1000
0001
1000
0010
1000
0100
0010
0001
,
1000
0100
0010
0100
1000
0010
0100
0001
,
1000
0000
0001
0000
0100
0000
0010
0000
2000
0000
0000
3001
0100
0000
0010
0000
,
1010
1000
0001
0010
0000
0100
0000
0010
,
0000
0001
0100
0000
0010
0000
1000
0000
,
0001
0000
1000
0000
0001
0100
0001
0000
0010
0000
0100
1000
0100
0000
1000
0000
,
0001
0010
0001
0000
0100
0000
0001
1000
0001
0000
1000
0100
1000
0000
0001
0000
,
0100
0000
0010
0100
0001
0000
1000
0000
0100
0000
1000
0000
0001
0000
0100
0000
,
0001
0000
0100
0001
1000
0000
0100
0000
0010
0000
0100
0000
1000
0000
0001
0000
,
1000
0000
0001
0010
0001
0000
1000
0000
0010
0000
1000
0000
0001
0000
0010
0000
,
0001
0000
0100
0001
1000
0000
0100
0000
0010
0000
0100
0000
1000
0000
0001
0000
,
1000
0000
0100
0010
0001
0000
1000
0000
0010
0000
0100
0000
0001
0000
1000
0000
,
0100
1000
0001
0100
0001
1000
0100
0010
,
0001
0000
0010
0001
1000
0000
0001
0000
0010
0000
0100
0000
1000
0000
0001
0000
,
1000
0010
0100
0001
1000
0100
0010
0001
,
1000
0000
0100
1000
0001
0000
1000
0000
0010
0000
1000
0000
0001
0000
0010
0000
,
0100
0000
1000
0100
1000
0000
0001
0000
0010
0000
0001
0000
1000
0000
0010
0000
,
1000
0000
0010
0100
0001
0000
1000
0000
0001
0000
0010
0000
0001
0000
0100
0000
,
0001
0000
0100
0001
1000
0000
0010
0000
0100
0000
0010
0000
1000
0000
0001
0000
,
1000
0000
0010
0100
0001
0000
1000
0000
0010
0000
0100
0000
0010
0000
1000
0000
,
0001
0100
0010
1000
0010
0100
0001
0010
,
0001
0000
0100
0001
1000
0000
0100
0000
1000
0000
0010
0000
1000
0000
0100
0000
,
1000
0010
0100
0001
1000
0100
0010
0001
,
1000
0000
0100
0000
0010
0001
1000
0000
,
0100
0010
0001
0100
,
0010
0000
1000
0000
0010
0100
0000
0001
,
0000
1000
0000
0100
0010
0000
0011
0000
,
1100
0000
1000
0000
0010
0100
0001
0010
,
0000
0100
1000
0001
0000
0000
1000
0000
,
0110
0001
0110
1000
,
1001
0000
1000
0000
0001
0000
1000
0000
0001
0010
0100
1000
0001
0100
0010
1000
,
0002
0000
0013
0100
0000
1000
0010
0200
,
0000
0301
1000
0100
0000
0010
0001
2000
,
0000
3020
0000
0230
0000
0302
0000
0013
,
0100
1000
0010
0100
0000
0001
0010
0100
,
2000
0000
3001
0100
0000
0010
1000
0001
,
0000
0010
0100
2000
0000
0000
3000
0000
,
0001
0100
0010
0100
0001
1000
0010
1000
,
0001
0100
0010
1000
0001
0010
0100
1000
,
0002
0000
0103
0010
0000
1000
0100
0010
,
0000
0100
1000
0010
0000
0100
0001
0020
,
0000
0230
0000
2300
0000
3002
0000
0103
,
0010
1000
0001
0010
0000
0100
1000
0001
,
1000
0000
0100
0010
0000
0100
1000
0001
,
0000
0100
0010
2000
0000
0000
0000
3000
,
0011
0001
1010
1000
,
0011
0000
0001
0000
1000
0000
0001
0000
1000
0100
0010
0001
1000
0001
0100
0010
,
1000
0000
1001
0000
0002
0023
0230
2300
,
3020
0230
0302
2003
3002
0203
0302
0023
,
0230
0000
0000
2300
0000
0000
3002
0000
,
0203
0000
0000
0320
0000
0000
2030
0000
,
3002
0000
0000
0000
,
0203
0320
2030
3002
2003
3200
0320
0032
,
1003
0000
0000
0000
0001
0100
0001
0000
0000
0000
1000
0100
1000
0000
0000
0000
,
0001
0010
0001
0000
0000
0000
1000
0010
1000
0000
0001
1000
0100
0000
0010
0001
,
2000
0000
3020
0000
0230
0000
0301
1000
,
0000
1000
0000
0001
0000
0100
0001
0010
,
0200
0000
2300
0000
3002
0000
0103
0010
,
0000
0010
0000
1000
0000
0001
0010
0001
,
0200
0000
0320
0000
2030
0000
3001
0100
,
0000
0100
0000
0010
0000
1000
0001
0010
,
0001
0011
0010
0110
,
0100
0000
1100
0000
1001
0000
1010
1000
,
0002
0203
0320
2030
3002
0023
0230
2300
,
3002
0203
0320
2030
3002
0023
0230
2300
,
3001
0100
0010
1000
0001
0010
0100
1000
,
0001
0100
0010
1000
0001
1000
0100
0010
0001
1000
0010
0100
0001
0010
0100
1000
,
0001
0100
0001
0010
0100
1000
0001
0100
,
0010
1000
0010
0100
0001
0010
0001
0200
,
0000
0320
0000
2030
0000
3002
0000
0013
,
0100
1000
0010
0100
0000
0001
1000
0010
,
0100
0000
0001
1000
0000
0100
0010
0001
,
0000
0010
0100
1000
0001
1000
0001
1000
,
0001
0001
0100
0100
0010
0010
1000
0001
,
1000
0001
0010
0100
0010
0001
0100
0001
1000
0010
0100
0001
1000
0001
0010
0100
,
1000
0010
1000
0100
0010
0001
1000
0010
,
0100
0001
0100
0010
1000
0100
1000
0020
,
0000
0230
0000
0302
0000
2003
0000
3100
,
0010
0000
0001
0000
0100
0000
0010
0000
1000
0010
1000
0000
0001
0010
0001
0000
,
0100
0000
0001
1000
0000
0100
0010
0001
,
0000
0010
0100
1000
0001
1000
0001
1000
,
0010
0000
0100
0000
0001
1000
0000
0001
,
0100
0000
0010
0000
0100
0000
0010
0000
1000
0010
0100
0001
1000
0001
0010
0100
,
1000
0010
0100
0001
1000
0100
1000
0001
,
0100
0001
1000
0100
0010
0001
1000
0010
,
1000
0001
1000
0100
0010
0100
1000
0001
,
0100
0010
0100
0001
0020
0000
0000
0000
,
1031
1000
0001
0100
0001
1000
0010
0100
,
0001
1000
0100
0010
0001
0100
0010
1000
,
1010
0000
0000
0000
0001
0100
0001
0000
0000
0000
1000
0100
1000
0000
0000
0000
,
0001
0010
0001
0000
0000
0000
1000
0010
0100
0000
0001
1000
0100
0000
0010
0001
,
2000
0000
0000
0000
,
0000
0000
3000
0000
;
