#TITLE:Cry for Eternity;
#SUBTITLE:;
#ARTIST:Dragonforce;
#TITLETRANSLIT:;
#SUBTITLETRANSLIT:;
#ARTISTTRANSLIT:;
#CREDIT:;
#BANNER:Dragonforce-ba.jpg;
#BACKGROUND:Dragonforce.jpg;
#LYRICSPATH:;
#CDTITLE:CDtitletiger.png;
#MUSIC:06 Cry For Eternity.mp3;
#OFFSET:-0.240;
#SAMPLESTART:99.980;
#SAMPLELENGTH:12.000;
#SELECTABLE:YES;
#BPMS:0.000=279.961,192.000=200.001,1024.000=170.041,1120.000=200.001;
#STOPS:;
#BGCHANGES:;
// cache tags:
#FIRSTBEAT:0.000;
#LASTBEAT:1666.000;
#SONGFILENAME:Songs/keyboard/Cry for Eternity/Cry for Eternity.sm;
#HASMUSIC:1;
#HASBANNER:1;
#MUSICLENGTH:491.442;
// end cache tags

//---------------dance-single - ----------------
#NOTES:
     dance-single:
     :
     Challenge:
     13:
     1.000,1.000,0.657,0.834,1.000,3951.000,323.000,410.000,0.000,43.000:
1001
0100
0010
0100
0001
0010
0001
1000
,
0100
0010
0001
0010
0100
1000
0001
0010
,
0001
1000
0100
1000
0010
0100
0010
1000
,
0001
0100
0010
1000
0001
0010
0100
1000
,
0011
0100
0010
1000
0010
0001
0100
0001
,
0010
1000
0100
0010
1000
0100
0010
0001
,
1000
0100
0010
0100
1000
0001
0010
0001
,
1000
0010
1000
0100
0001
0010
1000
0100
,
0011
1000
0001
1000
0010
1000
0100
1000
,
0010
1000
0100
1000
0001
0010
0001
1000
,
0010
0100
0001
1000
0100
0010
0001
0100
,
0010
1000
0001
0010
1000
0100
1000
0001
,
0110
1000
0001
1000
0010
1000
0100
1000
,
0010
1000
0100
1000
0001
0010
1000
0100
,
0001
0010
0001
0100
0001
1000
0001
0100
,
0001
0010
0001
0100
0001
0100
0010
1000
,
0101
0000
0101
1000
0011
0100
0011
0100
,
1010
0000
1010
0001
1100
0010
1100
0001
,
0110
0000
0110
1000
0101
0010
1100
0001
,
1100
0000
1100
0001
0110
0001
1010
0100
,
0011
0000
0011
1000
0110
0001
0110
1000
,
0110
0000
1010
0100
1010
0001
1010
0100
,
1010
0000
0101
0010
0101
1000
0101
0010
,
0101
0000
1001
0010
1001
0100
1001
0010
,
1001
0000
0101
0010
0101
1000
0101
0010
,
0101
0000
1100
0010
1100
0001
1100
0010
,
1100
0000
0011
1000
0011
0100
0011
1000
,
0011
0000
0110
0001
0110
1000
0110
0001
,
0110
0000
1100
0001
1100
0001
1100
0001
,
1100
0000
0110
1000
0110
1000
0110
1000
,
0110
0000
0011
1000
0011
1000
0011
1000
,
0011
0000
1100
0001
1100
0001
1100
0001
,
1100
0011
1100
0110
,
0011
1100
0110
0011
,
0110
1100
0011
0110
,
1100
0101
1010
0110
,
0101
1010
0110
0101
,
1010
0110
0101
1100
,
0110
0101
1010
0110
,
0101
0110
1010
0110
,
0011
1100
0110
0011
,
0110
0000
1100
0000
0001
0010
0001
0010
,
1100
0001
0010
0100
1001
0100
0010
0100
,
1010
0001
0100
1000
0001
0010
0100
1000
,
0011
1000
0100
1000
0101
0010
0001
1000
,
0011
1000
0100
0010
0001
0010
1000
0100
,
0011
0100
1000
0001
0110
0001
0100
0010
,
1100
0010
0001
0010
1000
0100
0010
0001
,
1100
0000
0001
0010
0001
0000
1000
0000
0010
0000
0100
0000
0001
0000
0010
0000
,
1001
0100
0020
0000
0031
0010
0200
0000
,
1301
0000
0010
0100
0010
0000
1000
0000
0001
0000
1000
0000
0010
0000
0100
0000
,
0002
0000
0000
0023
0000
0000
0230
0000
2300
0000
0000
0000
0000
0000
0000
0000
,
3011
0000
1000
0100
1000
0000
0010
0000
0001
0000
0010
0000
0100
0000
1000
0000
,
0002
0000
1003
0000
0001
0010
0100
0010
2000
0000
3001
0000
1000
0100
0010
0100
,
0002
1003
0100
0010
0001
1000
0100
0010
0001
1000
0100
0010
0001
1000
0100
0010
,
0002
2003
3020
0000
,
1030
2000
0000
3001
0010
0001
2000
0000
,
3100
0200
0000
0301
1000
0001
0020
0000
,
1030
0100
0010
0001
0010
0100
1000
0100
,
0020
0031
0100
0020
0000
0230
2300
0000
,
3001
0002
0000
1003
0010
0100
0001
1000
,
0010
0020
0000
1030
0100
1000
0001
0100
,
0020
0000
0000
0230
0000
0000
0302
0000
,
2003
3020
0030
0200
0000
0000
0000
0000
,
0301
0002
0000
1003
0010
1000
0002
0000
,
0103
0200
0000
0301
1000
0001
0020
0000
,
0030
0100
0001
1000
0010
1000
0001
0100
,
0001
1000
0100
0020
0030
0200
0000
0000
,
1300
0010
0100
0001
0100
0010
1000
0100
1000
0001
0010
0001
1000
0100
0010
0001
,
1000
0100
1000
0010
0100
0001
0010
0100
0020
0000
2030
0000
3020
0000
2030
0000
,
3001
0010
0100
1000
0100
0010
0001
0010
0100
1000
0100
0010
0001
0010
0100
1000
,
0012
0000
2003
0000
,
3200
0000
0320
0030
,
2000
0000
3001
0010
0100
1000
0010
0100
0001
0100
0010
1000
0001
1000
0010
0100
,
0010
1000
0100
1000
0001
0010
0001
1000
0010
1000
0001
0100
0002
0000
0000
0000
,
1003
0100
0010
0001
0010
0100
1000
0010
0100
0001
0100
0010
1000
0001
1000
0010
,
0100
0010
1000
0100
1000
0001
0010
0100
1000
0100
0010
0001
2000
0000
0000
0000
,
3001
0010
0100
1000
0100
0010
0001
0010
0100
1000
0001
1000
0010
0100
0010
1000
,
0100
1000
0001
0010
0001
0000
1000
0000
0012
0000
1003
0000
0010
0000
0100
0000
,
0021
0000
0230
2300
0000
0000
3002
0000
,
0223
0000
0000
0330
,
1000
0100
1000
0100
0001
0010
0001
0010
1000
0001
1000
0001
0100
0010
0100
0010
,
1000
0100
1000
0100
0001
0010
0001
0010
1000
0100
0010
0001
1000
0010
0100
0001
,
1000
0010
0100
0001
0010
0100
0001
1000
0001
0010
0100
1000
0001
0100
0010
1000
,
0001
0010
0100
1000
0001
0100
0010
1000
0010
0001
0010
0001
1000
0100
0010
0001
,
0010
0100
1000
0100
0010
0001
0010
0100
1000
0001
0010
0100
1000
0001
0010
0100
,
1000
0010
0100
0001
1000
0010
0100
0001
1000
0100
0010
0001
1000
0100
0010
0001
,
1000
0100
1000
0100
1000
0100
0010
0001
1000
0010
1000
0010
1000
0010
1000
0010
,
0001
0100
0001
0100
0010
1000
0010
1000
0001
0010
0001
0010
1000
0100
1000
0100
,
0011
0011
0011
0011
1100
1100
1100
1100
,
0110
0110
0110
0110
0101
0101
0101
0101
,
0010
0010
0002
0013
0200
0310
2000
0000
,
3100
0100
0100
0001
0001
0001
2000
0000
,
3101
0101
0101
0101
1010
1010
1010
1010
,
0110
0110
0110
0110
1001
1001
1001
1001
,
0011
0011
0011
0011
1100
1100
1100
1100
,
0001
0010
0001
0010
1000
0100
1000
0100
0001
1000
0001
1000
0010
0100
0010
0100
,
0011
2000
3200
0320
,
1032
0000
2003
3020
0000
0000
0230
0000
,
0301
0010
0001
1000
0100
1000
0010
0100
0010
1000
0001
1000
0100
0010
0001
0010
,
0100
1000
0001
1000
0010
0100
0010
1000
0001
0000
0001
0000
2000
0000
0000
0000
,
3011
0002
0023
0230
,
2301
0000
3002
0203
0000
0300
0002
0000
,
2103
0000
3011
0011
1100
1100
0110
0110
,
0101
0101
1010
1010
0101
0101
0110
0110
,
0120
0000
0131
0101
1010
1010
0110
0110
,
0001
1000
0001
1000
0100
0010
0100
0010
0001
0000
0100
0000
0100
0000
0100
0000
,
1000
0000
0001
0000
1000
0100
0010
0000
0001
0000
1000
0000
0010
0000
0100
0000
,
0001
0000
1000
0000
0100
0010
0001
0000
1000
0000
0010
0000
1000
0000
0100
0000
,
0001
0000
0100
0000
0001
0100
0001
0000
1000
0000
0010
0000
0100
0000
0001
0000
,
1000
0000
0100
0000
1000
0100
1000
0000
0001
0000
0010
0000
0100
0000
1000
0000
,
0010
0000
0100
0000
0010
0100
0010
0000
1000
0000
0010
0000
0100
0000
0001
0000
,
0100
0000
0001
0000
0100
0001
0100
0000
0010
0000
1000
0000
0001
0000
0100
0000
,
0001
0000
1000
0000
0001
1000
0001
0000
0100
0000
1000
0000
0100
0000
0010
0000
,
1000
0100
0010
0001
1000
0100
1000
0100
0001
0010
0100
1000
0001
0010
0001
0010
,
1000
0000
0100
0000
1000
0100
1000
0000
0001
0000
0100
0000
0010
0000
1000
0000
,
0001
0000
0010
0000
0001
0010
0001
0000
1000
0000
0100
0000
0010
0000
0001
0000
,
0100
0000
0010
0000
0100
0010
0100
0000
0001
0000
0100
0000
1000
0000
0010
0000
,
0001
0000
0100
0000
0001
0100
0001
0000
1000
0000
0100
0000
0010
0000
0001
0000
,
1000
0100
0010
0001
0010
0100
1000
0100
1000
0001
0010
0001
0100
0010
0100
0001
,
1000
0001
0100
0010
1000
0010
0100
0001
1000
0100
0010
0001
1000
0100
0010
0001
,
1100
0000
2000
0000
,
3020
0000
0230
0000
,
1301
0010
0100
1000
0100
0010
0001
0100
0001
1000
0010
1000
0001
0010
0001
1000
,
0100
1000
0010
0100
0010
1000
0100
1000
0001
0100
0001
1000
0100
0010
0001
1000
,
0001
0010
0001
0010
1000
0100
1000
0100
0001
1000
0001
1000
0010
0100
0010
0100
,
0001
0010
0001
0010
1000
0100
1000
0100
0001
1000
0001
1000
0010
0001
0010
0001
,
1000
0100
0010
0001
1000
0100
0010
0001
0100
0010
0100
0010
0001
0010
0100
1000
,
0001
0010
0100
1000
0010
0100
0010
0100
0010
1000
0010
1000
0001
1000
0020
0030
,
0000
2000
0000
3200
0320
0032
0023
0230
,
0300
0002
0000
0023
0230
2300
3200
0000
,
1300
0010
1000
0010
0100
0001
0100
0001
1000
0100
1000
0100
0001
0010
0001
0010
,
1000
0001
1000
0001
0100
0010
0100
0010
1000
0100
1000
0100
0001
0010
0001
0010
,
1000
0001
1000
0001
0100
0010
0100
0010
0001
0100
0001
0100
1000
0010
1000
0010
,
0100
0001
1000
0010
0100
1000
0100
1000
0001
0010
0001
0010
1000
0001
1000
0001
,
0100
0010
1000
0001
1000
0100
0010
0001
1000
0100
0010
0001
0010
0100
1000
0100
,
0010
0001
0100
0001
0100
0001
0100
0001
1000
0010
0100
0010
0100
0010
0100
0010
,
2000
3200
0000
0301
0100
0010
1000
0100
,
0002
0000
0023
0000
0000
0000
1030
0000
0100
0000
0010
0000
1000
0100
1000
0100
,
0002
0003
0020
0030
2000
3200
0320
0000
,
2032
0000
0000
0000
0000
0000
0000
3003
,
1000
0100
0010
0001
0010
0100
1000
0010
0100
0001
0100
0010
1000
0001
1000
0010
,
0100
0010
1000
0100
1000
0001
0010
0001
1000
0100
0010
0001
0020
0000
0000
0000
,
1030
0100
0010
0001
1000
0100
1000
0001
0010
0001
0100
0010
0100
0001
1000
0001
,
1000
0100
0010
0001
1000
0100
0010
0001
0010
0100
1000
0100
0020
0000
0000
0000
,
0031
0100
0010
1000
0010
0100
0001
0100
0010
1000
0100
0010
0001
0010
0100
1000
,
0001
1000
0010
0100
0010
1000
0001
0000
0200
0000
1300
0000
0010
0000
0010
0000
,
2100
0000
0000
3200
0000
0000
0302
0000
,
0023
0000
0030
0000
,
1000
0100
1000
0100
0001
0010
0001
0010
1000
0001
1000
0001
0100
0010
0100
0010
,
0001
0100
0001
0100
0010
1000
0010
1000
0001
0010
0001
0010
1000
0100
1000
0100
,
0001
1000
0001
1000
0010
0100
0010
0100
0001
0010
0001
0010
1000
0100
1000
0100
,
0010
0001
0010
0001
1000
0010
1000
0010
0001
0100
0001
0100
0010
0001
0010
0001
,
1000
0100
0010
0001
1000
0100
0010
0001
0100
0010
0100
0010
1000
0100
1000
0100
,
0001
0010
0100
1000
0001
0010
0100
1000
0010
0100
0010
0100
0001
0010
0001
0010
,
1000
0100
1000
0100
0001
0010
0001
0010
1000
0001
1000
0001
0100
0010
0100
0010
,
1000
0100
0010
0001
0010
0000
1000
0100
1000
0100
0001
0010
0001
0010
1000
0100
,
0011
0011
0011
0011
1100
1100
1100
1100
,
0110
0110
0110
0110
1001
1001
1001
1001
,
0100
0010
2000
3002
0023
0000
1030
0000
,
1000
1000
1000
0001
0001
0001
0200
0000
,
1310
1010
1010
1010
0101
0101
0101
0101
,
0110
0110
0110
0110
1100
1100
1100
1100
,
0011
0011
0011
0011
1001
1001
1001
1001
,
0010
0100
0010
0100
0001
0010
0100
1000
0001
0010
0001
0010
1000
0100
0010
0001
,
1010
0002
2003
3020
,
1230
0000
0302
2003
0000
0000
3020
0000
,
1030
0100
0010
0001
1000
0100
0010
0001
0010
0100
1000
0001
0010
0100
1000
0100
,
0001
0010
0001
0010
1000
0100
1000
0100
0002
0003
0200
0300
0002
0000
0000
0000
,
1013
0002
0203
2300
,
3120
0000
0000
0032
0000
0000
2003
0000
,
3012
0000
1103
1100
0110
0110
0011
0011
,
1100
1100
0101
0101
1010
1010
0110
0110
,
0102
0000
1013
1010
0110
0110
0101
0101
,
1000
0010
1000
0010
0100
0001
0100
0001
0010
0100
0010
0100
0001
0010
0001
0010
,
0001
0000
0100
0000
1000
0010
1000
0000
0100
0000
0010
0000
0001
0000
1000
0000
,
0100
0000
0010
0000
1000
0001
1000
0000
0001
0000
0010
0000
0100
0000
1000
0000
,
0010
0000
0001
0000
1000
0100
1000
0000
0010
0000
0100
0000
0010
0000
1000
0000
,
0010
0000
1000
0000
0100
0001
0100
0000
0010
0000
0100
0000
0001
0000
1000
0000
,
0001
0000
0010
0000
1000
0100
1000
0000
0001
0000
0100
0000
0010
0000
1000
0000
,
0100
0000
1000
0000
0001
0010
0001
0000
1000
0000
0010
0000
0100
0000
0001
0000
,
0100
0000
0010
0000
0001
1000
0001
0000
1000
0000
0100
0000
0010
0000
0001
0000
,
1000
0000
0010
0000
1000
0100
0010
0001
1000
0100
1000
0100
0001
0010
0100
1000
,
0001
0000
1000
0000
0010
0100
0010
0000
1000
0000
0010
0000
0100
0000
0001
0000
,
1000
0000
0100
0000
0010
0001
0010
0000
0001
0000
0100
0000
0010
0000
1000
0000
,
0010
0000
1000
0000
0100
0001
0100
0000
1000
0000
0010
0000
0001
0000
0100
0000
,
1000
0100
0010
0000
0001
0010
0100
0000
0010
0100
1000
0000
0100
0010
0001
0000
,
1000
0100
0010
0001
1000
0100
1000
0100
0001
0010
0100
1000
0001
0010
0001
0010
,
1000
0100
0010
0001
0010
0100
1000
0100
0010
0001
0010
0100
1000
0100
0010
0001
,
1100
0000
2000
0000
,
3020
0000
0230
0000
,
0301
0010
0100
1000
0001
0010
0001
1000
0100
1000
0010
0100
0010
1000
0100
0010
,
0001
0100
0001
0100
0010
1000
0010
1000
0001
0010
0001
0010
1000
0100
1000
0100
,
0001
1000
0001
1000
0010
0100
0010
0100
0001
0010
0001
0010
1000
0001
1000
0001
,
0100
0010
0100
0010
1000
0100
1000
0100
0010
1000
0010
1000
0001
0100
0001
0100
,
1000
0100
0010
0001
1000
0100
0010
0001
1000
0100
1000
0100
0001
0010
0001
0010
,
1000
0100
0010
0001
0010
0200
1300
0100
1000
0100
0010
0001
0010
0200
1300
0100
,
0000
0000
2000
0000
0000
0000
3200
0000
0302
0000
0023
0000
1030
0100
2000
0000
,
3000
0000
0002
0000
0000
0000
2003
0000
3001
0010
0100
1000
0002
0000
0000
0000
,
1003
0100
1000
0100
0001
0010
0001
0010
1000
0001
1000
0001
0100
0010
0100
0010
,
0001
0100
0001
0100
0010
1000
0010
1000
0001
0010
0001
0010
1000
0100
1000
0100
,
0001
0010
0100
1000
0001
0100
0010
1000
0010
0100
0010
0100
0001
0100
0010
1000
,
0001
0010
0100
1000
0010
0100
0010
0100
0001
0010
0100
1000
0001
0010
0001
0010
,
1000
0100
0010
0001
1000
0100
0010
0001
0100
0010
0100
0010
1000
0100
0010
0001
,
1000
0100
1000
0010
0100
0001
0010
0001
1000
0100
1000
0010
0001
0010
1000
0100
,
1000
2000
0000
3100
0010
0100
0001
1000
,
0002
0000
1003
0000
0200
0000
0320
0000
0031
0000
1000
0000
0001
0010
0001
0010
,
2200
3300
0000
0000
,
1000
1000
0001
1000
0000
0100
0000
0010
,
0000
0001
0000
1000
0001
0001
1000
0000
,
0100
0100
0010
0100
0000
0010
0000
0001
,
0000
1000
0000
0100
0010
0010
0100
0000
,
1000
1000
0100
1000
0000
0010
0000
0001
,
0000
0010
0000
1000
0100
0100
1000
0000
,
0001
0001
0010
0001
0000
1000
0000
0010
,
0100
0100
0001
0000
2000
0000
0000
0000
,
3010
0010
1000
0010
0000
0001
0000
1000
,
0000
0010
0000
0010
1000
1000
0010
0000
,
0001
0001
0100
0001
0000
1000
0000
0010
,
0000
1000
0000
0001
0100
0100
0001
0000
,
0100
0100
0010
0100
0000
1000
0000
0001
,
0000
0010
0000
0100
0010
0010
0100
0000
,
0010
0010
0001
0010
0000
1000
0000
0100
,
0001
0001
0100
0000
0020
0000
0000
0000
,
1030
1000
0100
0010
0001
0001
1000
0100
,
0010
0100
0001
0100
0010
0010
1000
0100
,
0001
0001
0010
0100
1000
1000
0001
0010
,
0100
0010
1000
0010
0100
0100
0001
0010
,
0100
0100
1000
0001
0010
0010
1000
0100
,
0001
0010
1000
0100
0001
0001
0100
0010
,
1000
1000
0001
0100
0010
0010
1000
0100
,
0010
0001
0100
0001
1000
0100
0010
0001
,
0010
0010
1000
0100
0010
0010
1000
0100
,
0001
0010
1000
0010
0100
0100
0010
0001
,
1000
0010
0100
0001
1000
0100
1000
0001
,
0001
0001
0001
1000
1000
1000
0001
0100
,
0010
0010
0100
0010
0100
0100
0001
1000
,
0100
1000
0001
0001
0010
1000
0001
0100
,
0010
0010
0001
1000
0100
0100
1000
0100
,
0010
0100
1000
0001
1000
1000
0010
0100
,
0001
0001
1000
0100
0010
0010
1000
0100
,
0010
0001
0100
0010
0001
0001
0010
1000
,
0100
0100
0001
1000
0010
0010
1000
0100
,
0010
0001
0100
1000
0010
0010
1000
0100
,
0001
0001
1000
0100
0010
0010
1000
0100
,
0010
0100
1000
0001
0100
0100
0010
1000
,
0100
0100
0001
0100
0010
0010
1000
0100
,
0010
0010
1000
0100
0010
0001
0010
0100
,
1000
1000
0001
0100
0010
0100
0001
0100
,
1000
1000
0100
0010
0001
1000
0001
0010
,
0001
0001
1000
0100
0010
0100
0001
1000
,
1000
1000
0010
0100
0001
0001
1000
0100
,
0001
0001
1000
0100
0010
0100
1000
0001
,
1000
0100
0010
0100
0001
0001
1000
0100
,
1000
1000
0100
0001
0010
0100
0010
0100
,
0001
1000
0100
0010
0001
1000
0001
1000
,
0021
0000
0031
0100
1000
0100
0010
0001
0010
0100
1000
0100
0010
0001
1000
0010
,
2100
0000
3001
0010
0100
1000
0100
0010
0001
0100
0010
1000
0010
0002
0000
0000
,
1203
0000
0301
0010
0100
1000
0100
0010
0001
0100
0010
1000
0010
0100
0001
1000
,
0110
0001
1000
0010
0100
0010
1000
0100
0010
0001
0100
0010
0100
1000
0100
0010
,
0102
0000
1003
0100
0010
0001
1000
0100
0010
0001
0010
0100
1000
0100
0010
0001
,
0110
1000
0001
1000
0010
0001
0010
0001
1000
0100
1000
0100
0020
0000
0000
0000
,
2130
0000
3001
0010
0100
1000
0100
0010
0001
0100
0010
1000
0010
0100
0001
1000
,
0110
0001
1000
0100
0010
0001
1000
0100
0010
0001
0010
0001
1000
0100
1000
0100
,
0002
0000
0000
0203
0320
0000
0000
0000
,
0000
0000
2030
3200
,
0302
0000
0203
0000
0320
0000
2030
0000
3200
0000
0320
0000
,
0032
0000
0000
0000
,
1003
0100
0010
0001
1000
0010
0100
0001
1000
0100
0001
0010
0001
1000
0100
0010
,
0001
0010
0001
0000
1000
0100
2000
0000
3002
0000
1003
0100
0010
0001
0010
0000
,
2000
0000
0000
0000
0000
0000
0000
0000
0000
0000
0000
0000
0000
0000
0000
0000
0000
0000
0000
0000
0000
0000
0000
0000
3000
0000
0000
0000
0000
0000
0000
0000
2000
0000
0000
0000
0000
0000
0000
0000
0000
0000
0000
0000
0000
0000
0000
0000
0000
0000
0000
0000
0000
0000
0000
0000
0000
0000
0000
0000
0000
0000
0000
0000
0000
0000
3000
0000
0000
0000
0000
0000
0200
0000
0000
0000
0000
0000
0000
0000
0000
0000
0000
0000
0000
0000
0000
0000
0000
0000
0000
0000
0000
0000
0000
0000
0320
0000
0000
0000
0000
0000
0000
0000
0000
0000
0000
0000
0000
0000
0000
0000
0000
0000
0000
0000
0000
0000
0000
0000
0030
0000
0000
0000
0000
0000
0000
0000
0020
0000
0000
0000
0000
0000
0000
0000
0000
0000
0000
0000
0000
0000
0000
0000
0000
0000
0000
0000
0000
0000
0000
0000
0000
0000
0000
0000
0000
0000
0000
0000
0000
0000
0000
0000
0000
0000
0000
0000
0032
0000
0000
0000
0000
0000
0000
0000
0000
0000
0000
0000
0000
0000
0000
0000
0000
0000
0000
0000
0000
0000
0000
0000
,
2003
0000
3200
0320
0032
0000
0000
0000
,
2003
0000
0000
0000
0000
0000
0000
0000
0000
0000
3000
0000
2000
0000
0000
0000
3200
0000
0000
0000
0000
0320
0000
0000
,
0032
0000
0000
0000
0000
0000
0000
0000
0000
0000
0003
0000
0002
0000
0000
0000
0203
0000
0000
0000
0000
0320
0000
0000
,
2030
0000
0000
0000
0000
0000
0000
0000
0000
0000
0000
0000
0000
0000
0000
0000
0000
0000
0000
0000
0000
0000
0000
0000
3002
0000
0000
0000
0000
0000
0000
0000
0203
0000
0000
0000
0000
0000
0000
0000
0300
0000
0002
0000
0000
0003
0000
0000
,
0002
0000
2003
0000
,
3002
0000
0000
0000
0000
0000
0000
0000
0000
0000
0000
0000
0000
0000
0000
0000
0000
0000
0000
0000
0000
0003
0000
0000
0002
0000
0000
0000
0000
0000
0000
0000
0203
0000
0000
0000
0000
0000
0000
0000
0000
0000
2300
0000
0000
0000
0000
0000
,
3002
0000
0000
0000
0000
0000
0000
0000
0000
0000
0000
0000
0000
0000
0000
0000
0000
0000
0000
0000
0000
0000
0000
0000
2003
0000
0000
0000
0000
0000
0000
0000
3002
0000
0000
0000
0000
0000
0000
0000
0003
0000
0200
0000
0000
0300
0000
0000
,
0200
0000
0000
0000
0000
0000
0000
0000
0000
0000
0000
0000
0302
0000
0000
0000
2003
0000
0000
0000
3000
0100
0000
0000
,
0200
0000
0320
0000
,
0232
0000
0000
0000
,
1313
0110
0011
1100
,
1001
0100
0010
0100
0001
0010
0100
1000
0100
0010
0001
1000
0100
0010
0001
1000
,
0001
0010
0100
1000
0100
0010
0001
1000
0010
0100
0001
0100
0010
1000
0100
1000
,
0001
0000
0010
0000
0100
0000
1000
0000
0100
0000
0010
0000
0001
0000
0000
0010
0000
0000
0001
0000
0000
1000
0000
0000
0001
0000
0010
0000
0100
0000
1000
0000
0010
0000
0100
0000
0001
0000
0000
1000
0000
0000
0100
0000
0000
0010
0000
0000
,
0001
0000
1000
0000
0100
0000
0010
0000
0001
0000
1000
0000
0001
0000
0000
0010
0000
0000
0100
0000
0000
1000
0000
0000
0001
0000
0100
0000
0010
0000
1000
0000
0010
0000
0100
0000
0001
0000
0000
0100
0000
0000
0010
0000
0000
1000
0000
0000
,
0001
0010
0100
1000
0100
0010
0001
1000
0010
0100
0010
0100
0001
0010
0001
0010
,
1000
0100
1000
0100
0001
0010
0100
1000
0100
0010
0001
1000
0100
0010
0001
1000
,
0001
0010
0100
1000
0100
0010
0001
0010
0100
1000
0100
0010
0001
0010
0100
1000
0100
0010
0001
0010
0100
1000
0100
0010
,
0001
1000
0001
0100
0010
0100
0001
0010
0001
1000
0100
0010
0001
0010
0100
1000
,
0001
0000
0000
0010
0000
0000
0100
0000
0000
1000
0000
0000
0001
0000
0000
0010
0000
0000
0100
0000
0000
1000
0000
0000
0001
0000
0000
0000
0001
0000
0000
0000
0020
0000
0000
0000
1030
0000
0000
0000
1000
0000
0000
0000
0200
0000
0000
0000
,
1300
0000
0000
0100
0000
0000
0010
0000
0000
0001
0000
0000
1000
0000
0000
0100
0000
0000
0010
0000
0000
0001
0000
0000
0100
0000
0000
0000
0100
0000
0000
0000
0020
0000
0000
0000
0031
0000
0000
0000
0001
0000
0000
0000
2000
0000
0000
0000
,
3002
0023
0000
1030
0100
0010
0001
1000
,
0200
0302
0003
2000
3020
0000
0000
0000
,
1030
0100
0010
0001
0010
0200
0000
0000
0301
0010
0100
1000
0100
0020
0000
0000
,
2030
0000
3001
0000
0001
0000
0001
0000
0020
0000
0200
0300
0200
0300
0200
0300
,
0032
0000
0000
2003
0000
0000
0000
0000
0000
3200
0000
0000
0320
0000
0000
0000
0032
0000
0000
0000
2003
0000
0000
0000
,
3001
0010
0100
1000
0100
0010
0001
0010
0100
1000
0100
0010
0001
0010
0100
1000
0100
0010
0001
0010
0100
1000
0100
0010
,
0001
0010
0100
1000
0001
0010
0001
0010
1000
0100
0010
0001
1000
0100
1000
0100
,
0001
0010
0100
1000
0100
0010
0001
1000
0001
0010
0100
1000
0001
1000
0100
1000
,
0001
0010
0100
1000
0010
0100
0010
0100
0001
0010
0100
1000
0001
0100
0010
1000
,
0001
0100
0010
1000
0001
0100
0010
1000
0100
0010
0001
0010
0100
1000
0100
0010
,
0001
1000
0100
0010
0001
0100
0010
1000
0001
0100
0010
1000
0001
0100
0010
1000
,
0002
0000
0000
0000
1003
0100
0010
0001
1000
0200
0000
0000
0301
0010
0100
1000
,
0001
0100
0010
1000
0010
0100
0001
1000
0010
0100
0010
1000
0100
1000
0001
0010
,
1000
0100
0010
0001
1000
0100
0010
0001
0010
0100
1000
0001
0100
0010
1000
0100
,
0002
0000
0023
0030
0000
0000
2000
0000
0000
0000
3200
0000
0000
0000
0320
0000
,
0032
0000
2003
3000
0000
0000
0002
0000
0000
0000
0203
0000
0000
0300
0200
0000
,
2300
0000
3200
0300
0000
0000
0002
0000
0000
0000
2003
0000
3020
0000
0000
0000
,
0032
0000
2003
3000
0000
0000
0200
0000
0000
0000
0000
0000
0000
0000
0000
0000
,
0301
0010
0100
1000
0100
0010
0001
0010
1000
0100
0010
0001
0010
0100
1000
0100
,
0001
0100
0001
1000
0010
1000
0001
0010
0001
1000
0100
1000
0001
0010
0100
1000
,
0022
0000
0000
0000
,
0000
0000
0000
0000
,
1033
0100
0001
0010
1000
0001
0100
0010
1000
0100
0010
0001
0010
0100
1000
0010
,
1000
0100
0010
0001
1000
0100
0010
0001
1000
0010
0100
0001
1000
0010
0100
0010
,
0001
0010
0100
1000
0001
0010
0100
1000
0001
0010
0001
0010
1000
0100
1000
0100
,
0001
0010
0100
1000
0100
0010
0001
1000
0010
0100
0010
0100
0001
0010
0001
0010
,
1000
0100
1000
0100
0001
0010
0100
1000
0001
0010
0100
1000
0010
0100
0010
0100
,
0001
0010
0100
1000
0001
0010
0100
1000
0001
0010
0001
1000
0100
1000
0010
0100
,
0001
0010
0001
0010
1000
0100
1000
0100
0001
0010
0100
1000
0100
0010
0001
1000
,
0220
0000
0000
0000
0000
0000
0000
0000
0000
0000
0000
0000
0000
0000
0000
0330
,
2000
0000
0000
0000
3000
0000
0200
0000
0300
0000
0000
0000
0020
0000
0000
0030
,
0020
0000
0000
0000
0000
0000
0000
0030
0002
0000
0000
0000
0203
0000
0000
0000
,
0320
0000
0000
2030
0000
0000
3200
0000
,
0302
0000
0000
0023
0000
0000
0000
0000
,
0030
2000
3200
0320
,
0031
0100
0001
0100
0010
0100
0001
1000
0010
1000
0100
0010
,
0002
0000
0000
0203
0000
0000
0302
0000
0000
0203
0000
0000
0310
0000
1000
0000
0100
0000
0001
0000
0010
0000
0100
0000
,
2000
0000
3002
0000
2003
0000
3002
0000
2003
0000
3100
0000
2000
0000
0000
3000
,
1000
0100
0010
0001
0010
0100
1000
0100
0010
0001
0010
0001
1000
0100
0010
0001
0010
0100
1000
0100
0010
0001
0010
0100
,
1000
0100
0010
0001
1000
0100
0010
0001
1000
0100
0010
0001
1000
0100
1000
0100
0010
0001
1000
0010
0100
0010
0100
0010
,
0001
0010
0100
1000
0001
0010
0100
1000
0100
1000
0100
0010
0001
1000
0100
0010
0001
0010
0100
1000
0100
0010
0001
1000
,
0001
0010
0100
1000
0100
0010
0001
1000
0100
0010
0001
0010
0100
1000
0001
0010
0100
1000
0100
0010
0001
1000
0100
0010
,
0002
0000
0023
0030
1000
0010
0100
0010
2000
0000
3200
0300
1000
0100
0010
0001
,
0200
0000
0320
0030
1000
0010
0100
0001
2000
0000
3200
0300
0020
0000
0000
0000
,
1030
0100
1000
0100
1000
0100
1000
0100
1000
0010
1000
0010
1000
0010
1000
0010
,
1000
0001
1000
0001
1000
0001
1000
0001
0100
0010
0100
0010
0100
0010
0100
0010
,
2001
0000
0000
3200
0000
0000
0320
0000
,
0132
0000
2003
3002
,
0213
0000
0000
2300
0000
0000
3200
0000
,
1320
0000
0000
0030
0000
0000
2000
0000
,
3102
0000
0000
0023
0000
0000
0230
0000
,
2300
0000
0000
3020
0000
0000
0230
0000
,
2302
0000
3200
0320
0000
0000
0000
0000
,
0000
0033
0000
0000
,
2100
0000
0000
3200
0000
0000
0302
0000
,
0123
0000
0000
2030
0000
0000
3002
0000
,
1023
0000
0230
0302
0000
0000
2003
0000
,
3120
0000
0000
0030
,
0101
2000
3200
0320
,
0032
0000
0023
0230
0000
0000
2300
0000
,
3012
0000
2003
0000
,
3020
0000
0000
0030
,
1100
0002
0203
0320
,
2031
0000
3200
0320
0000
0000
0032
0000
,
1003
0100
1000
0001
0010
0001
0100
0010
0100
0001
0010
0100
1000
0100
0010
0001
,
1000
0100
0010
0001
1000
0100
0010
0001
0010
0100
1000
0100
0001
0010
0001
0010
,
1100
0002
0023
0230
,
2310
0000
3200
0302
0000
0003
2000
0000
,
3012
0000
1103
1100
0110
0110
0011
0011
,
0110
0110
1100
1100
0110
0110
1001
1001
,
0210
0000
1310
1010
0101
0101
0110
0110
,
1000
0100
0010
0001
1000
0100
0010
0001
0010
0100
1000
0001
0100
0000
0010
0000
,
0001
0000
1000
0000
0001
1000
0001
0000
1000
0000
0100
0000
0010
0000
0001
0000
,
1000
0000
0100
0000
0001
0010
0001
0000
1000
0000
0010
0000
0100
0000
0001
0000
,
1000
0000
0010
0000
1000
0010
1000
0000
0001
0000
0100
0000
0010
0000
1000
0000
,
0001
0000
0010
0000
1000
0100
1000
0000
1000
0000
0100
0000
0001
0000
0010
0000
,
0100
0000
0010
0000
0100
0010
0100
0000
1000
0000
0001
0000
0100
0000
0010
0000
,
1000
0000
0001
0000
0100
0010
0100
0000
1000
0000
0010
0000
0100
0000
0001
0000
,
1000
0000
0100
0000
1000
0100
1000
0000
0001
0000
0010
0000
0100
0000
1000
0000
,
0001
0010
0001
0010
1000
0100
0010
0001
1000
0100
1000
0100
0001
0010
0100
1000
,
0001
0000
0010
0000
1000
0100
1000
0000
0001
0000
0010
0000
1000
0000
0100
0000
,
0010
0000
1000
0000
0010
1000
0010
0000
1000
0000
0010
0000
0001
0000
0100
0000
,
0010
0000
0100
0000
0001
1000
0001
0000
1000
0000
0100
0000
0010
0000
0001
0000
,
0010
0100
0010
0000
1000
0100
0010
0000
0001
0010
0100
0000
0010
0100
1000
0000
,
0001
0010
0100
1000
0100
0010
0001
1000
0001
0010
0100
1000
0100
0010
0001
1000
,
0010
0100
0010
0100
0001
0010
0001
0010
1000
0100
1000
0100
0001
0010
0100
1000
,
0011
0000
2000
0000
,
3002
0000
0203
0000
,
0301
0000
0001
0000
0100
0000
0001
0000
0001
0010
0100
0000
1000
0100
0010
0000
,
2000
0000
3200
0300
0000
0000
0002
0000
0003
0000
2000
0000
0000
0000
3000
0000
,
0001
0000
0001
0000
0100
0000
0002
0003
0000
0000
2000
0000
3000
0000
0002
0000
,
0000
2003
3020
0000
0000
0000
0000
0000
,
1030
0100
2000
3000
0001
0010
0200
0000
0301
0010
0002
0003
1000
0100
0020
0000
,
1030
0100
0010
0001
0010
0100
1000
0100
0010
0001
0010
0100
1000
0100
0010
0001
,
1000
0100
1000
0100
0001
0010
0100
1000
0010
0100
0010
0100
0001
0010
0100
1000
,
0001
0010
0100
1000
0001
0010
0100
1000
0010
0100
0010
1000
0100
1000
0001
0010
,
1000
0100
1000
0100
0001
0010
0001
0010
1000
0001
1000
0001
0100
0010
0100
0010
,
0001
0100
0001
0100
1000
0010
1000
0010
0001
1000
0001
1000
0100
0010
0100
0010
,
1000
0100
0010
0001
0100
0010
0100
0010
0001
0010
0100
1000
0001
0010
0001
0010
,
0001
0010
0100
1000
0010
0100
0010
0100
1000
0100
0010
0001
0200
0000
0000
0000
,
0310
0000
0010
0000
0100
0000
0020
0030
0000
0000
2000
3000
0000
0000
0002
0000
,
0003
0000
2000
3000
0200
0300
0020
0030
0000
0000
0002
0000
0000
0000
0000
0000
,
2023
0000
0000
0000
,
3031
0100
0010
1000
0010
0001
0010
0001
1000
0010
0100
0001
0100
1000
0100
1000
,
0002
0013
0100
1000
0200
0000
0301
1000
0100
0010
0002
0003
1000
0100
1000
0100
,
0002
0013
0001
1000
0200
0301
0010
0000
1000
0100
1000
0100
0001
0010
0001
0010
,
2000
3100
0010
0001
2000
0000
3010
0100
0001
0010
0001
1000
0200
1300
0010
0001
,
2000
3100
1000
0000
0002
0013
0001
0000
0200
0310
0200
0300
2000
3001
2000
3000
,
0001
0010
0100
1000
0001
0010
0001
0010
1000
0100
0010
0001
1000
0100
1000
0100
,
0001
0100
0010
1000
0001
0100
0010
1000
0010
0100
0010
0100
0002
0000
2003
0000
,
3100
0010
0100
0010
1000
0100
0010
0001
0010
0100
0010
0100
0001
0010
0100
1000
,
0020
0000
0130
0000
0002
0000
1003
0000
2000
0000
3010
0100
0001
0020
0000
0000
,
2030
0000
3010
2000
0000
3001
0001
0100
,
0010
1000
0010
1000
0002
0203
0320
0000
,
0031
0001
0100
0002
0000
1003
1000
0010
,
0100
0001
0100
0001
2000
3200
0320
0000
,
1030
0100
1000
0100
0010
0100
0010
0100
0010
0001
0010
0001
1000
0100
0010
0001
,
1000
0100
0010
0001
1000
0100
1000
0100
0001
0010
0100
1000
0001
0100
0010
1000
,
0110
0001
0010
0100
1000
0100
0010
0001
0100
0010
0100
0010
2000
0000
0000
0000
,
3001
0100
0010
0100
1000
0010
0100
0010
1000
0100
0010
0001
0020
0000
0000
0000
,
1031
0100
0010
0001
1000
0100
0010
0001
1000
0100
0010
0001
0100
0010
0100
0010
,
0001
0010
0100
1000
0001
0010
0100
1000
0001
0010
0100
1000
0010
0100
0010
0100
,
1002
0100
0023
1000
0230
0001
2300
0010
,
3001
0010
0100
1000
0100
0010
0001
0010
0100
1000
0100
0010
1100
0000
1010
0000
,
0202
0000
0303
0000
;
