#TITLE:Gargoyle;
#SUBTITLE:(full veriosn);
#ARTIST:Saxxonpike;
#TITLETRANSLIT:;
#SUBTITLETRANSLIT:;
#ARTISTTRANSLIT:;
#CREDIT:;
#BANNER:gargoyle-bn.png;
#BACKGROUND:gargoyle-bg.png;
#LYRICSPATH:;
#CDTITLE:;
#MUSIC:saxxonpike+sanxion7gargoyleoriginalmix.mp3;
#OFFSET:-0.080;
#SAMPLESTART:38.710;
#SAMPLELENGTH:12.000;
#SELECTABLE:YES;
#BPMS:0.000=150.000,148.000=75.000,151.000=37.500,165.500=75.000,196.250=150.000,394.000=75.000,426.000=150.000;
#STOPS:196.250=0.100
,196.500=0.100
,197.000=0.100
;
#BGCHANGES:;
// cache tags:
#FIRSTBEAT:8.000;
#LASTBEAT:822.000;
#SONGFILENAME:Songs/toune/Gargoyle/g.sm;
#HASMUSIC:1;
#HASBANNER:1;
#MUSICLENGTH:377.660;
// end cache tags

//---------------dance-single - ----------------
#NOTES:
     dance-single:
     :
     Hard:
     12:
     1.000,1.000,1.000,0.225,1.000,2570.000,379.000,85.000,0.000,12.000:
0000
0000
0000
0000
,
0000
0000
0000
0000
,
1001
0000
0000
0000
0000
0000
0000
1100
,
0011
0000
0000
0000
0000
0000
0000
0000
0000
0000
0000
0000
0001
0100
0010
1000
0001
0000
0000
0000
0100
0000
0010
0000
0000
0000
1000
0000
0100
0000
0000
0000
,
0011
0000
1000
0100
1001
0000
0002
0010
0103
1000
0010
0100
0001
1000
0100
0000
,
1100
0000
0001
0010
1001
0000
2000
0100
3010
0001
1000
0010
0100
0001
1000
0000
,
0110
0000
0001
0010
0101
0000
2000
0010
3100
0010
1000
0001
0010
0100
1000
0000
,
0110
0000
1000
0010
1100
0000
0002
0010
0103
1000
0010
0000
0012
0000
2003
0000
,
3101
0000
1000
0001
0110
0000
2000
0001
3010
0100
0010
0100
1000
0010
0100
0000
,
0101
0000
0001
1000
0110
0000
2000
0010
3100
0001
1000
0100
1000
0010
0100
0000
,
1010
0000
0001
0010
1100
0000
0002
1000
0103
0010
0100
0010
0001
1000
0100
0000
,
1100
0000
1000
0010
0101
0000
0002
1000
0013
0100
0001
0010
0001
1000
0100
0000
,
1001
0000
0001
0000
1001
0000
1000
0100
0010
0001
1000
0000
1100
0000
0001
0010
,
0011
0000
0001
0000
0011
0000
0001
0010
0100
1000
0001
0000
1100
0000
0010
0100
,
0110
0000
0010
0000
0110
0000
1000
0010
0100
0001
0010
0000
0011
0000
1000
0100
,
1100
0000
1000
0000
1100
0000
0100
0010
0001
0100
0010
0000
0210
0000
0302
0000
,
1013
0000
1000
0000
1001
0000
1000
0010
0100
0010
1000
0000
1001
0000
0100
0010
,
1001
0000
0001
0000
1001
0000
0001
0010
0100
0010
0001
0000
1100
0000
0001
0010
,
1100
0000
1000
0000
1100
0000
0010
0001
0010
0100
1000
0000
0110
0000
1000
0001
,
0110
0000
0000
0000
0100
0000
0000
0000
0110
0000
0000
0000
0010
1000
0100
0010
0001
0000
0000
0000
1000
0000
0100
0000
0000
0000
0010
0000
0001
0000
0000
0000
,
1001
1000
0010
0100
0001
0000
1000
0000
1100
0000
0001
0010
0001
0000
1000
0000
,
1001
0001
0100
0010
1000
0000
1000
0000
1010
0000
0100
0010
0100
0000
0001
0000
,
1100
0100
0010
0001
0100
0000
0010
0000
1010
0000
0100
0001
0100
0000
0010
0000
,
0110
0100
0001
1000
0100
0000
0001
0000
0011
0000
0100
1000
0100
0000
0010
0000
,
0101
0100
0001
0010
0100
0000
1000
0000
1100
0000
0010
0001
0010
0000
0100
0000
,
1001
0100
0010
0100
0001
0000
1000
0000
1100
0000
0001
1000
0001
0000
0100
0000
,
0110
1000
0001
0100
0010
0000
1000
0000
1010
0000
0001
0100
0001
0000
1100
0000
,
0011
0001
0010
0100
1000
0000
0001
0000
0011
0000
0100
1000
0100
0000
1001
0000
,
1000
0100
1000
0100
1000
0000
0001
0000
0010
0001
0000
0010
0001
0000
1000
0000
,
0001
0100
0001
0100
0001
0000
1000
0000
0010
1000
0000
0010
1000
0000
1000
0000
,
0001
0010
0001
0010
0001
0000
0100
0000
0010
1000
0000
0100
1000
0000
0001
0000
,
1000
0010
1000
0010
1000
0000
0100
0000
0010
0001
0000
0100
0001
0000
0010
0000
,
0100
1000
0010
0100
0001
0000
1100
0000
0001
1000
0000
1000
0001
0000
1001
0000
,
0001
0010
0100
1000
0100
0000
1001
0000
0001
1000
0000
1000
0001
0000
1001
0000
,
0010
0100
1000
0001
0010
0000
1001
0000
0001
1000
0000
1000
0001
0000
1001
0000
,
2000
3200
0320
0032
0023
0230
2300
3020
0230
0302
2003
3200
0320
0032
2003
3002
,
0103
0000
0000
0000
0000
0000
0000
0000
0000
0000
0000
0000
0010
1000
0010
1000
0001
0000
0000
0000
1000
0000
0100
0000
0000
0000
1000
0000
0010
0000
0000
0000
,
0220
0000
0000
0000
0000
0000
0000
0000
0000
0000
0000
0000
0000
0000
0000
0000
0000
0000
0000
0000
0000
0000
0000
0000
0000
0000
0330
0000
1000
0001
0101
1000
,
0100
1100
0001
0010
0011
1000
0100
1100
0010
0100
0101
0101
1000
0001
0011
0100
1000
1100
0010
0110
0100
0001
1010
0010
0100
0110
1000
0110
0001
0010
0011
0100
,
1000
1100
0010
0100
0101
0010
1000
0010
0100
0110
0110
0000
0101
1000
1100
0001
0010
1100
1000
0010
0101
0010
0100
0110
1000
0010
0101
0101
1000
0100
0110
0001
,
0010
1100
0010
0100
0011
0100
1000
0011
0100
0010
0110
0110
1000
0001
0101
0010
0001
0110
0001
0110
1000
0010
0101
1000
0010
0101
1000
1100
0010
0001
1010
0100
,
0010
0000
0110
0000
0001
0000
1000
0000
1100
0000
0010
0000
0100
0000
0001
0010
0001
0000
1000
0100
0000
0010
0001
0000
1001
0000
0000
0000
0010
0000
0100
0000
0000
0000
0000
0000
0000
0000
0001
0000
1000
0000
0001
0000
0010
0000
0100
0000
0000
0000
0000
0000
0000
0000
0000
0000
1100
0000
0000
0000
0001
0000
0010
0000
,
0000
0000
0000
1000
0001
1000
0010
0100
0000
0000
0000
0000
1100
0000
0010
0100
0000
0000
0000
0010
0001
0100
0001
0010
0000
0000
0000
0000
1100
0000
0010
0100
,
0000
0000
0000
0001
1000
0010
0100
0001
0000
0000
0000
0000
1010
0000
0100
0001
0000
0000
0000
1000
0010
0100
0001
1000
0000
0000
0000
0000
0011
0000
0100
0010
,
0000
0000
0000
0001
1000
0010
0100
0001
0000
0000
0000
0000
0110
0000
0001
1000
0000
0000
0000
0001
1000
0010
0100
0010
0000
0000
0000
0000
0101
0000
0010
0001
,
0000
0000
0000
1000
0100
1000
0010
0100
0000
0000
0000
0000
1001
0000
0100
0000
0011
0000
0010
0000
0001
0000
1100
0000
0010
0000
0100
0000
0110
0000
0001
0000
,
0010
0011
1000
0100
1100
1100
0010
0100
0011
0100
0010
0110
1000
0001
0101
0010
,
0100
1010
0100
0001
0110
0110
0001
0010
0011
0100
0010
0110
0100
1100
0010
0100
,
0011
0100
1000
1100
0010
1100
0001
0010
0110
0100
1000
1100
0010
0100
0011
1000
,
0010
0200
0000
0000
0000
0000
1000
0000
1300
0001
0010
0100
1000
0010
0100
0010
,
1000
0100
1000
0001
0010
0100
0010
0001
1000
0010
0100
0001
0010
0100
1000
0010
,
0100
0001
1000
0100
0010
0000
1001
0000
1000
0010
0100
0010
1000
0010
0100
0010
,
1000
0001
0100
0001
0010
0100
1000
0010
0100
0001
0010
0001
1000
0010
1000
0010
,
0100
0001
1000
0010
0100
0000
1001
0000
0010
0001
1000
0010
0100
0001
1000
0100
,
1000
0001
1000
0010
0100
0010
1000
0001
0010
0100
1000
0010
0100
0001
0010
0001
,
1000
0001
0100
0010
1000
0001
0100
0001
0010
0100
0010
0001
1000
0010
0100
0010
,
1000
0010
0100
0001
1000
0010
0100
0001
1000
0100
0010
0001
1000
0010
1000
0001
,
1000
0000
0010
0000
0000
0000
0100
0000
1100
0001
0010
0100
1000
0010
0100
0001
,
1000
0001
0010
0001
0100
0001
0010
0100
1000
0010
0100
0001
1000
0100
0010
0100
,
0010
0001
0010
0001
0100
0000
0110
0000
1000
0100
0010
0001
1000
0100
0010
0001
,
0010
0001
1000
0010
0100
0010
1000
0001
0100
0001
0010
0001
0100
0001
1000
0010
,
0100
0001
1000
0010
1000
0000
0110
0000
1000
0001
1000
0010
0100
0001
0010
0100
,
1000
0010
0100
0001
1000
0001
0100
0001
1000
0100
0010
0100
1000
0010
0100
0010
,
1000
0001
0100
0001
0010
0100
1000
0100
0010
0001
1000
0010
0100
0010
1000
0001
,
0010
0100
1000
0010
0100
0001
1000
0100
0010
0100
0010
0100
0010
0100
0010
0100
,
0010
0100
0010
0100
0010
0100
0010
0100
0010
0000
0001
0000
0011
0000
1000
0100
,
0010
0100
1000
0010
0100
0001
0010
0100
1100
0000
0010
0000
0011
0000
0100
1000
,
0001
0100
0001
0010
0100
1000
0010
0100
0110
0000
0001
0000
1100
0000
0001
0010
,
0001
1000
0100
1000
0010
0100
0001
0010
0011
0000
0100
0000
0110
0000
1000
0001
,
0100
0010
0100
0010
1000
0001
0100
0001
1001
0000
0010
0000
1001
0000
0010
0001
,
0100
0001
0100
0010
0100
0010
1000
0010
0110
0000
1000
0000
1010
0000
1000
0100
,
1000
0010
0100
0001
1000
0100
0010
0001
0101
0000
1000
0000
0110
0000
0001
0010
,
0001
1000
0010
0100
0010
1000
0001
0100
0010
1000
0001
0100
0110
0000
1000
0001
,
1000
0000
1001
0000
1001
0000
0000
0000
0110
1000
0001
0010
0001
1000
0010
0100
,
0010
1000
0001
0100
0010
1000
0001
1000
0100
0010
0001
1000
0010
0100
0001
0010
,
0001
1000
0100
1000
0001
1000
0010
0100
0001
0010
0100
1000
0001
0100
0001
0010
,
0001
1000
0010
0100
0001
0010
0001
1000
0100
1000
0010
0100
0001
0010
0001
1000
,
0100
1000
0010
1000
0100
1000
0010
0100
0001
0010
0001
1000
0100
0010
0100
1000
,
0010
0100
0001
0100
0001
0010
0001
1000
0001
0100
0001
0010
0100
1000
0010
0100
,
0010
1000
0001
0100
0010
1000
0010
0100
0010
1000
0100
0010
0001
0010
0100
0010
,
0001
1000
0010
0100
0001
1000
0100
0010
0002
2003
3200
0320
0032
0023
0230
2300
,
3002
2003
3200
0320
0032
0023
0230
1300
2002
0000
0000
0000
0000
0000
0000
0000
,
3003
0000
0000
0000
0100
0100
0100
0100
1001
0000
0010
0000
1001
0000
0100
0000
,
1100
0000
0010
0000
0001
0010
0001
1000
0100
0000
0010
0000
0011
0000
0100
0000
,
1001
0000
0010
0000
0100
1000
0100
0010
0001
0000
0100
0000
1010
0000
0100
0000
,
0011
0000
0010
0000
0100
0001
0010
0001
1000
0000
0100
0000
0110
0000
0001
0000
,
1100
0000
0010
0000
1000
0010
0100
0001
1000
0000
0010
0000
0110
0000
0001
0000
,
1010
0000
0100
0000
0010
0100
0010
1000
0001
0000
0100
0000
1001
0000
0010
0000
,
0011
0000
0100
0000
1000
0010
0100
0010
1000
0000
0001
0000
0011
0000
0100
0000
,
1100
0000
0001
0000
0010
0100
1000
0010
0100
0000
0001
0000
0011
0000
0100
0000
,
1001
0000
0010
1000
0001
0100
0010
0100
1001
0000
0100
1000
0100
0000
0010
0001
,
0010
0000
0001
0010
0000
0010
0100
1000
0010
0100
0001
1000
0110
0000
0001
0010
,
0100
0000
1000
0010
0000
0010
0100
0001
1000
0010
0100
0001
0110
0000
1000
0010
,
0100
0000
0001
1000
0000
1000
0010
0100
0001
0010
0100
0010
1001
0000
1000
0001
,
0100
0000
0010
0100
0000
0100
0010
1000
0010
0100
0001
0010
1100
0000
0010
0100
,
1000
0000
0010
0100
0000
0100
0001
1000
0100
1000
0010
0100
0101
0000
0010
1000
,
0001
0000
0010
0001
0000
0001
0010
0100
1000
0010
0100
0001
1010
0000
1000
0010
,
0100
0000
0001
0010
0000
0010
0100
1000
0010
0100
0010
0100
0010
0100
0010
0100
,
0010
0100
0010
0100
0010
0100
0010
0100
0010
0001
0100
0101
0000
0011
0000
1100
,
0000
0110
0000
0001
0010
0100
1000
0010
0110
0001
0100
0110
0000
1010
0000
0101
,
0000
0011
0000
1000
0010
0100
0001
0010
0110
1000
0010
0110
0000
0011
0000
1000
,
0110
0100
0001
0011
0000
1100
0000
0001
0011
0100
1000
1010
0000
0101
0000
1000
,
0010
0000
0000
0000
0100
0000
0000
0000
0001
0000
0000
0000
0010
0100
1000
0001
0010
0000
0000
0000
1000
0000
0100
0000
0000
0000
1000
0000
0100
0000
0000
0000
1001
0000
0000
0000
0100
0000
0000
0000
0001
0000
0000
0000
0011
0000
0000
0000
0000
0000
0000
0000
1100
0000
0000
0000
0000
0000
0000
0000
0110
0000
0000
0000
,
0000
0011
0000
1000
0010
0100
0010
1000
0011
0100
1000
1100
0000
0110
0000
0011
,
0000
1001
0000
0010
0100
0010
1000
0001
1100
0010
0100
0110
0000
0011
0000
0010
,
0110
1000
0010
0110
0000
1010
0000
0100
0011
0100
1000
0110
0000
0011
0000
1000
,
0010
0000
0000
0000
0100
0000
0000
0000
0001
0000
0000
0000
1000
0100
0010
0001
1000
0000
0000
0000
0010
0000
0100
0000
0000
0000
0001
0000
0100
0000
0000
0000
1001
0000
0000
0000
0000
0000
0000
0000
1000
0000
0000
0000
0000
0000
0000
0000
0010
0000
0000
0000
0000
0000
0000
0000
0101
0000
0000
0000
0000
0000
0000
0000
,
0010
0110
0100
1100
0010
0011
1000
0010
,
0011
0100
1100
0110
0001
0010
0100
1100
,
0010
0110
0001
1100
0010
0110
0001
0110
,
1100
0010
0110
0101
1000
0010
0011
0110
,
1000
0011
0010
0100
1001
0010
0110
0011
,
0100
0110
0001
0110
1100
0010
0110
1001
,
0010
0000
1001
0000
1000
0000
1100
0000
0020
2030
3002
0023
0230
2300
3200
0310
,
0001
0000
0010
0100
0000
1000
0010
0000
1001
0000
0100
1000
0100
0000
0011
0000
,
0100
1000
0010
0100
0001
0000
1100
0000
0010
0001
0010
0000
0110
0000
1100
0000
,
0010
0001
0010
0100
1000
0010
0100
0001
0110
0000
1000
0010
1000
0000
0011
0000
,
1000
0100
0010
0001
0010
0000
1100
0000
0010
0001
0100
0000
0011
0000
0110
0000
,
1000
0100
0010
0001
0010
0100
0010
0100
1001
0000
0010
1000
0001
0000
0110
0000
,
1000
0000
1001
0000
0100
0000
1001
0000
0001
0010
0100
1000
0010
0000
1001
0000
,
0010
0000
0011
0000
0100
0000
1100
0000
1000
0001
0100
0000
0001
1000
0010
0000
,
1000
0100
0010
0001
0010
0100
1000
0000
0002
0023
0230
2300
3020
0230
0302
2003
,
3100
0000
0010
0001
0000
0100
0010
0000
1001
0100
0010
1000
0001
0010
0100
1000
,
0010
1000
0100
1000
0010
0100
0001
1000
0010
0100
0001
0010
0100
0010
0001
1000
,
0010
0100
0010
1000
0001
1000
0001
0010
0001
0100
0010
1000
0001
0010
0100
1000
,
0010
0100
0010
1000
0100
0010
0100
1000
0001
0100
0010
1000
0010
0100
0010
1000
,
0010
0100
0010
1000
0001
0010
0100
1000
0001
0010
0100
1000
0010
0100
0001
1000
,
0100
0010
0001
1000
0100
0010
0100
1000
0100
0010
0001
1000
0010
0100
0001
0010
,
0001
1000
0100
0010
0001
1000
0100
1000
0010
0100
0001
0010
0001
1000
0001
0100
,
0001
0010
0100
1000
0010
0100
0001
1000
0100
0010
0001
1000
0010
0100
0001
1000
,
0100
0000
0010
0001
0000
1000
0010
0000
0110
1000
0001
0010
0100
0010
0001
1000
,
0010
0100
0001
1000
0100
0010
0100
0010
0001
1000
0100
1000
0010
0100
0001
0010
,
0001
0100
0010
1000
0100
1000
0010
0100
0001
1000
0100
0010
0100
1000
0010
0100
,
0001
0010
0100
0010
0001
1000
0001
0100
0001
0010
0001
1000
0100
1000
0010
1000
,
0001
0010
0100
1000
0010
0100
0001
0010
0001
0100
0010
1000
0010
0100
0001
1000
,
0100
1000
0001
0010
0001
0100
0001
0010
0100
0010
0100
1000
0010
0100
0001
1000
,
0100
0010
0001
1000
0010
0100
0010
0100
0001
1000
0001
1000
0001
1000
0001
1000
,
0001
1000
0001
1000
0010
1000
0100
1000
0001
1000
0001
1000
0001
1000
0001
1000
,
0001
1000
0001
1000
0001
1000
0001
1000
0001
0000
1000
0000
0001
0000
1000
0000
,
0001
0010
0001
0010
0001
0010
0100
0010
,
0100
1000
0020
0130
0010
0100
0010
0100
,
0010
1000
0010
1000
0001
1000
0001
1000
,
0001
0010
0200
1300
0100
0010
0100
0010
,
0001
0100
0001
0100
0001
0010
0001
0100
,
0010
1000
0002
0103
0110
0000
0100
0000
,
0100
0000
0000
0000
0000
0000
0000
0000
0100
0000
0000
0000
0000
0000
0000
0000
0100
0000
0000
0000
0000
0000
0000
0000
0000
0000
0000
0000
0010
1000
0100
0010
,
0001
0000
1000
0010
0000
0100
0001
0000
1001
0000
1000
0000
1010
0000
0001
0010
,
0100
1000
0100
0010
0001
0000
0001
0000
0011
0000
0100
0000
1010
0000
1000
0010
,
0100
0001
0100
0010
1000
0000
0001
0000
0110
0000
1000
0000
1001
0000
1000
0010
,
0100
0010
1000
0001
0010
0000
0100
0000
1100
0000
0010
0000
0011
0000
1000
0010
,
0100
0001
0010
0100
1000
0000
0001
0000
0110
0000
1000
0000
1010
0000
0100
0010
,
0100
0001
0010
0001
1000
0000
0010
0000
0110
0000
0100
0000
1001
0000
0010
1000
,
0100
1000
0010
0100
0001
0000
0010
0000
0110
0000
1000
0000
0011
0000
0001
0010
,
0100
1000
0010
0100
0010
0000
1000
0000
0110
0000
0001
0000
0110
0000
0010
1000
,
0001
0010
0001
0100
0010
1000
0100
0010
1001
0000
1010
0000
0110
0000
0101
0000
,
1000
0010
0100
0001
0010
0100
1000
0010
0101
0000
0110
0000
1100
0000
1001
0000
,
0010
0001
0100
0010
1000
0010
0100
0001
0110
0000
1100
0000
0110
0000
1001
0000
,
0001
0010
0001
1000
0010
0100
0001
0010
0101
0000
1100
0000
0011
0000
0110
0000
,
1000
0010
0100
0001
1000
0100
0010
0001
1010
0000
0110
0000
0101
0000
0011
0000
,
1000
0010
0100
0001
1000
0010
0100
0001
0110
0000
1010
0000
1001
0000
0101
0000
,
0010
0100
0010
1000
0001
1000
0100
0010
1100
0000
0011
0000
1001
0000
1010
0000
,
0001
0010
0100
1000
0010
0100
0010
0100
0001
1000
0001
1000
0001
1000
0001
1000
,
0001
1000
0001
1000
0001
1000
0001
1000
0101
0100
0010
1000
0001
0010
0100
1000
,
0010
0100
0010
1000
0001
0010
0100
1000
0010
0100
0001
0010
1000
0010
0001
1000
,
0010
0100
0001
1000
0010
0100
0010
1000
0001
0100
1000
0100
0001
1000
0010
0100
,
0001
0010
0100
1000
0010
1000
0100
1000
0010
0100
0001
0010
0100
0001
0100
1000
,
0010
0100
0001
1000
0010
0100
0001
1000
0100
0010
0100
1000
0010
0001
0010
1000
,
0100
1000
0010
0100
0001
0100
1000
0100
0010
1000
0001
0100
0010
1000
0100
0010
,
0001
1000
0010
0100
0010
1000
0010
0100
0001
1000
0010
0100
0001
1000
0100
0010
,
1000
0010
0001
0010
0100
1000
0010
0001
0010
1000
0010
0100
0001
0010
0100
1000
,
0001
0100
0010
1000
0001
0010
0100
1000
0110
0001
1000
0100
0010
0100
1000
0010
,
0100
0010
0001
0010
0100
1000
0010
0100
0010
1000
0001
0010
0100
0001
0100
1000
,
0010
0100
0001
1000
0010
0100
0010
0001
1000
0100
0010
0001
1000
0010
0001
0010
,
0100
1000
0010
0100
0001
1000
0100
0010
0001
1000
0100
1000
0010
1000
0100
1000
,
0001
0010
0100
0010
0001
1000
0010
0100
0001
1000
0100
0010
0100
1000
0010
0100
,
0001
0010
0001
1000
0001
0100
0001
0010
1000
0010
0001
0100
0010
1000
0100
0010
,
0001
1000
0010
0100
0001
0010
0001
0100
0010
1000
0100
1000
0010
0100
0010
0001
,
0010
0000
1000
0000
0010
0000
0001
0000
1000
0000
0010
0000
0100
0000
0001
0000
0020
0000
0230
0000
2300
0000
3200
0000
0320
0000
0032
0000
1003
0010
1000
0010
,
0100
0000
0001
0010
0000
0100
1000
0000
1001
0000
1000
0001
1000
0000
0110
0000
,
0001
0010
0100
1000
0010
0000
1000
0000
1001
0000
0001
0010
0001
0000
1100
0000
,
0010
0100
0010
0001
1000
0000
0010
0000
0011
0000
0100
1000
0100
0000
0110
0000
,
0001
0010
0001
1000
0010
0000
0100
0000
0101
0000
0010
1000
0010
0000
0101
0000
,
1000
0010
0100
0000
0120
0000
1130
0000
0011
0000
0010
0100
0001
0000
1100
0000
,
0010
0001
0100
0010
0100
0000
0001
0000
1001
0000
0010
0001
0100
0000
1010
0000
,
0100
0001
1000
0010
0100
0000
0010
0000
1001
0000
0100
0010
1000
0000
0101
0000
,
0100
0001
0010
0001
1000
0000
0010
0000
1010
0000
0100
0001
1000
0000
0011
0000
,
1000
0010
0100
0000
0012
0000
1103
0000
1001
0000
1100
0000
0010
0001
1000
0100
,
0010
0000
0011
0000
1000
0000
1100
0000
0110
0000
0011
0000
1000
0010
0100
0001
,
1000
0000
0110
0000
0001
0000
0110
0000
1010
0000
1001
0000
1000
0010
0100
0001
,
1000
0000
0011
0000
0100
0000
1001
0000
0011
0000
0110
0000
0010
1000
0010
0100
,
0010
0000
1010
0000
0210
0000
1301
0000
0011
0000
0110
0000
1000
0100
0010
0100
,
1000
0000
0110
0000
0001
0000
0110
0000
1010
0000
0101
0000
0001
0010
0001
1000
,
0100
0000
0011
0000
0100
0000
1100
0000
1001
0000
0011
0000
1000
0010
0100
0010
,
1000
0000
0000
0000
0011
0000
0000
0000
0010
0000
0000
0000
0110
0000
0000
0000
1001
0000
0000
0000
0110
0000
0000
0000
0100
0000
0000
0000
0001
0100
0001
0100
,
0010
0000
1000
0100
0000
0010
0001
0000
1001
0000
1000
0000
0010
0000
2000
0000
,
3110
0001
0010
0100
1100
0010
0001
0200
,
1310
0100
0001
1000
1001
0010
0001
0020
,
0131
0010
1000
0001
0110
0001
0010
0200
,
1301
0010
2000
3002
0113
0100
1000
0020
,
1130
0001
0010
0100
1001
0100
0001
2000
,
3101
1000
0010
1000
0001
0010
0001
1000
,
0010
0000
0000
0000
0100
0000
0000
0000
0010
0000
0000
0000
0100
0000
0000
0000
0001
0000
0010
0000
0100
0000
1000
0000
0010
0000
0100
0000
0001
0000
1000
0100
,
0010
0000
0100
0000
1000
0000
0010
0000
0100
0000
0001
0000
1000
0000
0001
0010
0200
0000
0000
0000
0000
0000
0000
0000
0000
0000
0000
0000
0000
0000
0000
0000
,
0000
0000
0000
0020
0000
0000
0000
0000
,
0000
0000
0000
0000
,
0000
0000
0330
0000
;
