#TITLE:Way Of The Samurai ~Remix~;
#SUBTITLE:Jubei-Chan2 Main Theme;
#ARTIST:Masuda Toshiro;
#TITLETRANSLIT:;
#SUBTITLETRANSLIT:;
#ARTISTTRANSLIT:;
#CREDIT:;
#BANNER:jubeibanner.jpg;
#BACKGROUND:Jubei-chan.jpg;
#LYRICSPATH:;
#CDTITLE:josh sig.jpg;
#MUSIC:21_-_main_theme_(re-mix_ver.).mp3;
#OFFSET:0.000;
#SAMPLESTART:44.118;
#SAMPLELENGTH:12.000;
#SELECTABLE:YES;
#BPMS:0.000=136.000;
#STOPS:;
#BGCHANGES:;
// cache tags:
#FIRSTBEAT:2.500;
#LASTBEAT:633.000;
#SONGFILENAME:Songs/cedric step/Jubei-Chan2 ~Main Theme~/WayofSamuraiRemix.sm;
#HASMUSIC:1;
#HASBANNER:1;
#MUSICLENGTH:284.844;
// end cache tags

//---------------dance-single - ----------------
#NOTES:
     dance-single:
     :
     Hard:
     4:
     0.517,0.694,0.042,0.334,0.760,924.000,12.000,95.000,0.000,2.000:
0000
0000
0000
0000
0000
2002
0000
0000
,
0000
0000
0000
0000
0000
0000
3023
0030
0000
0100
0000
0000
1000
0000
0000
0010
,
0000
0000
0100
0000
0000
0001
0000
0010
0000
1000
0000
0000
0100
0000
0010
0000
,
0000
0100
0000
0000
1000
0000
0020
0030
0000
0100
0000
0000
0001
0000
0000
1000
,
0000
0000
0010
0000
0000
0100
0000
0001
0000
0000
1000
0000
0000
0010
0000
0100
,
0000
0000
0001
0000
0000
0010
0000
0200
0300
0000
1000
0000
0001
0000
0100
0000
,
0000
0010
0000
0000
1000
0000
0000
0100
0000
0000
0001
0000
0000
1000
0000
0010
,
0000
0000
1000
0000
0000
0100
0000
0020
0030
0000
0100
0000
0000
0001
0000
0100
,
0000
0000
0000
0000
0000
0000
1000
0000
0000
0000
0000
0000
0000
0000
0000
0010
0000
0000
0000
0000
0000
0000
0000
0000
0010
0000
0000
0000
0001
0000
0000
0000
0010
0000
0000
0000
0100
0000
0000
0000
1000
0000
0000
0000
0100
0000
0000
0000
,
0010
0000
0000
0000
0001
0000
0010
0000
0000
0100
0000
0000
1000
0000
0000
0100
0000
0000
0010
0000
0000
0000
0000
0000
0010
0000
0000
0000
0000
0000
1000
0000
0000
0000
0000
0000
0001
0000
0000
0000
0000
0000
0200
0000
0000
0000
0000
0000
,
0000
0000
0000
0000
0000
0310
0001
0010
0000
0100
0000
0000
1000
0000
0010
0000
,
0000
0100
0000
0000
1000
0000
0000
0002
0003
0100
0000
0000
0010
0000
0000
2000
,
0000
0000
0000
0000
3000
0010
0100
0010
0000
0000
1000
0000
0001
0000
0000
0010
,
0000
0000
1000
0000
0010
0000
0000
0200
0300
0000
0010
0000
1000
0000
0000
0002
,
0000
0000
0000
0000
0003
0010
1000
0100
0000
0000
0010
0000
0000
0100
0000
0001
,
0000
1000
0000
0000
0010
0000
0000
0002
0003
0000
0010
0000
1000
0000
0000
2000
,
0000
0000
0000
0000
0000
3010
0001
0100
0000
0000
0010
0100
1000
0100
0010
0001
,
0010
0100
1000
0100
0010
0000
0010
0100
0010
0000
0100
0000
0001
0000
1000
0000
,
0000
0010
0000
0000
0100
0000
0002
0000
0000
0000
0000
0000
0000
0000
0000
0000
,
0000
0000
0003
0000
0000
0010
1000
0100
0000
0000
0010
0000
1000
0000
0000
0100
,
0000
0000
0001
0000
0000
1000
0000
0010
0000
0000
0200
0000
0000
0000
0000
0000
,
0000
0000
0000
0000
0300
0010
0001
0010
0000
0000
1000
0000
0000
0001
0000
0200
,
0000
0000
0000
0000
0300
0010
1000
0010
0000
0000
0100
0000
1000
0000
0002
0000
,
0000
0000
0000
0003
0000
1000
0100
0001
0000
0010
0000
0000
1000
0000
0000
0100
,
0000
0000
0001
0000
0000
1000
0000
0010
0000
0000
0100
0000
0000
0001
0000
2000
,
0000
0000
0000
0000
3000
0010
1000
0010
0000
0000
0100
0000
0001
0000
0000
0010
,
0000
0000
1000
0000
0000
0100
0000
0020
0000
0000
0000
0000
0000
0000
0000
0000
,
0000
0000
0000
0030
0000
0001
1000
0001
0000
0010
0000
0000
1000
0000
0001
0000
,
0000
0100
0000
0000
0010
0000
0000
1000
0000
0020
0000
0000
0000
0000
0000
0000
,
0000
0000
0000
0030
0000
1000
0001
0100
0000
0000
0010
0000
0100
0000
0000
0002
,
0000
0000
0000
0003
0000
0010
1000
0100
0000
0000
0010
0000
1000
0000
0000
0200
,
0000
0000
0000
0300
0000
0001
0010
0001
0000
0010
0000
0000
1000
0000
0000
0100
,
0000
0000
0001
0000
0000
1000
0000
0010
0000
0000
0100
0000
0000
1000
0000
0002
,
0000
0000
0000
0000
1003
0100
0021
0000
1000
0000
0000
1000
0000
0000
1000
0000
,
0000
0100
0000
0000
0100
0000
0000
0100
0000
0000
0001
0000
0000
0001
0000
0000
,
0001
0000
0000
0001
0000
0000
1032
0000
0000
0100
0000
0000
0100
0000
0000
0100
,
0000
0000
1000
0000
0000
1000
0000
0000
1000
0000
0000
0010
0000
0000
0010
0000
,
0000
0010
0000
0000
0010
0003
0000
0200
0300
0000
0010
0000
0000
1000
0000
0010
,
0000
0000
0000
0001
0000
0100
1000
0010
0000
0100
0000
0000
0010
0000
1000
0000
,
0000
0001
0000
0000
0010
0000
0000
0002
0003
1000
0000
0000
0010
0000
0000
0001
,
0000
0000
0000
0100
0000
1000
0010
0100
0000
1000
0100
0010
0001
0010
0100
1000
,
0100
0010
0001
0010
0100
1000
0100
0010
0000
0000
0001
0000
0100
0000
0000
0010
,
0000
1000
0000
0000
0100
0000
0020
0000
0000
0000
0000
0000
0000
0000
0000
0000
,
0000
0000
0030
0000
0000
0100
0010
0001
0000
0010
0000
0000
1000
0000
0010
0000
,
0000
0100
0000
0000
1000
0000
0000
0001
0000
0000
0200
0000
0000
0000
0000
0000
,
0000
0000
0000
0000
0300
0010
0100
0001
0000
0100
0000
0000
0010
0000
0000
2000
,
0000
0000
0000
0000
3000
0100
0010
0001
0000
0000
0010
0000
1000
0000
0000
0002
,
0000
0000
0000
0000
0003
0010
1000
0100
0000
0000
0010
0000
1000
0000
0000
0100
,
0000
0000
0010
0000
0000
1000
0000
0001
0000
0000
0100
0000
0000
0010
0000
2000
,
0000
0000
0000
0000
0000
3010
0001
0100
0000
0000
0010
0000
1000
0000
0000
0100
,
0000
0000
1000
0000
0000
0010
0000
0200
0000
0000
0000
0000
0000
0000
0000
0000
,
0000
0000
0000
0300
0000
0100
1000
0001
0000
0000
0010
0000
0000
1000
0000
0100
,
0000
0000
0010
0000
1000
0000
0000
0010
0000
0000
0200
0000
0000
0000
0000
0000
,
0000
0000
0000
0300
0000
0010
1000
0100
0000
0000
0010
0000
1000
0000
0000
0200
,
0000
0000
0000
0000
0300
0010
1000
0001
0000
0100
0000
0000
1000
0000
0000
0020
,
0000
0000
0000
0000
0030
1000
0100
1000
0000
0000
0010
0000
0000
0100
0000
0001
,
0000
0000
1000
0000
0010
0000
0000
0100
0000
0001
0000
0100
0000
0000
2000
0000
,
0000
0000
0000
0100
3000
0010
0100
0002
0000
0000
1000
0000
0000
1000
0000
0000
,
1000
0000
0000
0010
0000
0000
0010
0000
0000
0010
0000
0000
0100
0000
0000
0100
,
0000
0003
1000
0000
0010
0000
0000
1200
0000
0000
0001
0000
0000
0001
0000
0000
,
0001
0000
0000
0301
0000
0000
0000
0020
0000
0000
1000
0000
0000
1000
0000
0000
,
1000
0000
0000
1000
0000
0030
0000
2000
0000
0000
0010
0000
0000
0010
0000
0000
,
0010
0000
0000
0100
3000
0000
0002
0000
0000
1000
0000
0000
0100
0000
0000
1000
,
0000
0010
0000
0003
1000
0000
0000
0120
0000
0001
0000
0000
1000
0000
0100
0000
,
0000
0100
0000
0000
0130
0000
1000
0000
1000
0100
1000
0100
1000
0100
0010
0001
,
0010
0100
1000
0100
0010
0001
0010
0220
0000
0330
1000
0000
0000
0000
1000
0000
,
0000
0100
0000
0100
0000
0010
0000
0010
,
0000
0001
0100
0001
0000
1000
0000
0010
,
0000
0100
0000
1000
0000
0100
0000
0001
,
0000
0000
0010
0100
0000
0100
1000
0000
0000
0000
0010
0000
0000
0000
0100
0000
,
0000
0001
0000
1000
0000
0010
0000
0100
,
0000
0001
1000
0010
0000
0100
0000
1000
,
0000
0010
0000
0001
0000
0100
0000
1000
,
0000
0000
0001
0010
0000
1000
0100
0000
0010
0000
0100
0000
0001
0000
1000
0000
,
0000
0100
0000
0010
0000
0001
0000
0100
,
0000
0000
0010
0000
0100
0000
0001
1000
0010
0000
0100
0000
1000
0000
0100
0000
,
0000
0010
0000
1000
0000
0001
0000
0100
,
0000
0000
0010
0100
0000
0100
1000
0000
0001
0000
0100
0000
0010
0000
1000
0000
,
0000
0010
0000
1000
0000
0010
0000
0100
,
0000
0001
1000
0010
0100
1000
0010
0001
,
0000
0100
0000
0010
0000
1000
0000
0100
,
0000
0000
0000
1000
0000
0000
0000
0010
0000
0000
1000
0000
0000
0100
0000
0000
,
0002
0000
0100
0000
0000
0010
1000
0200
0003
0000
0300
0000
1000
0001
0200
0000
,
0300
0010
0000
0000
1000
0000
0010
0000
0000
0100
0000
0000
1000
0000
0020
0000
,
0000
0000
0000
0000
0000
0030
0000
0001
0000
0000
0010
0000
0100
0000
0000
2000
,
0000
0000
0000
0000
0000
0000
3000
0010
0000
0000
0100
0000
0000
0001
0000
2000
,
0000
0000
0000
0000
0100
3010
0200
0000
0000
0000
0000
0300
0000
0001
1000
0020
,
0000
0000
0000
0000
0000
0030
0000
0100
0000
0000
1000
0000
0010
0000
0000
0200
,
0000
0000
0000
0000
0000
0000
0000
0000
0000
0000
0000
0000
0000
0000
0000
0001
0000
0000
0310
0000
0000
1000
0000
0000
0010
0000
0000
0000
0001
0000
0000
0000
0010
0000
0000
0000
0100
0000
0000
0000
1000
0000
0000
0000
0100
0000
0000
0000
,
0010
0001
0010
0100
1000
0100
0010
0000
0000
1000
0000
0000
0100
0000
0000
0002
,
0000
0000
0000
0000
0000
0003
0100
0010
0001
0000
1000
0000
0000
0100
0000
0000
,
0001
0000
0000
0100
0000
0010
0000
1000
0000
0000
0100
0000
0001
0000
0000
0020
,
0000
0000
0000
0000
0000
0000
0030
0100
0000
0000
0001
0000
0000
0010
0000
0000
,
1000
0000
0100
0000
0000
0010
0000
0001
0000
0000
1000
0000
0010
0000
0000
0200
,
0000
0000
0000
0000
0000
0300
0010
0000
0000
1000
0000
0000
0100
0000
0000
0001
,
0000
0000
0020
0000
0000
0000
1030
0000
0000
0000
0000
0100
0000
0010
0000
0200
,
0000
0000
0000
0000
0300
0001
0000
0010
0000
0000
1000
0000
0000
0100
0000
0002
,
0000
0000
0000
0000
0003
0000
0000
0010
0000
0100
0000
0000
0001
0000
0000
2000
,
0000
0000
0000
0000
,
0000
3000
0000
0000
0100
0000
0000
0010
0000
0000
1000
0000
0100
0000
0000
0020
,
0000
0000
0000
0000
,
0030
0000
0000
0000
0000
0100
0000
0001
0000
0000
0010
0000
1000
0000
0000
0200
,
0000
0000
0000
0000
,
0000
0000
0000
0000
0000
0300
0000
0010
0000
0001
0000
0000
1000
0000
0000
0020
,
0000
0000
0000
0030
,
0000
0000
1000
0100
0010
0001
0001
0010
0110
0000
1000
0000
0000
0010
0000
0100
,
0000
0000
0001
0000
1000
0000
0010
0000
0000
0100
0000
0000
0001
0000
1000
0000
,
0000
0010
0000
0000
0100
0000
0002
0000
0000
0000
0000
0000
0000
0000
0000
0000
,
0000
0000
0000
0010
0000
0000
0000
0000
0000
1000
0000
0000
0000
0000
0000
0103
0000
0000
0000
0000
0001
0000
0000
0000
0010
0000
0000
0000
0100
0000
0000
0000
1000
0000
0000
0000
0100
0000
0000
0000
0010
0000
0000
0000
0000
0001
0000
0000
,
0010
0100
1000
0100
0010
0001
0010
0100
0000
0000
1000
0000
0010
0000
0000
0100
,
0000
0000
0001
0000
1000
0000
0000
0010
0000
0000
0100
0000
0001
0000
0000
1000
,
0000
0000
0010
0000
0000
0100
0000
0020
0030
0000
1000
0000
0010
0000
0000
0100
,
0000
0001
0000
0000
0100
0000
0000
1000
0000
0010
0000
0000
0100
0000
0000
1000
,
0000
0001
0000
0000
0100
0000
0000
0210
0300
0001
0000
0000
1000
0000
0010
0000
,
0000
0100
0000
0000
0001
0000
1000
0000
0000
0010
0000
0000
1000
0000
0000
0100
,
0000
0001
0000
0000
0100
0000
0000
2000
3000
0001
0000
0000
0010
0000
0000
1000
,
0000
0000
0100
0000
0010
0000
1000
0100
0010
0001
0010
0100
1000
0100
0010
0001
,
0001
0010
0100
1000
1000
0100
0010
0001
0011
0000
0100
0000
0001
0000
0000
0020
,
0000
0000
0000
0000
0030
1000
0100
0001
0000
0000
0010
0000
0100
0000
0000
0001
,
0000
1000
0000
0000
0010
0000
0000
0200
0300
0000
0001
0000
0100
0000
0000
0020
,
0000
0000
0000
0000
0030
0001
0100
0010
0000
0000
1000
0000
0010
0000
0000
0100
,
0000
0001
0000
0000
0100
0000
0000
2001
3000
0000
0100
0000
0001
0000
0000
0200
,
0000
0000
0000
0000
0300
0010
1000
0001
0000
0000
0100
0000
0001
0000
0000
0010
,
0000
1000
0000
0000
0010
0000
0000
0200
0300
0000
0001
0000
1000
0000
0000
0020
,
0000
0000
0000
0000
0030
0100
0001
1000
0000
0000
0001
0010
0100
1000
0100
0010
,
0001
0010
0100
1000
0100
0010
0100
0001
0000
0000
0010
0000
1000
0000
0000
0010
,
0000
0000
0100
0000
0000
1000
0000
0002
0000
0000
0000
0000
0000
0000
0000
0000
,
0000
0000
0003
0000
0000
0000
0001
0010
0001
0000
0100
0000
0010
0000
0000
0100
,
0000
0000
0001
0000
1000
0000
0000
0010
0000
0000
0200
0000
0000
0000
0000
0000
,
0000
0000
0000
0300
0000
1000
0100
1000
0000
0100
0000
0000
0010
0000
0200
0000
,
0000
0000
0000
0000
0300
0010
1000
0001
0000
0100
0000
0000
0010
0000
2000
0000
,
0000
0000
0000
0000
3000
0010
0001
0100
0000
0000
0010
0000
1000
0000
0000
0100
,
0000
0000
0010
0000
0000
1000
0000
0010
0000
0000
0100
0000
0001
0000
0000
0020
,
0000
0000
0000
0000
0030
1000
0001
0100
0000
0000
1000
0000
0010
0000
0000
0100
,
0000
0000
0001
0000
0000
1000
0000
0020
0000
0000
0000
0000
0000
0000
0000
0000
,
0000
0000
0000
0000
0030
1000
0100
0010
0000
0001
0000
0000
0100
0000
0000
0010
,
0000
0000
1000
0000
0010
0000
0000
0100
0000
0020
0000
0000
0000
0000
0000
0000
,
0030
0000
0000
0100
0000
1000
0010
0100
0000
0000
0001
0000
0100
0000
0000
2000
,
0000
0000
0000
0000
3000
0010
0001
0100
0000
0000
0010
0000
1000
0000
0000
0002
,
0000
0000
0000
0000
0003
0100
0010
1000
0000
0000
0100
0000
0010
0000
0000
1000
,
0000
0000
0001
0000
0000
0010
0000
0100
0000
0000
0001
0000
0100
0000
0000
0020
,
0000
0000
0000
0000
0030
1000
0100
0002
0000
0000
0010
0000
0000
0010
0000
0000
,
0010
0000
0000
0010
0000
0000
1000
0000
0000
1000
0000
0000
1000
0000
0000
1000
,
0000
0000
0100
0000
0003
0000
0000
0020
0000
0000
1000
0000
0000
1000
0000
0000
,
1000
0000
0000
0130
0000
0000
0000
0200
0000
0000
0010
0000
0000
0010
0000
0000
,
0010
0000
0000
1000
0300
0000
0000
0002
0000
0000
0100
0000
0000
0100
0000
0000
,
0100
0000
0000
0010
0000
0000
0010
0000
0000
0010
0000
0003
0000
0200
0000
0000
,
0001
0000
0000
0001
0000
0300
0000
2000
0000
0000
0010
0000
0000
0010
0000
0000
,
0010
0000
0000
0100
0000
0000
0100
0000
0000
0100
0000
3000
0001
0010
0100
1000
,
0100
0010
0001
0010
0100
1000
0100
0010
2002
0000
3003
0000
0000
0000
0100
0000
,
0000
0010
0000
1000
0000
0001
0000
0100
,
0000
0010
0100
1000
0000
0001
0000
0100
,
0000
0010
0000
1000
0000
0010
0000
0001
,
0000
0000
0100
0010
0000
1000
0100
0000
0000
0000
0001
0000
0000
0000
1000
0000
,
0000
0100
0000
1000
0000
0010
0000
0100
,
0000
0001
0010
1000
0000
0010
0000
0100
,
0000
0000
1000
0000
0000
0000
0001
0000
1000
0100
0010
0001
0010
0100
1000
1000
,
0100
0010
0001
0001
0010
0100
1000
1000
0220
0000
0000
0000
0000
0000
0000
0000
,
0000
0330
0000
0000
;

//---------------dance-single - Copied from----------------
#NOTES:
     dance-single:
     Copied from:
     Challenge:
     5:
     0.611,0.806,0.098,0.295,0.992,1107.000,28.000,84.000,0.000,2.000:
0000
0000
0000
0000
0000
2002
0000
0000
,
0000
0000
0000
0000
0000
0000
3113
0000
0000
0100
0000
0000
1000
0000
0000
0010
,
0000
0000
0100
0000
0000
0001
0000
0010
0000
1000
0000
0000
0100
0000
0010
0000
,
0000
0100
0000
0000
1000
0000
0011
0000
0000
0100
0000
0000
0001
0000
0000
1000
,
0000
0000
0010
0000
0000
0100
0000
0001
0000
0000
1000
0000
0000
0010
0000
0100
,
0000
0000
0001
0000
0000
0010
0000
0110
0000
0000
1000
0000
0001
0000
0100
0000
,
0000
0010
0000
0000
1000
0000
0000
0100
0000
0000
0001
0000
0000
1000
0000
0010
,
0000
0000
1000
0000
0000
0100
0000
1010
0000
0000
0100
0000
0000
0001
0000
0100
,
0000
0000
0000
0000
0000
0000
1000
0000
0000
0000
0000
0000
0000
0000
0000
0010
0000
0000
0000
0000
0000
0000
0000
0000
0010
0000
0000
0000
0001
0000
0000
0000
0010
0000
0000
0000
0100
0000
0000
0000
1000
0000
0000
0000
0100
0000
0000
0000
,
0010
0000
0000
0000
0001
0000
0010
0000
0000
0100
0000
0000
1000
0000
0000
0100
0000
0000
0010
0000
0000
0000
0000
0000
0010
0000
0000
0000
0000
0000
1000
0000
0000
0000
0000
0000
0001
0000
0000
0000
0000
0000
0200
0000
0000
1000
0000
0000
,
0000
0000
0000
0010
0000
0310
0001
0010
0000
0100
0000
0000
1000
0000
0010
0000
,
0000
0100
0000
0000
1000
0000
0000
0011
0000
0100
0000
0000
0010
0000
0000
2000
,
0000
0000
0000
0001
3000
0010
0100
0010
0000
0000
1000
0000
0001
0000
0000
0010
,
0000
0000
1000
0000
0010
0000
0000
1100
0000
0000
0010
0000
1000
0000
0000
0002
,
0000
0000
0000
1000
0003
0010
1000
0100
0000
0000
0010
0000
0000
0100
0000
0001
,
0000
1000
0000
0000
0010
0000
0000
0101
0000
0000
0010
0000
1000
0000
0000
2000
,
0000
0000
0000
0100
0000
3010
0001
0100
0000
0000
0010
0100
1000
0100
0010
0001
,
0010
0100
1000
0100
0010
0000
0010
0100
0010
0000
0100
0000
0001
0000
1000
0000
,
0000
0010
0000
0000
0100
0000
0002
0000
0000
0000
0000
1000
0000
0000
0000
0010
,
0010
0000
0003
0010
0000
0010
1000
0100
0000
0000
0010
0000
1000
0000
0000
0100
,
0000
0000
0001
0000
0000
1000
0000
0010
0000
0000
0200
0010
0000
0000
0000
0010
,
0010
0000
0000
0001
0300
0010
0001
0010
0000
0000
1000
0000
0000
0001
0000
0200
,
0000
0000
0000
0001
0300
0010
1000
0010
0000
0000
0100
0000
1000
0000
0002
0010
,
0010
0000
0000
0103
0000
1000
0100
0001
0000
0010
0000
0000
1000
0000
0000
0100
,
0000
0000
0001
0000
0000
1000
0000
0010
0000
0000
0100
0000
0000
0001
0000
2000
,
0000
0000
0000
0001
3000
0010
1000
0010
0000
0000
0100
0000
0001
0000
0000
0010
,
0000
0000
1000
0000
0000
0100
0000
0020
0000
0000
0000
1000
0000
0000
0000
0100
,
0100
0000
0000
1030
0000
0001
1000
0001
0000
0010
0000
0000
1000
0000
0001
0000
,
0000
0100
0000
0000
0010
0000
0000
1000
0000
0020
0000
0100
0000
0000
0000
1000
,
0001
0000
0000
0130
0000
1000
0001
0100
0000
0000
0010
0000
0100
0000
0000
0002
,
0000
0000
0000
0103
0000
0010
1000
0100
0000
0000
0010
0000
1000
0000
0000
0200
,
0010
0001
0000
0310
0000
0001
0010
0001
0000
0010
0000
0000
1000
0000
0000
0100
,
0000
0000
0001
0000
0000
1000
0000
0010
0000
0000
0100
0000
0000
1000
0000
0002
,
0100
0100
0000
0010
1003
0100
0021
0000
0000
1000
0000
0000
0100
0000
0000
0001
,
0000
0000
0000
0100
0000
1000
0100
1000
0000
0100
0000
0000
1000
0000
0001
0000
,
0000
0100
0000
0000
1000
0000
1032
0000
0000
1000
0000
0000
0100
0000
0000
0010
,
0000
0000
0000
0100
0000
0010
1000
0100
0000
0000
0010
0000
1000
0000
0000
0100
,
0000
0000
1000
0000
0010
0003
0000
1100
0000
0000
0010
0000
0000
1000
0000
0010
,
0000
0000
0000
0001
0000
0100
1000
0010
0000
0100
0000
0000
0010
0000
1000
0000
,
0000
0001
0000
0000
0010
0000
0000
0101
0000
1000
0000
0000
0010
0000
0000
0001
,
0000
0000
0000
0100
0000
1000
0010
0100
0000
1000
0100
0010
0001
0010
0100
1000
,
0100
0010
0001
0010
0100
1000
0100
0010
0000
0000
0001
0000
0100
0000
0000
0010
,
0000
1000
0000
0000
0100
0000
0021
0000
0000
1000
0000
0000
0001
0000
0000
0100
,
0000
1000
0030
0000
0000
0100
0010
0001
0000
0010
0000
0000
1000
0000
0010
0000
,
0000
0100
0000
0000
1000
0000
0000
0001
0000
0000
0200
0000
0000
0010
0000
0001
,
0000
1000
0000
0010
0300
0010
0001
0000
0000
0100
0000
0000
0010
0000
0000
2000
,
0000
0000
0000
0010
3000
0100
0010
0001
0000
0000
0010
0000
1000
0000
0000
0002
,
0010
0010
0000
0100
0003
0010
1000
0100
0000
0000
0010
0000
1000
0000
0000
0100
,
0000
0000
0010
0000
0000
1000
0000
0001
0000
0000
0100
0000
0000
0010
0000
2000
,
0000
0000
0000
0001
0000
3010
0001
0100
0000
0000
0010
0000
1000
0000
0000
0100
,
0000
0000
1000
0000
0000
0010
0000
0200
0000
0010
0000
0000
1000
0000
0000
0001
,
0000
0010
0000
1300
0000
0100
1000
0001
0000
0000
0010
0000
0000
1000
0000
0100
,
0000
0000
0010
0000
1000
0000
0000
0010
0000
0000
0200
0000
0000
0001
0000
1000
,
0000
0010
0000
0301
0000
0010
1000
0100
0000
0000
0010
0000
1000
0000
0000
0200
,
0000
0000
0000
0001
0300
0010
1000
0001
0000
0100
0000
0000
1000
0000
0000
0020
,
0001
0001
0000
0100
0030
1000
0100
1000
0000
0000
0010
0000
0000
0100
0000
0001
,
0000
0000
1000
0000
0010
0000
0000
0100
0000
0001
0000
0100
0000
0100
2000
0010
,
0010
0000
0000
0100
3000
0010
0100
0002
0000
0010
0000
0000
1000
0000
0000
0100
,
0000
0000
0000
0100
0000
0010
1000
0100
0000
0000
1000
0000
0010
0000
0000
0100
,
0000
0003
1000
0000
0010
0000
0000
1200
0000
0001
0000
0000
0010
0000
0000
1000
,
0000
0000
0000
0310
0000
0001
1000
0120
0000
1000
0000
0000
0001
0000
0000
0100
,
0000
0000
0001
0000
1000
0030
0000
2100
0000
0000
0010
0000
0100
0000
0000
0001
,
0000
0000
0000
0100
3000
0100
0012
0100
0000
1000
0000
0000
0100
0000
0000
1000
,
0000
0010
0000
0003
1000
0000
0000
0120
0000
0001
0000
0000
1000
0000
0100
0000
,
0000
0100
0000
0000
0130
0000
1000
0000
1000
0100
1000
0100
1000
0100
0010
0001
,
0010
0100
1000
0100
0010
0001
0010
0220
0000
0330
1000
0000
0000
0000
1000
0000
,
0000
0100
0000
0100
0000
0010
0000
0010
,
0000
0001
0100
0001
0000
1000
0000
0010
,
0000
0100
0000
1000
0000
0100
0000
0001
,
0000
0000
0010
0100
0000
0100
1000
0000
0000
0000
0010
0000
0000
0000
0100
0000
,
0000
0001
0000
1000
0000
0010
0000
0100
,
0000
0001
1000
0010
0000
0100
0000
1000
,
0000
0010
0000
0001
0000
0100
0000
1000
,
0000
0000
0001
0010
0000
1000
0100
0000
0010
0000
0100
0000
0001
0000
1000
0000
,
0000
0100
0000
0010
0000
0001
0000
0100
,
0000
0000
0010
0000
0100
0000
0001
1000
0010
0000
0100
0000
1000
0000
0100
0000
,
0000
0010
0000
1000
0000
0001
0000
0100
,
0000
0000
0010
0100
0000
0100
1000
0000
0001
0000
0100
0000
0010
0000
1000
0000
,
0000
0010
0000
1000
0000
0010
0000
0100
,
0000
0001
1000
0010
0100
1000
0010
0001
,
0000
0100
0000
0010
0000
1000
0000
0100
,
0000
0000
0000
1000
0000
0000
0000
0010
0000
0000
1000
0000
0000
0100
0000
0000
,
0002
0000
0100
0000
0000
0010
1000
0200
0003
0000
0300
0000
1000
0001
0200
0000
,
0300
0010
0000
0000
1000
0000
0010
0000
0000
0100
0000
0000
1000
0000
0020
0000
,
0000
0000
0000
0000
0000
0030
0000
0001
0000
0000
0010
0000
0100
0000
0000
2000
,
0000
0000
0000
0000
0000
0000
3000
0010
0000
0000
0100
0000
0000
0001
0000
2000
,
0000
0000
0000
0000
0100
3010
0200
0000
0000
0000
0000
0300
0000
0001
1000
0020
,
0000
0000
0000
0000
0000
0030
0000
0100
0000
0000
1000
0000
0010
0000
0000
0200
,
0000
0000
0000
0000
0000
0000
0000
0000
0000
0000
0000
0000
0000
0000
0000
0001
0000
0000
0310
0000
0000
1000
0000
0000
0010
0000
0000
0000
0001
0000
0000
0000
0010
0000
0000
0000
0100
0000
0000
0000
1000
0000
0000
0000
0100
0000
0000
0000
,
0010
0001
0010
0100
1000
0100
0010
0000
0000
1000
0000
0000
0100
0000
0000
0002
,
0000
0000
0000
1000
0000
0003
0100
0010
0001
0000
1000
0000
0000
0100
0000
0000
,
0001
0000
0000
0100
0000
0010
0000
1000
0000
0000
0100
0000
0001
0000
0000
0020
,
0000
0000
0000
1000
0000
0000
0030
0100
0000
0000
0001
0000
0000
0010
0000
0000
,
1000
0000
0100
0000
0000
0010
0000
0001
0000
0000
1000
0000
0010
0000
0000
0200
,
0000
0000
0000
0001
0000
0300
0010
0000
0000
1000
0000
0000
0100
0000
0000
0001
,
0100
0000
0020
0100
0000
0000
1030
0000
0000
0000
0000
0100
0000
0010
0000
0200
,
0000
0000
0000
0010
0300
0001
0000
0010
0000
0000
1000
0000
0000
0100
0000
0002
,
1000
1000
0000
0100
0003
0000
0000
0010
0000
0100
0000
0000
0001
0000
0000
2000
,
0000
0000
0000
0001
0010
0000
0100
0001
0000
0100
0000
0000
0010
0100
0010
0001
,
0010
3000
0001
0000
0100
0000
0000
0010
0000
0000
1000
0000
0100
0000
0000
0020
,
0000
0000
0000
0001
0000
0100
0000
1000
0000
0000
0100
0000
0100
1000
0001
0100
,
1030
0000
0100
0000
0000
0100
0000
0001
0000
0000
0010
0000
1000
0000
0000
0200
,
0000
0000
0000
0010
0000
0000
0001
0000
1000
0000
0000
0010
0000
0010
0001
0010
,
1000
0000
0000
0001
0000
0300
0000
0010
0000
0001
0000
0000
1000
0000
0000
0020
,
0000
0000
0000
0100
0000
0001
0000
0100
0000
0000
1000
0000
0030
0100
1000
0100
,
0000
0000
0000
1000
0000
0000
0001
0000
0010
0000
0100
0000
1000
0000
1000
0000
0100
0000
0010
0000
0001
0000
0001
0000
0010
0000
0000
0000
0000
0000
1000
0000
0000
0000
0000
0000
0000
0000
0000
0010
0000
0000
0000
0000
0000
0100
0000
0000
,
0000
0000
0001
0000
1000
0000
0010
0000
0000
0100
0000
0000
0001
0000
1000
0000
,
0000
0010
0000
0000
0100
0000
0002
0000
0000
0000
0000
0000
0000
0000
0000
0000
,
0000
0000
0000
0010
0000
0000
0000
0000
0000
1000
0000
0000
0000
0000
0000
0103
0000
0000
0000
0000
0001
0000
0000
0000
0010
0000
0000
0000
0100
0000
0000
0000
1000
0000
0000
0000
0100
0000
0000
0000
0010
0000
0000
0000
0000
0001
0000
0000
,
0010
0100
1000
0100
0010
0001
0010
0100
0000
0000
1000
0000
0010
0000
0000
0100
,
0000
0000
0001
0000
1000
0000
0000
0010
0000
0000
0100
0000
0001
0000
0000
1000
,
0000
0000
0010
0000
0000
0100
0000
0011
0000
0000
1000
0000
0010
0000
0000
0100
,
0000
0001
0000
0000
0100
0000
0000
1000
0000
0010
0000
0000
0100
0000
0000
1000
,
0000
0001
0000
0000
0100
0000
0000
0220
0330
0001
0000
0000
1000
0000
0010
0000
,
0000
0100
0000
0000
0001
0000
1000
0000
0000
0010
0000
0000
1000
0000
0000
0100
,
0000
0001
0000
0000
0100
0000
0000
1100
0000
0001
0000
0000
0010
0000
0000
1000
,
0000
0000
0100
0000
0010
0000
1000
0100
0010
0001
0010
0100
1000
0100
0010
0001
,
0010
0000
0100
0000
1000
0000
0100
0000
0010
0000
0001
0000
0010
0000
0100
0000
1000
0000
0100
0000
0010
0000
0001
0000
1010
0000
0000
0000
0000
0000
0100
0000
0000
0000
0000
0000
0001
0000
0000
0000
0000
0000
0000
0000
0000
0020
0000
0000
,
0000
0000
0000
0100
0030
1000
0100
0001
0000
0000
0010
0000
0100
0000
0000
0001
,
0000
1000
0000
0000
0010
0000
0000
0101
0000
0000
0001
0000
0100
0000
0000
0020
,
0000
0000
0000
1000
0030
0001
0100
0010
0000
0000
1000
0000
0010
0000
0000
0100
,
0000
0001
0000
0000
0100
0000
0000
2002
3003
0000
0100
0000
0001
0000
0000
0200
,
0000
0000
0000
0001
0300
0010
1000
0001
0000
0000
0100
0000
0001
0000
0000
0010
,
0000
1000
0000
0000
0010
0000
0000
1100
0000
0000
0001
0000
1000
0000
0000
0020
,
0000
0000
0000
1000
0030
0100
0001
1000
0000
0000
0001
0010
0100
1000
0100
0010
,
0001
0010
0100
1000
0100
0010
0100
0001
0000
0000
0010
0000
1000
0000
0000
0010
,
0000
0000
0100
0000
0000
1000
0000
0002
0000
0000
0010
0000
1000
0000
0000
0010
,
0000
0100
0013
1000
0100
0000
0001
0010
0001
0000
0100
0000
0010
0000
0000
0100
,
0000
0000
0001
0000
1000
0000
0000
0010
0000
1000
0200
0000
0001
0000
0010
0000
,
1000
0000
0001
0300
0010
1000
0100
1000
0000
0100
0000
0000
0010
0000
0200
0000
,
0000
0000
0000
0001
0300
0010
1000
0001
0000
0100
0000
0000
0010
0000
2000
0000
,
0100
0100
0000
0001
3000
0010
0001
0100
0000
0000
0010
0000
1000
0000
0000
0100
,
0000
0000
0010
0000
0000
1000
0000
0010
0000
0000
0100
0000
0001
0000
0000
0020
,
0000
0000
0000
0100
0030
1000
0001
0100
0000
0000
1000
0000
0010
0000
0000
0100
,
0000
0000
0001
0000
0000
1000
0000
0020
0000
0100
0000
0001
0000
0100
0000
1000
,
0000
0001
0100
1000
0031
1000
0100
0010
0000
0001
0000
0000
0100
0000
0000
0010
,
0000
0000
1000
0000
0010
0000
0000
0100
0000
0020
0000
0100
0000
0000
0000
0001
,
0031
0000
0000
0100
0000
1000
0010
0100
0000
0000
0001
0000
0100
0000
0000
2000
,
0000
0000
0000
0100
3000
0010
0001
0100
0000
0000
0010
0000
1000
0000
0000
0002
,
0000
0000
0000
1000
0003
0100
0010
1000
0000
0000
0100
0000
0010
0000
0000
1000
,
0000
0000
0001
0000
0000
0010
0000
0100
0000
0000
0001
0000
0100
0000
0000
0020
,
0100
0100
0000
0001
0030
1000
0100
0002
0000
0010
0000
0000
1000
0000
0100
0000
,
0000
0000
0000
0000
0000
0100
1000
0010
0000
1000
0000
0000
0010
0000
0100
0000
,
0000
0010
0000
0000
1003
0000
0100
0020
0001
0000
1000
0000
0000
0100
0000
0001
,
0000
0000
0000
0030
0100
0001
0000
0200
0000
0010
0000
0000
1000
0000
0010
0000
,
0000
0001
0000
1000
0300
0010
0100
0002
0000
0010
0000
0000
1000
0000
0000
0100
,
0000
0000
0000
0000
0000
1000
0100
1000
0000
0010
0000
0003
1000
0200
0000
0010
,
0000
1000
0000
0001
0000
0300
0010
2000
0001
0000
0010
0000
0000
0100
0000
0001
,
0000
0000
0000
0000
0000
0001
0100
0010
0000
0100
0000
3000
0001
0010
0100
1000
,
0100
0010
0001
0010
0100
1000
0100
0010
2002
0000
3003
0000
0000
0000
0100
0000
,
0000
0010
0000
1000
0000
0001
0000
0100
,
0000
0010
0100
1000
0000
0001
0000
0100
,
0000
0010
0000
1000
0000
0010
0000
0001
,
0000
0000
0100
0010
0000
1000
0100
0000
0000
0000
0001
0000
0000
0000
1000
0000
,
0000
0100
0000
1000
0000
0010
0000
0100
,
0000
0001
0010
1000
0000
0010
0000
0100
,
0000
0000
0000
0000
0000
0000
1000
0000
0000
0000
0000
0000
0000
0000
0000
0000
0000
0000
0001
0000
0000
0000
0000
0000
1000
0000
0000
0100
0000
0000
0010
0000
0000
0001
0000
0000
0010
0000
0000
0100
0000
0000
1000
0000
1000
0000
0100
0000
,
0010
0001
0010
0100
1000
0100
0010
0001
0010
0100
1000
0100
0220
0000
0000
0000
0000
0000
0000
0000
0000
0000
0000
0000
,
0000
0330
0000
0000
;
