#TITLE:I'm Blue;
#SUBTITLE:(Remix);
#ARTIST:Eiffel 65 feat. Nightcore;
#TITLETRANSLIT:;
#SUBTITLETRANSLIT:;
#ARTISTTRANSLIT:;
#CREDIT:owenviau1;
#BANNER:BN.PNG;
#BACKGROUND:BG.PNG;
#LYRICSPATH:;
#CDTITLE:ov1_title.png;
#MUSIC:Nightcore - I'm Blue (Remix).mp3;
#OFFSET:-0.320;
#SAMPLESTART:33.548;
#SAMPLELENGTH:29.999;
#SELECTABLE:YES;
#BPMS:0.000=178.850;
#STOPS:;
#BGCHANGES:;
// cache tags:
#FIRSTBEAT:1.000;
#LASTBEAT:470.000;
#SONGFILENAME:Songs/Owenviau1 Simfiles 4/I'm Blue (Remix) - Nightcore [owenviau1]/Nightcore - I'm Blue (Remix).sm;
#HASMUSIC:1;
#HASBANNER:1;
#MUSICLENGTH:162.332;
// end cache tags

//---------------dance-single - ----------------
#NOTES:
     dance-single:
     :
     Challenge:
     11:
     0.980,0.905,0.351,0.216,0.835,1022.000,57.000,35.000,29.000,1.000:

0000
0000
1000
0100
0010
0001
0010
0100
,
1000
0001
0100
0020
0030
1000
0001
0100
,
0001
0010
0100
0010
0001
0010
0100
1000
,
0001
0100
0010
2000
3000
1000
0100
0010
,
0001
0010
0100
1000
0001
0100
0010
1000
,
0010
0100
0001
0020
0030
0001
1000
0100
,
0010
0001
0010
0100
1000
0010
0100
0001
,
0010
0100
1000
0020
0000
0000
0030
0000
,
M000
0000
000M
0000
00M0
0000
0000
0000
1000
0100
1000
0000
0100
0000
0010
0000
,
0001
0000
1000
0000
0010
0000
1000
0000
0100
0010
0001
0000
0010
0000
0100
0000
,
1000
0000
0001
0000
0100
0000
0010
0000
1000
0001
0100
0000
0010
0000
1000
0000
,
0100
0000
0010
0000
0001
0000
1000
0000
0010
0100
0001
0000
0010
0000
0100
0000
,
1000
0001
0100
0000
0010
0000
0001
0000
1001
0000
0010
0000
0100
0000
0001
0000
,
1000
0000
0100
0000
0010
0000
0001
0000
0010
1000
0001
0000
1000
0000
0010
0000
,
1000
0000
0001
0000
0010
0000
0100
0000
1000
0001
0010
0000
0100
0000
1000
0000
,
0001
0000
1000
0000
0010
0000
0100
0000
0001
0010
0100
0000
1000
0100
0010
0000
,
0001
1000
0010
0000
1001
0000
0100
0000
0001
0000
1000
0100
0010
0000
0001
0000
,
1000
0010
0100
0000
0001
0000
0100
0000
0010
0000
1000
0100
0010
0000
0001
0000
,
1000
0010
0100
0010
1000
0001
0010
0100
1000
0000
0100
0010
0001
0000
0010
0000
,
0100
0010
0001
0000
0010
0000
0100
0000
1000
0001
1000
0000
0010
0000
0100
0000
,
0001
0000
1000
0000
0100
0000
0000
0000
1001
0000
0100
0000
0010
1000
0001
0000
,
0010
0000
0100
0000
1000
0010
0100
0000
0001
0000
0010
0000
0100
1000
0001
0000
,
1000
0000
0010
0100
0001
0010
0100
1000
0001
0000
1000
0000
0001
0010
0100
0000
,
0010
0000
1000
0000
0001
1000
0010
0000
0001
0000
0010
0000
0100
1000
0100
0010
,
0001
0000
0010
0100
1000
0001
0100
0010
1000
0000
0001
0000
1000
0100
0010
0000
,
0001
0000
1000
0000
0010
1000
0100
0000
0010
0000
0001
0000
1000
0001
0100
0000
,
1000
0000
0100
0010
0001
1000
0001
0010
0100
0000
0010
0000
1000
0001
0100
0000
,
0010
0000
0100
0000
1000
0100
0010
0000
0001
0000
0100
0000
0010
1000
0001
0000
,
0010
0000
0100
1000
0100
0010
0001
1000
0001
0000
0010
0000
0100
1000
0100
0000
,
0010
0000
0001
0000
1000
0001
0010
0000
0100
0000
1000
0000
0010
0100
0001
0000
,
1000
0000
0001
0100
0010
1000
0010
0100
0001
0000
0010
0000
0100
1000
0001
0000
,
0010
0000
0100
0000
1000
0001
0010
0000
0100
0000
1000
0000
0010
0100
0010
0000
,
1000
0000
0100
0010
0001
1000
0010
0100
M001
0000
00M0
0000
0M00
0000
000M
0000
,
0200
0000
1300
0100
0010
0001
0010
0100
,
1000
0001
0100
0020
0030
1000
0001
0100
,
0001
0010
0100
0010
0001
0010
0100
1000
,
0001
0100
0010
2000
3000
1000
0100
0010
,
0001
0010
0100
1000
0001
0100
0010
1000
,
0010
0100
0001
0020
0030
0001
1000
0100
,
0010
0001
0010
0100
1000
0010
0100
0001
,
0010
0100
1000
0020
0000
0000
0M30
000M
,
0000
0000
2000
0000
3100
0010
0001
1000
,
0010
1000
0001
0200
0300
0010
1000
0100
,
0010
0001
1000
0010
1000
0001
0100
1000
,
0100
0010
0001
2000
3000
0010
0100
0001
,
1000
0100
0010
0001
1000
0010
1000
0001
,
0100
0001
0010
0200
0300
1000
0100
0010
,
0001
1000
0010
0100
0001
0010
0100
1000
,
0001
1000
0010
0200
0001
1000
0310
0100
,
1000
0000
0001
0000
0100
0000
0010
0000
1001
0000
0100
0000
0010
1000
0000
0100
,
0000
0010
0000
0001
0000
1000
0020
0000
0130
0000
0001
0000
1000
0000
0001
0010
,
0000
0100
0000
1000
0010
0000
0100
0000
1000
0000
0001
0000
0100
0010
0000
1000
,
0000
0001
0000
1000
0000
0100
0020
0000
0031
0000
0010
0000
0100
0000
1000
0100
,
0000
0010
0000
0001
1000
0010
0100
0010
1001
0000
0010
0000
0100
1000
0000
0010
,
0000
0100
0000
0001
0000
1000
0020
0000
0130
0000
0010
0000
0001
0000
0010
0100
,
0000
1000
0000
0100
0010
0000
0001
0000
1001
0000
0100
0000
0010
1000
0000
0001
,
0000
0100
0000
0010
1000
0000
0100
0000
1001
0000
1000
0000
0001
1000
0001
0100
,
0020
0000
2030
0000
3002
0000
0003
0000
0110
0000
1000
0000
0001
0010
0000
0100
,
0000
1000
0000
0001
0000
0100
0020
0000
1030
0000
0001
0000
0100
0000
0010
1000
,
0000
0100
0000
0010
0001
0000
1000
0000
1001
0000
0001
0000
0010
0100
0000
1000
,
0000
0001
0000
0100
0000
0010
2000
0000
3001
0000
0100
0000
0010
0000
1000
0001
,
0000
0100
0000
0010
1000
0100
0010
0001
0110
0000
1000
0000
0100
0010
0000
0001
,
0000
0100
0000
0010
0000
1000
0200
0000
0310
0000
0001
0000
1000
0000
0010
0100
,
0000
0001
0000
1000
0010
0000
0100
0000
1001
0000
0010
0000
0100
0001
0000
0010
,
0000
0100
0000
1000
0001
0000
0010
0000
0100
0000
1000
0000
0010
0000
0100
0001
,
0000
0010
0000
0100
1000
0100
0010
0001
0110
0000
1000
0000
0001
0010
0000
0100
,
0000
1000
0000
0001
0000
0100
0020
0000
1030
0000
0001
0000
0100
0000
0010
1000
,
0000
0100
0000
0010
0001
0000
1000
0000
1001
0000
0001
0000
0010
0100
0000
1000
,
0000
0001
0000
0100
0000
0010
2000
0000
3001
0000
0100
0000
0010
0000
1000
0001
,
0000
0100
0000
0010
1000
0100
0010
0001
1001
0000
0100
0000
0010
1000
0000
0100
,
0000
0010
0000
0001
0000
1000
0020
0000
0130
0000
0001
0000
1000
0000
0001
0010
,
0000
0100
0000
1000
0010
0000
0100
0000
1000
0000
0001
0000
0100
0010
0000
1000
,
0000
0001
0000
1000
0100
0000
0010
0000
0001
0000
1000
0000
0100
0010
0001
1000
,
0010
1000
0001
0100
0010
1000
0100
0010
1001
0000
0100
0000
0010
1000
0001
0000
,
0010
0000
0100
0000
1000
0010
0100
0000
0001
0000
0010
0000
0100
1000
0001
0000
,
1000
0000
0010
0100
0001
0010
0100
1000
0001
0000
1000
0000
0001
0010
0100
0000
,
0010
0000
1000
0000
0001
1000
0010
0000
0001
0000
1000
0000
0100
0000
0010
0000
,
0001
0000
0010
0100
1000
0001
0100
0010
1000
0000
0001
0000
1000
0100
0010
0000
,
0001
0000
1000
0000
0010
1000
0100
0000
0010
0000
0001
0000
1000
0001
0100
0000
,
1000
0000
0100
0010
0001
1000
0001
0010
0100
0000
0010
0000
1000
0001
0100
0000
,
0010
0000
0100
0000
1000
0100
0010
0000
0001
0000
0100
0000
0010
1000
0001
0000
,
0010
0000
0100
1000
0100
0010
0001
1000
0001
0000
0010
0000
0100
1000
0100
0000
,
0010
0000
0001
0000
1000
0001
0010
0000
0100
0000
1000
0000
0010
0100
0001
0000
,
1000
0000
0001
0100
0010
1000
0010
0100
0001
0000
0010
0000
0100
1000
0001
0000
,
0010
0000
0100
0000
1000
0001
0010
0000
0200
0000
0000
0000
0000
0000
0000
0000
,
0000
0000
2300
0000
3100
0010
0001
0010
,
0100
1000
0001
0100
0010
1000
0010
0100
,
0011
0001
1000
0100
0010
0100
0010
0001
,
1000
0010
0100
0001
0010
0100
0010
0001
,
1010
0010
0100
0001
0010
0100
0010
0001
,
1000
0001
0100
1001
0001
0100
0010
1000
,
1010
0010
0100
0001
0010
0100
0010
0001
,
1000
0010
1000
1001
0001
0100
0010
1000
,
0010
0100
0001
0010
1100
0000
1001
0000
,
0110
1010
0101
0011
,
0110
1001
0101
1010
,
0110
1001
0011
0110
,
1100
1001
0101
0110
,
1010
0110
0101
0011
,
0110
1001
0110
1001
,
0101
0000
0000
0000
0000
0000
0000
0000
0011
0000
0000
0000
0000
0000
0000
0000
0110
0000
0000
0000
0000
0000
0000
0000
20M0
00M0
00M0
00M0
0MMM
0M0M
0M0M
0M0M
,
0MMM
00M0
00M0
00M0
00M0
0000
0000
0000
0000
0000
0000
0000
0000
0000
0000
0000
3110
0000
0000
0000
1000
0000
0000
0000
0001
0000
0010
0000
0000
0000
0100
0000
,
0000
1000
0000
0001
0000
0100
0020
0000
1030
0000
0001
0000
0100
0000
0010
1000
,
0000
0100
0000
0010
0001
0000
1000
0000
1001
0000
0001
0000
0010
0100
0000
1000
,
0000
0001
0000
0100
0000
0010
2000
0000
3001
0000
0100
0000
0010
0000
1000
0001
,
0000
0100
0000
0010
1000
0100
0010
0001
0110
0000
1000
0000
0100
0010
0000
0001
,
0000
0100
0000
0010
0000
1000
0200
0000
0310
0000
0001
0000
1000
0000
0010
0100
,
0000
0001
0000
1000
0010
0000
0100
0000
1001
0000
0010
0000
0100
0001
0000
0010
,
0000
0100
0000
1000
0001
0000
0010
0000
0100
0000
1000
0000
0010
0000
0100
0001
,
0000
0010
0000
0100
1000
0100
0010
0001
0110
0000
1000
0000
0001
0010
0000
0100
,
0000
1000
0000
0001
0000
0100
0020
0000
1030
0000
0001
0000
0100
0000
0010
1000
,
0000
0100
0000
0010
0001
0000
1000
0000
1001
0000
0001
0000
0010
0100
0000
1000
,
0000
0001
0000
0100
0000
0010
2000
0000
3001
0000
0100
0000
0010
0000
1000
0001
,
0000
0100
0000
0010
1000
0100
0010
0001
1001
0000
0100
0000
0010
1000
0000
0100
,
0000
0010
0000
0001
0000
1000
0020
0000
0130
0000
0001
0000
1000
0000
0001
0010
,
0000
0100
0000
1000
0010
0000
0100
0000
1000
0000
0001
0000
0100
0010
0000
1000
,
0000
0001
0000
1000
0100
0000
0010
0000
0001
0000
1000
0000
0100
0010
0001
1000
,
0010
1000
0001
0100
0010
1000
0100
0010
1001
0000
0000
0000
0000
0000
0000
0000
;

//---------------dance-single - ----------------
#NOTES:
     dance-single:
     :
     Hard:
     8:
     0.488,0.470,0.018,0.025,0.000,548.000,3.000,4.000,0.000,0.000:

0000
1000
0100
0010
,
0001
0000
0100
0020
0030
0000
0010
0000
,
1000
0001
0010
0100
,
1000
0000
0001
0200
0300
0000
0010
0000
,
1000
0001
0010
0100
,
1000
0000
0001
0200
0300
0000
0010
0000
,
1000
0001
0010
0100
,
1000
0000
0010
0200
0300
0000
0000
0000
,
0000
0000
0000
0000
1000
0010
0100
0000
,
0001
0000
0010
0000
0001
1000
0001
0000
,
0100
0000
0010
0000
1000
0001
0010
0000
,
0100
0000
1000
0000
0001
1000
0001
0000
,
0010
0100
0010
0000
0001
0000
0100
0000
,
0010
1000
0001
0000
1000
0000
0100
0000
,
1000
0001
0010
0000
0100
0000
0001
0000
,
1000
0001
0010
0000
1000
0001
0100
0010
,
1000
0010
0100
0000
0001
0000
0010
0000
,
0100
0100
1000
0001
,
0001
0000
1000
0010
1000
0000
0001
0000
,
0100
0010
1000
0100
,
0010
0001
0100
0010
,
1000
0001
0100
0010
,
1000
0100
1000
0000
0100
0000
0010
0000
,
0001
0100
0010
1000
,
0001
1000
0001
0010
0100
0000
1000
0000
,
0010
0100
0001
1000
,
0100
0010
0001
0010
0100
0000
1000
0000
,
0001
0100
0010
1000
,
0001
1000
0001
0010
0100
0000
1000
0000
,
0010
0100
0001
1000
,
0100
1000
0100
0010
0001
0000
0100
0000
,
0010
1000
0001
0010
,
0100
1000
0100
0010
0001
0000
0000
0000
,
0000
0000
1000
0010
,
0100
0000
0001
0010
0000
0000
0100
0000
,
1000
0001
0100
0010
,
1000
0000
0100
0010
0000
0000
0001
0000
,
0100
0001
1000
0100
,
0010
0000
0001
0100
0000
0000
0010
0000
,
1000
0100
0010
0001
,
1000
0000
0010
1000
0000
0000
0000
0000
,
0000
0000
1000
0001
,
0010
0000
0100
1000
0000
0001
0100
0000
,
0010
1000
0001
0010
,
0100
0000
1000
0100
0000
0100
0010
0000
,
0001
0100
0010
1000
,
0001
0000
1000
0100
0000
0100
0010
0000
,
0001
1000
0010
0100
,
0001
0000
0001
0100
0000
0100
1000
0000
,
0010
0000
0100
0000
0001
0000
1000
0100
,
0010
0001
0100
0000
0010
0000
1000
0000
,
0001
0000
0010
0000
0100
0000
1000
0001
,
0100
0010
1000
0000
0001
0000
0010
0000
,
0100
0000
1000
0000
0001
0000
0100
0010
,
1000
0010
0100
0000
0001
0000
1000
0000
,
0100
0010
0001
0010
0100
0000
1000
0001
,
0100
0000
0010
0000
1000
0000
1000
0001
,
0010
0100
1000
0000
0001
0000
0010
0000
,
0100
1000
0001
0000
0100
0000
0010
0000
,
1000
0010
1000
0000
0100
0000
0010
0000
,
0001
0100
0001
0000
0010
0000
0100
0000
,
1000
0001
0010
0000
0100
0000
1000
0001
,
0010
0100
1000
0001
,
0100
0010
1000
0000
0001
0000
0010
0100
,
1000
0000
0100
0010
0001
0000
0100
0000
,
0010
0000
1000
0000
0001
1000
0001
0000
,
0010
0000
0100
0000
1000
0001
0100
0000
,
0010
0000
1000
0000
0100
1000
0100
0000
,
0010
0000
0001
0000
0100
0001
0100
0000
,
0010
0000
1000
0000
0100
0010
0100
0000
,
1000
0000
0001
0000
0100
0001
0100
0000
,
0010
0000
1000
0000
0100
1000
0100
0000
,
0001
0010
0100
0000
0001
0000
1000
0000
,
0010
0000
0100
0000
0001
1000
0001
0000
,
1000
0010
1000
0000
0100
1000
0100
0000
,
0010
0000
0001
0000
0100
0001
0100
0000
,
0100
0010
0100
0000
1000
0100
1000
0000
,
0001
0000
0100
0000
0010
1000
0001
0000
,
1000
0001
0010
0000
0100
1000
0001
0000
,
0100
0010
1000
0000
0010
0100
0001
0000
,
0001
0010
0100
0000
0100
1000
0001
0000
,
0001
1000
0010
0000
0100
0001
1000
0000
,
1000
0100
0010
0000
0010
0001
0100
0000
,
0010
0000
1000
0000
0001
1000
0001
0000
,
0100
0010
0100
0000
1001
0000
0000
0000
,
0000
0000
0010
0100
,
0001
0000
0010
0100
0000
0000
1000
0000
,
0001
0100
0010
1000
,
0100
0000
0010
0001
0000
0000
0100
0000
,
0010
1000
0001
0010
,
0100
0000
1000
0001
0000
0000
0010
0000
,
0100
1000
0001
0100
,
0010
0000
1000
0001
0000
0000
0010
0000
,
0100
1000
0001
0010
,
0100
1000
0001
1000
,
0010
1000
0001
0010
,
0100
0010
0001
0100
,
0001
1000
0010
0100
,
0001
1000
0100
0010
,
0001
0100
0010
1000
,
0001
0010
1001
0000
,
0000
0000
1000
0100
,
0010
0000
0001
1000
0001
0000
0100
0000
,
0010
1000
0010
0000
0100
0000
0001
1000
,
0001
0010
0100
1000
,
0010
1000
0010
0000
0100
0000
0001
1000
,
0100
0010
0001
0100
,
0010
1000
0001
0000
0100
0000
0010
1000
,
0001
0000
0001
1000
0100
0000
0010
0000
,
0001
0100
0010
0000
1000
0000
0001
0010
,
0100
1000
0001
0100
,
0010
1000
0001
0010
0100
0000
1000
0000
,
0001
0000
0100
0010
1000
0000
0001
0000
,
1000
0100
0010
0001
1000
0000
0010
0000
,
0100
0000
0001
1000
0001
0000
0010
0000
,
0100
1000
0001
0000
0100
0000
0010
1000
,
0001
0000
0100
0010
1000
0000
0100
0000
,
0010
0001
0100
0000
1001
0000
0000
0000
;
