#TITLE:Last Message;
#SUBTITLE:;
#ARTIST:good-cool Feat. Meg;
#TITLETRANSLIT:;
#SUBTITLETRANSLIT:;
#ARTISTTRANSLIT:;
#CREDIT:;
#BANNER:Last Message.banner.jpg;
#BACKGROUND:Last Message.bg.jpg;
#LYRICSPATH:;
#CDTITLE:CDTITLE.jpg;
#MUSIC:Last Message.mp3;
#OFFSET:-0.020;
#SAMPLESTART:38.725;
#SAMPLELENGTH:12.000;
#SELECTABLE:YES;
#BPMS:0.000=155.020;
#STOPS:134.500=0.220
,137.500=0.020
,139.000=0.120
;
#BGCHANGES:;
// cache tags:
#FIRSTBEAT:1.000;
#LASTBEAT:240.000;
#SONGFILENAME:Songs/Definitive Keyboard Megapack/Last Message(Leone510)/Last Message.sm;
#HASMUSIC:1;
#HASBANNER:1;
#MUSICLENGTH:97.181;
// end cache tags

//---------------dance-single - ----------------
#NOTES:
     dance-single:
     :
     Hard:
     12:
     1.000,1.000,1.000,1.000,0.962,614.000,176.000,99.000,0.000,15.000:
0000
0000
0000
0000
0110
0000
0000
0000
1010
0000
0000
0000
0010
0010
0000
0011
,
0000
0010
1100
0001
1010
0000
0001
0010
2000
0000
3202
0000
0000
0000
0003
0000
,
0300
0000
0000
0000
1100
0001
1000
0001
1010
0100
1000
0010
0101
0010
1000
0100
,
1010
0001
1000
0001
1100
0000
0100
0010
1000
0000
0100
0000
0110
0000
0100
0010
,
0000
0010
0101
0000
1001
0010
0100
1000
0110
0001
0100
0010
1001
0100
0010
0001
,
2020
0000
0000
3000
0131
0000
0001
0010
2000
0000
3202
0000
0000
0000
0003
0000
,
0300
0000
0000
0000
1100
0001
1000
0001
1010
0100
1000
0010
0101
0010
1000
0100
,
1010
0001
1000
0001
1100
0000
0100
0010
1000
0000
0200
0000
0300
1010
0000
0010
,
0001
0000
2002
3003
1001
0010
0100
1000
0110
0001
0100
0010
1001
0100
2020
0000
,
3030
0202
1303
0100
0110
0001
0010
0100
,
1010
0100
0010
0001
0110
1000
0100
0010
,
1001
0100
0001
0100
1010
0100
0010
1000
,
0011
0000
0100
0000
1000
0000
0201
0000
1310
0001
0010
0100
1010
0001
1000
0100
,
1001
0010
1000
0020
0101
0000
0130
0000
0110
0000
0001
0000
0010
0000
0100
0000
,
1010
0100
0010
0001
0110
1000
0100
0010
,
1001
0100
0001
0100
1010
0100
0010
1000
,
0011
0000
0100
0000
1010
0100
0001
0100
0011
1000
0010
0100
1010
0001
0010
0100
,
1001
0100
0010
0002
1000
0000
0103
0000
1001
0000
0010
0000
0001
0000
0100
0000
,
1100
0010
0100
0001
1010
0010
0100
1000
,
0011
0100
1000
0010
1001
0010
0100
1000
,
0110
0000
0001
0000
0101
1000
0100
0010
1100
0010
1000
0100
1010
0001
1000
0001
,
0110
0001
0100
0010
1001
0000
1000
0000
0011
0000
0100
0000
1000
0000
0010
0000
,
0101
0010
1000
0100
1010
0100
0010
0001
,
0110
0010
1000
0010
0101
0100
0010
1000
,
0101
0010
1000
0000
0202
0303
2020
3030
0000
0000
0220
0330
0000
0000
0202
0303
,
0000
0000
0000
0000
1100
0001
0100
0001
1010
0100
1000
0010
0101
1000
0010
0100
,
0011
0100
0010
0001
1100
0010
1000
0001
1100
0010
0100
0010
0101
0010
0001
0000
,
1100
0100
0101
0010
1010
0100
1001
0100
,
0011
0000
1000
0000
0110
0000
0001
0000
1010
0000
0100
0000
1100
0010
0001
0010
,
1001
0010
0100
0010
1001
0100
0010
0001
1100
0001
0100
0010
1001
0100
0001
0100
,
0011
1000
0001
1000
0011
0100
1000
0100
1010
0100
0001
0100
1001
0010
0100
0010
,
0101
1000
0010
0000
0011
0000
0100
0000
1001
0000
0010
0000
1100
0000
0001
0000
,
1010
0000
0100
0000
0110
0001
1000
0001
0110
0001
1000
0100
1010
0001
2020
0000
,
3030
0000
0202
0303
0100
0100
0110
0000
0001
0001
1010
0000
0101
0000
0000
0000
,
1010
0000
0100
0100
0110
0000
0011
0000
1010
0000
0000
0000
0101
0000
0000
0000
,
1010
0100
1001
0010
0101
0100
1100
0100
,
0110
1000
0011
1000
0110
0001
1010
0100
,
0011
1000
0101
0010
1100
0001
0110
0001
,
1000
0000
0100
0010
1100
0000
0001
0000
1010
0000
1000
0100
0011
1000
0100
1000
,
0110
0001
1000
0001
0110
1000
0001
1000
0011
0100
1000
0010
0101
1000
0100
0010
,
1001
0100
0010
1000
0101
1000
0100
0010
1100
0010
0100
0001
1010
0100
0001
0100
,
0011
1000
0100
0001
1010
0001
0010
0100
0011
1000
0100
0001
0110
1000
0010
1000
,
0011
0100
1000
0001
0110
0001
0100
0010
1100
0001
0100
1000
0011
0100
0001
1000
,
0020
0230
2300
3002
0203
0302
0023
2030
,
0000
3020
2030
3020
2030
3200
0302
0000
,
0203
0000
0320
0230
0000
0320
0230
0000
,
0320
0000
0230
0000
0000
0000
0320
0000
0230
0000
0001
0010
2302
0010
0100
0000
,
3023
0230
2300
3002
0203
0302
0023
2030
,
0000
3020
2030
3020
2030
3200
0302
0000
,
0203
0000
0320
0230
0000
0320
0230
0000
,
0320
0000
0230
0000
0000
0000
0320
0000
0230
1000
0310
0001
2020
0100
3130
0100
,
1010
0000
0001
0010
2000
0000
3202
0000
0000
0000
0003
0000
0300
0000
0000
0000
,
1100
0001
1000
0001
1010
0100
1000
0010
0101
0010
1000
0100
1010
0001
1000
0001
,
1100
0000
0100
0010
1000
0000
0100
0000
0110
0000
0100
0010
0000
0010
0101
0000
,
1001
0010
0100
1000
0110
0001
0100
0010
1001
0100
0010
0001
2020
0000
0000
3000
,
0131
0000
0001
0010
2000
0000
3202
0000
0000
0000
0003
0000
0300
0000
0000
0000
,
1100
0001
1000
0001
1010
0100
1000
0010
0101
0010
1000
0100
1010
0001
1000
0001
,
1100
0000
0100
0010
1000
0000
0200
0000
0300
1010
0000
0010
0001
0000
2002
3003
,
1001
0010
0100
1000
0110
0001
0100
0010
1001
0100
2020
0000
3030
0000
0202
0303
,
0100
0010
0001
0100
1000
0100
0001
0100
0010
0001
0010
0100
1000
0000
0000
2002
0000
0000
3003
0000
0000
2020
0000
0000
,
3030
0000
0000
0000
;
